<?xml version="1.0" standalone="no"?>
<!DOCTYPE svg PUBLIC "-//W3C//DTD SVG 1.1//EN" "http://www.w3.org/Graphics/SVG/1.1/DTD/svg11.dtd" >
<svg xmlns="http://www.w3.org/2000/svg" xmlns:xlink="http://www.w3.org/1999/xlink" version="1.1">
<metadata>
Created by FontForge 20161003 at Mon Jul 17 05:46:06 2017
 By www-data
Copyright (C) 2001, 2008 Hoefler &#38; Frere-Jones. http://www.typography.com
</metadata>
<defs>
<font id="GothamNarrowUltra" horiz-adv-x="500" >
  <font-face 
    font-family="GothamNarrowUltra"
    font-weight="500"
    font-stretch="condensed"
    units-per-em="1000"
    panose-1="0 0 0 0 0 0 0 0 0 0"
    ascent="800"
    descent="-200"
    x-height="546"
    cap-height="700"
    bbox="-74 -296 1163 1030"
    underline-thickness="50"
    underline-position="-150"
    unicode-range="U+0020-FB04"
  />
<missing-glyph 
d="M0 -200v1000h500v-1000h-500zM71 750l179 -390l179 390h-358zM50 -76l172 376l-172 376v-752zM450 676l-172 -376l172 -376v752zM250 240l-179 -390h358z" />
    <glyph glyph-name="f_f" unicode="ff" horiz-adv-x="752" 
d="M439 0v383h-53v158h53v1q0 94 47 141t145 47q71 0 119 -12v-138q-28 7 -58 7q-48 0 -48 -41v-5h106v-158h-101v-383h-210zM63 0v383h-52v163h52q0 91 46 137q48 47 145 47q72 0 120 -12v-138q-30 7 -58 7q-48 0 -48 -41v-5h106v-158h-102v-383h-209z" />
    <glyph glyph-name="fi" unicode="fi" horiz-adv-x="647" 
d="M63 0v383h-52v163h52q0 91 46 137q48 47 145 47q72 0 120 -12v-138q-30 7 -58 7q-48 0 -48 -41v-5h106v-158h-102v-383h-209zM407 0v546h210v-546h-210zM404 582v143h216v-143h-216z" />
    <glyph glyph-name="fl" unicode="fl" horiz-adv-x="647" 
d="M63 0v383h-52v163h52q0 91 46 137q48 47 145 47q72 0 120 -12v-138q-30 7 -58 7q-48 0 -48 -41v-5h106v-158h-102v-383h-209zM407 0v725h210v-725h-210z" />
    <glyph glyph-name="f_f_i" unicode="ffi" horiz-adv-x="1024" 
d="M439 0v383h-53v158h53v1q0 94 47 141t145 47q71 0 119 -12v-138q-28 7 -58 7q-48 0 -48 -41v-5h106v-158h-101v-383h-210zM63 0v383h-52v163h52q0 91 46 137q48 47 145 47q72 0 120 -12v-138q-30 7 -58 7q-48 0 -48 -41v-5h106v-158h-102v-383h-209zM783 0v546h210v-546
h-210zM780 582v143h216v-143h-216z" />
    <glyph glyph-name="f_f_l" unicode="ffl" horiz-adv-x="1024" 
d="M439 0v383h-53v158h53v1q0 94 47 141t145 47q71 0 119 -12v-138q-28 7 -58 7q-48 0 -48 -41v-5h106v-158h-101v-383h-210zM63 0v383h-52v163h52q0 91 46 137q48 47 145 47q72 0 120 -12v-138q-30 7 -58 7q-48 0 -48 -41v-5h106v-158h-102v-383h-209zM783 0v725h210v-725
h-210z" />
    <glyph glyph-name=".notdef" 
d="M0 -200v1000h500v-1000h-500zM71 750l179 -390l179 390h-358zM50 -76l172 376l-172 376v-752zM450 676l-172 -376l172 -376v752zM250 240l-179 -390h358z" />
    <glyph glyph-name=".null" horiz-adv-x="0" 
 />
    <glyph glyph-name="nonmarkingreturn" horiz-adv-x="333" 
 />
    <glyph glyph-name="space" unicode=" " horiz-adv-x="198" 
 />
    <glyph glyph-name="exclam" unicode="!" horiz-adv-x="297" 
d="M96 222l-69 373v105h243v-105l-69 -373h-105zM39 0v180h219v-180h-219z" />
    <glyph glyph-name="quotedbl" unicode="&#x22;" horiz-adv-x="493" 
d="M259 326l18 374h214v-6l-127 -368h-105zM14 326l18 374h214v-6l-127 -368h-105z" />
    <glyph glyph-name="numbersign" unicode="#" horiz-adv-x="624" 
d="M576 307v-181h-109l-19 -126h-144l19 126h-93l-19 -126h-143l19 126h-67v181h94l14 90h-81v181h108l19 122h144l-19 -122h93l19 122h144l-19 -122h68v-181h-96l-13 -90h81zM266 404l-15 -104h105l16 104h-106z" />
    <glyph glyph-name="dollar" unicode="$" horiz-adv-x="591" 
d="M569 621l-88 -151q-37 27 -87 45t-92 18h-10q-60 0 -60 -35v-2q0 -18 21 -29t75 -22q130 -35 191 -84t61 -140v-4q0 -88 -58.5 -145t-157.5 -70v-103h-111v102q-147 16 -253 95l91 150q115 -79 219 -79h10q65 0 65 36v2q0 18 -22 28.5t-80 22.5q-127 35 -188 84t-61 138
v4q0 89 58 147t163 69v65h112v-66q113 -14 202 -76z" />
    <glyph glyph-name="percent" unicode="%" horiz-adv-x="822" 
d="M190 311q-75 0 -122 54.5t-47 141.5v7q0 87 46.5 141.5t122.5 54.5q75 0 121.5 -54.5t46.5 -141.5v-7q0 -87 -47 -141.5t-121 -54.5zM190 593q-43 0 -43 -78v-9q0 -37 12 -57.5t31 -20.5t30.5 20.5t11.5 57.5v9q0 37 -11.5 57.5t-30.5 20.5zM371 376l221 324h131
l-275 -382l-217 -318h-131zM632 -10q-74 0 -121 54.5t-47 141.5v7q0 87 46.5 141.5t121.5 54.5q76 0 122.5 -54.5t46.5 -141.5v-7q0 -87 -47 -141.5t-122 -54.5zM632 107q19 0 31 20.5t12 57.5v9q0 37 -11.5 57.5t-31.5 20.5q-42 0 -42 -78v-9q0 -37 11.5 -57.5t30.5 -20.5z
" />
    <glyph glyph-name="ampersand" unicode="&#x26;" horiz-adv-x="633" 
d="M487 -15l-51 57q-83 -55 -184 -55q-107 0 -175 53.5t-68 147.5v3q0 127 132 196q-47 71 -47 139v2q0 78 58.5 132t152.5 54q93 0 148.5 -49.5t55.5 -128.5v-2q0 -112 -119 -184l59 -68q11 17 48 94l137 -55q-37 -97 -79 -159l72 -81zM297 446q48 32 48 80v1
q0 21 -10.5 33.5t-27.5 12.5q-18 0 -28.5 -13.5t-10.5 -36.5v-1q0 -35 29 -76zM283 141q27 0 54 16l-91 108q-28 -27 -28 -60v-3q0 -28 18 -44.5t47 -16.5z" />
    <glyph glyph-name="quotesingle" unicode="'" horiz-adv-x="252" 
d="M14 326l18 374h219v-6l-129 -368h-108z" />
    <glyph glyph-name="parenleft" unicode="(" horiz-adv-x="392" 
d="M305 -141q-135 63 -208 162.5t-73 257.5v15q0 157 72.5 256.5t208.5 163.5l79 -129q-87 -57 -122.5 -128.5t-35.5 -169.5v-2q0 -97 35.5 -168.5t122.5 -129.5z" />
    <glyph glyph-name="parenright" unicode=")" horiz-adv-x="392" 
d="M86 -141l-78 128q87 58 122.5 129.5t35.5 168.5v2q0 98 -35.5 169.5t-122.5 128.5l78 129q136 -64 209 -163.5t73 -256.5v-15q0 -158 -73 -257.5t-209 -162.5z" />
    <glyph glyph-name="asterisk" unicode="*" horiz-adv-x="391" 
d="M133 332l35 135l-98 -97l-65 108l135 39l-135 38l65 109l98 -98l-35 136h125l-34 -136l98 98l64 -109l-135 -38l135 -39l-64 -108l-98 97l34 -135h-125z" />
    <glyph glyph-name="plus" unicode="+" horiz-adv-x="574" 
d="M193 102v159h-155v182h155v158h189v-158h154v-182h-154v-159h-189z" />
    <glyph glyph-name="comma" unicode="," horiz-adv-x="259" 
d="M30 -157l-17 78q97 15 100 82h-91v215h216v-172q0 -103 -54.5 -149.5t-153.5 -53.5z" />
    <glyph glyph-name="hyphen" unicode="-" horiz-adv-x="377" 
d="M25 225v180h327v-180h-327z" />
    <glyph glyph-name="period" unicode="." horiz-adv-x="259" 
d="M22 0v215h216v-215h-216z" />
    <glyph glyph-name="slash" unicode="/" horiz-adv-x="470" 
d="M-40 -118l379 906h159l-378 -906h-160z" />
    <glyph glyph-name="zero" unicode="0" horiz-adv-x="643" 
d="M321 -15q-138 0 -218 99.5t-80 255.5v18q0 155 81 256t219 101q137 0 217 -100t80 -255v-18q0 -155 -81 -256t-218 -101zM322 175q40 0 62 42.5t22 122.5v19q0 80 -22.5 123t-62.5 43t-62 -42.5t-22 -122.5v-19q0 -80 22.5 -123t62.5 -43z" />
    <glyph glyph-name="one" unicode="1" horiz-adv-x="377" 
d="M126 0v505l-100 -24l-28 172l181 51h161v-704h-214z" />
    <glyph glyph-name="two" unicode="2" horiz-adv-x="548" 
d="M17 0v166l241 216q57 53 57 89q0 22 -15 37t-43 15q-48 0 -128 -76l-120 140q63 65 126.5 95.5t147.5 30.5q108 0 176.5 -60t68.5 -154v-3q0 -64 -29.5 -113t-93.5 -104l-117 -100h243v-179h-514z" />
    <glyph glyph-name="three" unicode="3" horiz-adv-x="543" 
d="M266 -14q-163 0 -268 94l106 151q68 -60 143 -60q35 0 55.5 16t20.5 42v2q0 62 -112 62h-61l-21 108l140 122h-225v177h475v-160l-147 -124q160 -46 160 -195v-2q0 -109 -75 -171t-191 -62z" />
    <glyph glyph-name="four" unicode="4" horiz-adv-x="609" 
d="M320 0v117h-294l-26 151l295 436h232v-427h75v-160h-75v-117h-207zM199 275h123v188z" />
    <glyph glyph-name="five" unicode="5" horiz-adv-x="552" 
d="M256 -14q-145 0 -257 89l97 156q88 -62 151 -62q38 0 60 19t22 50v2q0 31 -21 49t-55 18q-42 0 -89 -33l-121 60l19 366h447v-179h-286l-5 -88q48 25 103 25q90 0 153.5 -56t63.5 -161v-3q0 -118 -79 -185t-203 -67z" />
    <glyph glyph-name="six" unicode="6" horiz-adv-x="588" 
d="M305 -15q-121 0 -196 73q-87 87 -87 274v2q0 181 83.5 280.5t231.5 99.5q113 0 208 -59l-80 -154q-59 41 -117 41t-85 -38t-31 -91q60 47 133 47q80 0 140 -55.5t60 -156.5v-4q0 -121 -75 -190t-185 -69zM297 145q31 0 47.5 23t16.5 62v2q0 37 -17.5 60.5t-48.5 23.5
q-30 0 -46.5 -23t-16.5 -61v-2q0 -38 17.5 -61.5t47.5 -23.5z" />
    <glyph glyph-name="seven" unicode="7" horiz-adv-x="532" 
d="M43 0l248 514h-271v186h503v-153l-252 -547h-228z" />
    <glyph glyph-name="eight" unicode="8" horiz-adv-x="567" 
d="M283 -13q-123 0 -198 56t-75 148v4q0 116 111 168q-93 56 -93 152v3q0 86 71 140.5t185 54.5q113 0 184 -54t71 -140v-4q0 -95 -94 -151q112 -53 112 -168v-4q0 -92 -75.5 -148.5t-198.5 -56.5zM284 419q27 0 44.5 19.5t17.5 52.5v1q0 31 -17.5 50.5t-44.5 19.5
q-28 0 -45.5 -19t-17.5 -51v-1q0 -33 17.5 -52.5t45.5 -19.5zM284 141q31 0 49 22t18 53v2q0 32 -18.5 53t-48.5 21q-31 0 -49.5 -21t-18.5 -53v-2q0 -32 18 -53.5t50 -21.5z" />
    <glyph glyph-name="nine" unicode="9" horiz-adv-x="588" 
d="M241 158q58 0 84.5 37t30.5 88q-57 -51 -130 -51q-84 0 -143.5 57t-59.5 160v3q0 123 74.5 193t186.5 70q121 0 197 -74q85 -85 85 -274v-2q0 -183 -83.5 -281t-230.5 -98q-116 0 -218 65l79 151q64 -44 128 -44zM293 377q30 0 47 23.5t17 62.5v2q0 40 -18 65t-48 25
t-47 -24.5t-17 -64.5v-2q0 -39 18 -63t48 -24z" />
    <glyph glyph-name="colon" unicode=":" horiz-adv-x="266" 
d="M25 331v215h216v-215h-216zM25 0v215h216v-215h-216z" />
    <glyph glyph-name="semicolon" unicode=";" horiz-adv-x="266" 
d="M25 331v215h216v-215h-216zM33 -160l-17 78q98 15 100 82h-91v215h216v-172q0 -103 -54.5 -149t-153.5 -54z" />
    <glyph glyph-name="less" unicode="&#x3c;" horiz-adv-x="574" 
d="M514 70l-466 185v193l466 185v-200l-280 -82l280 -81v-200z" />
    <glyph glyph-name="equal" unicode="=" horiz-adv-x="574" 
d="M44 393v179h486v-179h-486zM44 132v179h486v-179h-486z" />
    <glyph glyph-name="greater" unicode="&#x3e;" horiz-adv-x="574" 
d="M60 70v200l281 81l-281 81v201l466 -185v-193z" />
    <glyph glyph-name="question" unicode="?" horiz-adv-x="485" 
d="M159 222l-26 176l9 10q128 19 128 71v1q0 18 -14.5 29t-40.5 11q-57 0 -132 -55l-86 161q109 85 241 85q108 0 174 -56.5t66 -148.5v-1q0 -83 -45 -130.5t-130 -75.5l-13 -77h-131zM112 0v180h219v-180h-219z" />
    <glyph glyph-name="at" unicode="@" horiz-adv-x="840" 
d="M421 -153q-171 0 -281 113.5t-110 294.5q0 123 51.5 228t146.5 168t213 63q159 0 263.5 -105t104.5 -252q0 -141 -62 -224.5t-148 -83.5q-104 0 -136 90q-58 -85 -133 -85q-68 0 -111 50t-43 136q0 116 59.5 203t141.5 87q76 0 111 -76l12 66l168 -25l-47 -272
q-5 -32 -5 -54q0 -47 44 -47t75.5 66t31.5 170q0 131 -91 223t-236 92q-161 0 -264 -123t-103 -297q0 -163 96.5 -264.5t253.5 -101.5q111 0 212 58l20 -33q-110 -65 -234 -65zM391 195q22 0 36 16q15 16 25.5 53.5t10.5 67.5q0 26 -11.5 40t-29.5 14q-22 0 -37 -17
q-15 -15 -25.5 -52.5t-10.5 -67.5q0 -26 11.5 -40t30.5 -14z" />
    <glyph glyph-name="A" unicode="A" horiz-adv-x="691" 
d="M-10 0l242 704h227l242 -704h-229l-30 100h-198l-29 -100h-225zM291 260h105l-53 182z" />
    <glyph glyph-name="B" unicode="B" horiz-adv-x="623" 
d="M33 0v700h321q135 0 198 -62q43 -43 43 -114v-5q0 -110 -111 -156q130 -43 130 -164v-4q0 -88 -68 -141.5t-197 -53.5h-316zM384 475v1q0 52 -70 52h-71v-104h71q70 0 70 51zM398 227q0 25 -19 39.5t-54 14.5h-82v-109h82q35 0 54 14.5t19 39.5v1z" />
    <glyph glyph-name="C" unicode="C" horiz-adv-x="615" 
d="M345 -14q-136 0 -230.5 96.5t-94.5 257.5v17q0 160 96 258.5t237 98.5q166 0 258 -132l-146 -134q-41 66 -108 66q-52 0 -84.5 -42.5t-32.5 -118.5v-4q0 -80 33 -121.5t85 -41.5q68 0 111 68l146 -129q-95 -139 -270 -139z" />
    <glyph glyph-name="D" unicode="D" horiz-adv-x="660" 
d="M33 0v700h235q182 0 277 -90t95 -249v-15q0 -160 -96.5 -253t-280.5 -93h-230zM274 509h-25v-318h25q147 0 147 152v14q0 152 -147 152z" />
    <glyph glyph-name="E" unicode="E" horiz-adv-x="571" 
d="M33 0v700h513v-184h-299v-80h277v-168h-277v-84h304v-184h-518z" />
    <glyph glyph-name="F" unicode="F" horiz-adv-x="549" 
d="M33 0v700h502v-190h-286v-92h264v-176h-264v-242h-216z" />
    <glyph glyph-name="G" unicode="G" horiz-adv-x="657" 
d="M367 -14q-149 0 -248 96.5t-99 257.5v19q0 157 98.5 256t248.5 99q142 0 252 -89l-114 -159q-62 55 -129 55q-60 0 -99 -45.5t-39 -122.5v-12q0 -81 38 -126.5t98 -45.5q36 0 58 12v84h-96v152h296v-343q-116 -88 -265 -88z" />
    <glyph glyph-name="H" unicode="H" horiz-adv-x="667" 
d="M33 0v700h216v-252h169v252h216v-700h-216v256h-169v-256h-216z" />
    <glyph glyph-name="I" unicode="I" horiz-adv-x="286" 
d="M35 0v700h216v-700h-216z" />
    <glyph glyph-name="J" unicode="J" horiz-adv-x="487" 
d="M214 -13q-138 0 -219 95l114 142q39 -47 78 -47q27 0 43.5 19.5t16.5 53.5v450h212v-454q0 -126 -66 -192q-67 -67 -179 -67z" />
    <glyph glyph-name="K" unicode="K" horiz-adv-x="638" 
d="M34 0v700h216v-253l156 253h242l-197 -300l202 -400h-250l-107 222l-46 -65v-157h-216z" />
    <glyph glyph-name="L" unicode="L" horiz-adv-x="527" 
d="M33 0v700h216v-510h267v-190h-483z" />
    <glyph glyph-name="M" unicode="M" horiz-adv-x="760" 
d="M33 0v700h220l127 -232l128 232h219v-700h-213v340l-134 -230h-3l-133 230v-340h-211z" />
    <glyph glyph-name="N" unicode="N" horiz-adv-x="682" 
d="M33 0v700h205l199 -296v296h211v-700h-194l-209 311v-311h-212z" />
    <glyph glyph-name="O" unicode="O" horiz-adv-x="704" 
d="M351 -15q-145 0 -238 99t-93 256v18q0 157 93.5 257t238.5 100t238.5 -99t93.5 -256v-18q0 -157 -94 -257t-239 -100zM352 178q53 0 83 43t30 121v15q0 78 -30.5 121.5t-83.5 43.5q-52 0 -82.5 -43.5t-30.5 -120.5v-15q0 -78 30.5 -121.5t83.5 -43.5z" />
    <glyph glyph-name="P" unicode="P" horiz-adv-x="598" 
d="M33 0v700h267q134 0 212.5 -62.5t78.5 -184.5v-6q0 -124 -81 -188.5t-208 -64.5h-54v-194h-215zM248 357h43q40 0 63.5 21t23.5 60v4q0 40 -22.5 61t-63.5 21h-44v-167z" />
    <glyph glyph-name="Q" unicode="Q" horiz-adv-x="704" 
d="M697 78l-107 -96l-54 58q-82 -55 -186 -55q-143 0 -236.5 99.5t-93.5 256.5v17q0 157 93.5 257t238.5 100t238.5 -99t93.5 -256v-18q0 -111 -50 -197zM353 172q25 0 45 10l-72 71l109 96l32 -33q1 8 1 23v16q0 78 -31.5 122.5t-84.5 44.5t-83.5 -44.5t-30.5 -122.5v-16
q0 -78 31 -122.5t84 -44.5z" />
    <glyph glyph-name="R" unicode="R" horiz-adv-x="628" 
d="M33 0v700h288q156 0 230 -74q63 -63 63 -167v-6q0 -140 -120 -205l140 -248h-242l-109 204h-35v-204h-215zM248 363h70q37 0 58 19.5t21 55.5v5q0 37 -21 56t-57 19h-71v-155z" />
    <glyph glyph-name="S" unicode="S" horiz-adv-x="582" 
d="M294 -12q-185 0 -310 103l104 155q102 -78 208 -78q54 0 54 33v2q0 16 -18 27t-67 25q-60 18 -99 34.5t-76 42.5t-55 63t-18 85v4q0 101 72.5 164.5t196.5 63.5q163 0 274 -86l-101 -157q-87 63 -176 63q-23 0 -35.5 -9t-12.5 -22v-2q0 -16 19 -27t71 -28
q120 -33 182 -83t62 -140v-3q0 -105 -75.5 -167.5t-199.5 -62.5z" />
    <glyph glyph-name="T" unicode="T" horiz-adv-x="580" 
d="M182 0v511h-171v189h558v-189h-171v-511h-216z" />
    <glyph glyph-name="U" unicode="U" horiz-adv-x="662" 
d="M329 -14q-141 0 -221 72.5t-80 223.5v418h219v-420q0 -51 22.5 -76t61.5 -25t61.5 24t22.5 74v423h218v-414q0 -154 -80.5 -227t-223.5 -73z" />
    <glyph glyph-name="V" unicode="V" horiz-adv-x="666" 
d="M226 -4l-236 704h236l109 -389l109 389h232l-236 -704h-214z" />
    <glyph glyph-name="W" unicode="W" horiz-adv-x="968" 
d="M189 -4l-190 704h226l78 -349l91 351h184l91 -351l78 349h223l-191 -704h-198l-97 329l-97 -329h-198z" />
    <glyph glyph-name="X" unicode="X" horiz-adv-x="633" 
d="M400 700h232l-191 -341l199 -359h-238l-88 192l-89 -192h-233l200 356l-191 344h238l79 -177z" />
    <glyph glyph-name="Y" unicode="Y" horiz-adv-x="635" 
d="M209 0v247l-222 453h236l96 -230l97 230h232l-223 -451v-249h-216z" />
    <glyph glyph-name="Z" unicode="Z" horiz-adv-x="587" 
d="M16 0v158l264 358h-255v184h547v-158l-264 -358h264v-184h-556z" />
    <glyph glyph-name="bracketleft" unicode="[" horiz-adv-x="390" 
d="M41 -130v830h324v-132h-145v-566h145v-132h-324z" />
    <glyph glyph-name="backslash" unicode="\" horiz-adv-x="470" 
d="M351 -118l-378 906h159l378 -906h-159z" />
    <glyph glyph-name="bracketright" unicode="]" horiz-adv-x="390" 
d="M25 -130v132h144v566h-144v132h324v-830h-324z" />
    <glyph glyph-name="asciicircum" unicode="^" 
d="M54 489l122 209h148l122 -209h-141l-56 94l-56 -94h-139z" />
    <glyph glyph-name="underscore" unicode="_" horiz-adv-x="570" 
d="M-2 -157v119h574v-119h-574z" />
    <glyph glyph-name="grave" unicode="`" 
d="M240 576l-151 122l199 50l87 -172h-135z" />
    <glyph glyph-name="a" unicode="a" horiz-adv-x="540" 
d="M169 -12q-71 0 -114.5 43.5t-43.5 122.5v7q0 83 49 127t134 44q68 0 112 -20v9q0 74 -88 74q-63 0 -131 -30l-43 150q97 40 212 40q139 0 203 -64q56 -56 56 -167v-324h-210v52q-54 -64 -136 -64zM251 115q25 0 40.5 19.5t15.5 54.5v36q-18 9 -43 9q-27 0 -42 -17
t-15 -43v-6q0 -24 12.5 -38.5t31.5 -14.5z" />
    <glyph glyph-name="b" unicode="b" horiz-adv-x="598" 
d="M383 -13q-86 0 -145 75v-62h-209v725h209v-244q31 38 62.5 58t81.5 20q86 0 143 -72t57 -202v-20q0 -133 -56.5 -205.5t-142.5 -72.5zM306 163q32 0 51.5 28.5t19.5 73.5v16q0 45 -19.5 73.5t-51.5 28.5t-51.5 -28.5t-19.5 -73.5v-16q0 -45 19.5 -73.5t51.5 -28.5z" />
    <glyph glyph-name="c" unicode="c" horiz-adv-x="491" 
d="M276 -14q-115 0 -188 79t-73 199v11q0 121 75.5 202t193.5 81q69 0 122.5 -30t85.5 -81l-127 -114q-31 45 -70 45q-34 0 -55 -28.5t-21 -73.5v-2q0 -49 21 -78t54 -29q41 0 74 44l125 -113q-77 -112 -217 -112z" />
    <glyph glyph-name="d" unicode="d" horiz-adv-x="598" 
d="M217 -13q-87 0 -143.5 72t-56.5 202v20q0 132 56.5 205t141.5 73q86 0 145 -75v241h210v-725h-210v65q-31 -38 -62.5 -58t-80.5 -20zM293 163q32 0 51.5 28.5t19.5 73.5v16q0 45 -19.5 73.5t-51.5 28.5t-51.5 -28.5t-19.5 -73.5v-16q0 -45 19.5 -73.5t51.5 -28.5z" />
    <glyph glyph-name="e" unicode="e" horiz-adv-x="538" 
d="M288 -13q-124 0 -198.5 74.5t-74.5 203.5v13q0 125 71.5 203t183.5 78q122 0 187.5 -79.5t65.5 -212.5v-53h-309q21 -68 93 -68q56 0 108 49l96 -114q-92 -94 -223 -94zM211 317h121q-6 89 -62 89q-50 0 -59 -89z" />
    <glyph glyph-name="f" unicode="f" horiz-adv-x="376" 
d="M63 0v383h-52v163h52q0 91 46 137q48 47 145 47q72 0 120 -12v-138q-30 7 -58 7q-48 0 -48 -41v-5h106v-158h-102v-383h-209z" />
    <glyph glyph-name="g" unicode="g" horiz-adv-x="598" 
d="M280 -153q-137 0 -257 53l55 141q84 -44 175 -44q54 0 82.5 27t28.5 77v21q-60 -73 -142 -73q-91 0 -148 64t-57 182v13q0 119 56 185t140 66q85 0 147 -71v58h210v-424q0 -137 -66 -203q-72 -72 -224 -72zM293 209q33 0 52 25t19 66v5q0 40 -19 65.5t-52 25.5
q-34 0 -52.5 -25t-18.5 -67v-5q0 -40 19 -65t52 -25z" />
    <glyph glyph-name="h" unicode="h" horiz-adv-x="574" 
d="M29 0v725h209v-248q61 82 149 82q75 0 118 -47.5t43 -129.5v-382h-210v315q0 27 -13.5 43t-34.5 16q-22 0 -37 -16t-15 -43v-315h-209z" />
    <glyph glyph-name="i" unicode="i" horiz-adv-x="271" 
d="M28 582v143h216v-143h-216zM31 0v546h209v-546h-209z" />
    <glyph glyph-name="j" unicode="j" horiz-adv-x="274" 
d="M28 582v143h216v-143h-216zM46 -154q-27 0 -85 7v126q2 0 9 -0.5t10 -0.5q27 0 39 13.5t12 43.5v511h210v-512q0 -103 -48.5 -145.5t-146.5 -42.5z" />
    <glyph glyph-name="k" unicode="k" horiz-adv-x="550" 
d="M29 0v725h209v-343l96 164h223l-140 -219l143 -327h-224l-63 159l-35 -49v-110h-209z" />
    <glyph glyph-name="l" unicode="l" horiz-adv-x="271" 
d="M31 0v725h209v-725h-209z" />
    <glyph glyph-name="m" unicode="m" horiz-adv-x="875" 
d="M29 0v546h209v-69q59 82 146 82q101 0 141 -84q68 84 162 84q77 0 120.5 -47.5t43.5 -129.5v-382h-210v317q0 26 -13 41.5t-34 15.5t-35.5 -15.5t-14.5 -41.5v-317h-209v317q0 26 -13.5 41.5t-33.5 15.5q-21 0 -35.5 -15.5t-14.5 -41.5v-317h-209z" />
    <glyph glyph-name="n" unicode="n" horiz-adv-x="574" 
d="M29 0v546h209v-71q62 84 149 84q75 0 118 -47.5t43 -129.5v-382h-210v315q0 27 -13.5 43t-34.5 16q-22 0 -37 -16t-15 -43v-315h-209z" />
    <glyph glyph-name="o" unicode="o" horiz-adv-x="576" 
d="M287 -13q-120 0 -196 78t-76 198v18q0 121 77 199.5t197 78.5t196 -78t76 -198v-18q0 -121 -77 -199.5t-197 -78.5zM289 164q32 0 50.5 28t18.5 75v12q0 47 -19.5 75t-51.5 28q-31 0 -49.5 -27.5t-18.5 -74.5v-12q0 -48 19 -76t51 -28z" />
    <glyph glyph-name="p" unicode="p" horiz-adv-x="598" 
d="M29 -150v696h209v-65q31 38 62.5 58t81.5 20q86 0 143 -72t57 -202v-20q0 -133 -56.5 -205.5t-142.5 -72.5t-145 75v-212h-209zM306 163q32 0 51.5 28.5t19.5 73.5v16q0 45 -19.5 73.5t-51.5 28.5t-51.5 -28.5t-19.5 -73.5v-16q0 -45 19.5 -73.5t51.5 -28.5z" />
    <glyph glyph-name="q" unicode="q" horiz-adv-x="598" 
d="M360 -150v215q-31 -38 -62.5 -58t-80.5 -20q-87 0 -143.5 72t-56.5 202v20q0 132 56.5 205t141.5 73q86 0 145 -75v62h210v-696h-210zM293 163q32 0 51.5 28.5t19.5 73.5v16q0 45 -19.5 73.5t-51.5 28.5t-51.5 -28.5t-19.5 -73.5v-16q0 -45 19.5 -73.5t51.5 -28.5z" />
    <glyph glyph-name="r" unicode="r" horiz-adv-x="386" 
d="M29 0v546h209v-102q44 115 143 110v-231h-17q-126 0 -126 -153v-170h-209z" />
    <glyph glyph-name="s" unicode="s" horiz-adv-x="468" 
d="M239 -13q-137 0 -245 72l70 136q91 -59 171 -59q31 0 31 19v1q0 9 -12 16.5t-48 19.5q-98 31 -143.5 68.5t-45.5 111.5v2q0 86 59.5 135.5t158.5 49.5q124 0 218 -58l-69 -137q-80 46 -144 46q-31 0 -31 -18v-2q0 -9 13 -16t50 -19q97 -32 141.5 -70.5t44.5 -107.5v-2
q0 -87 -58.5 -137.5t-160.5 -50.5z" />
    <glyph glyph-name="t" unicode="t" horiz-adv-x="391" 
d="M244 -12q-181 0 -181 173v222h-53v163h53v134h209v-134h105v-163h-105v-172q0 -45 45 -45q25 0 58 14v-163q-56 -29 -131 -29z" />
    <glyph glyph-name="u" unicode="u" horiz-adv-x="574" 
d="M187 -13q-76 0 -119 47.5t-43 129.5v382h210v-315q0 -27 14 -43t35 -16t36 16t15 43v315h210v-546h-210v69q-61 -82 -148 -82z" />
    <glyph glyph-name="v" unicode="v" horiz-adv-x="572" 
d="M187 -4l-190 550h218l72 -278l72 278h215l-189 -550h-198z" />
    <glyph glyph-name="w" unicode="w" horiz-adv-x="767" 
d="M143 -4l-144 550h203l46 -231l53 233h165l54 -235l48 233h200l-145 -550h-178l-62 230l-63 -230h-177z" />
    <glyph glyph-name="x" unicode="x" horiz-adv-x="535" 
d="M217 546l51 -114l53 114h219l-153 -272l154 -274h-222l-52 116l-55 -116h-218l154 274l-153 272h222z" />
    <glyph glyph-name="y" unicode="y" horiz-adv-x="572" 
d="M291 263l71 283h212l-166 -508q-34 -103 -82 -147.5t-133 -44.5q-86 0 -171 44l50 146q50 -27 79 -27q20 0 32 8l-184 529h216z" />
    <glyph glyph-name="z" unicode="z" horiz-adv-x="493" 
d="M14 0v137l194 242h-188v167h461v-137l-194 -242h194v-167h-467z" />
    <glyph glyph-name="braceleft" unicode="{" horiz-adv-x="436" 
d="M398 -139q-147 10 -210 52.5t-63 125.5q0 16 5 52t5 50q0 44 -27.5 61.5t-81.5 17.5h-10v132h10q54 0 81.5 17.5t27.5 62.5q0 14 -5 50t-5 52q0 82 63.5 124.5t209.5 52.5l25 -121q-69 -10 -92 -29.5t-23 -61.5q0 -11 5 -42t5 -47q0 -100 -115 -123q115 -26 115 -125
q0 -16 -5 -47t-5 -42q0 -42 23 -61.5t92 -29.5z" />
    <glyph glyph-name="bar" unicode="|" horiz-adv-x="312" 
d="M80 -118v906h152v-906h-152z" />
    <glyph glyph-name="braceright" unicode="}" horiz-adv-x="436" 
d="M38 -139l-25 121q69 10 92 29.5t23 61.5q0 11 -5 42t-5 47q0 99 115 125q-115 23 -115 123q0 16 5 47t5 42q0 42 -23 61.5t-92 29.5l25 121q146 -10 209.5 -52.5t63.5 -124.5q0 -16 -5 -52t-5 -50q0 -45 27.5 -62.5t81.5 -17.5h10v-132h-10q-54 0 -81.5 -17.5
t-27.5 -61.5q0 -14 5 -50t5 -52q0 -83 -63 -125.5t-210 -52.5z" />
    <glyph glyph-name="asciitilde" unicode="~" horiz-adv-x="453" 
d="M313 231q-33 0 -86 19q-53 17 -63 17q-16 0 -24.5 -9t-15.5 -31l-93 21q11 76 37.5 110.5t71.5 34.5q33 0 86 -19q53 -17 63 -17q16 0 24 9t16 32l92 -22q-20 -145 -108 -145z" />
    <glyph glyph-name="uni00A0" unicode="&#xa0;" horiz-adv-x="198" 
 />
    <glyph glyph-name="exclamdown" unicode="&#xa1;" horiz-adv-x="297" 
d="M39 520v180h219v-180h-219zM27 0v105l69 373h105l69 -373v-105h-243z" />
    <glyph glyph-name="cent" unicode="&#xa2;" horiz-adv-x="494" 
d="M378 706l-10 -80q86 -29 127 -93l-115 -104q-38 50 -93 50q-42 0 -66.5 -34t-24.5 -86v-3q0 -61 25.5 -93.5t73.5 -32.5q52 0 87 49l112 -103q-66 -96 -184 -105l-9 -77h-125l10 92q-79 28 -125 97t-46 163v11q0 113 62.5 189t166.5 90l9 70h125z" />
    <glyph glyph-name="sterling" unicode="&#xa3;" horiz-adv-x="558" 
d="M23 0v129l68 32v99h-67v149h67v33q0 134 71 205q67 67 185 67q120 0 206 -71l-94 -161q-44 39 -87 39q-31 0 -49 -18q-19 -19 -19 -62v-32h174v-149h-174v-88h239v-172h-520z" />
    <glyph glyph-name="yen" unicode="&#xa5;" horiz-adv-x="635" 
d="M51 264v131h110l-168 305h233l93 -209l92 209h231l-170 -305h111v-131h-158v-39h158v-131h-158v-94h-216v94h-158v131h158v39h-158z" />
    <glyph glyph-name="section" unicode="&#xa7;" horiz-adv-x="558" 
d="M446 254q50 -39 50 -102v-2q0 -70 -59 -117t-169 -47q-120 0 -221 55l62 136q86 -48 160 -48q37 0 37 23v2q0 10 -16.5 17.5t-60.5 20.5q-114 32 -151 55q-56 34 -56 87v2q0 73 90 110q-50 40 -50 102v2q0 70 59 117t169 47q120 0 221 -55l-62 -136q-86 48 -159 48
q-38 0 -38 -22v-2q0 -10 17 -18t60 -21q114 -32 151 -55q56 -34 56 -87v-2q0 -73 -90 -110zM339 303q44 0 44 30v2q0 25 -92 49q-54 13 -72 13q-43 0 -43 -30v-2q0 -25 92 -49q54 -13 71 -13z" />
    <glyph glyph-name="dieresis" unicode="&#xa8;" 
d="M266 576v142h158v-142h-158zM76 576v142h158v-142h-158z" />
    <glyph glyph-name="copyright" unicode="&#xa9;" horiz-adv-x="726" 
d="M362 -15q-138 0 -230 102.5t-92 255.5v13q0 153 92.5 256t230.5 103t230.5 -102.5t92.5 -255.5v-13q0 -153 -93 -256t-231 -103zM362 24q123 0 203 91.5t80 228.5v13q0 137 -79.5 228t-202.5 91t-203 -91.5t-80 -228.5v-13q0 -137 79.5 -228t202.5 -91zM374 149
q-82 0 -135 54t-53 144v10q0 89 54 145t136 56q93 0 145 -73l-83 -78q-20 37 -59 37q-29 0 -47 -23.5t-18 -65.5v-3q0 -44 18.5 -66.5t47.5 -22.5q36 0 61 37l82 -74q-53 -77 -149 -77z" />
    <glyph glyph-name="ordfeminine" unicode="&#xaa;" horiz-adv-x="346" 
d="M118 397q-39 0 -63 23.5t-24 67.5v4q0 45 27.5 69t73.5 24q32 0 61 -11v3q0 41 -48 41q-33 0 -73 -17l-22 84q55 21 116 21q76 0 111 -35q30 -29 30 -92v-176h-114v30q-31 -36 -75 -36zM31 269v86h282v-86h-282zM163 468q13 0 22 10t9 28v20q-15 5 -24 5
q-14 0 -22.5 -8.5t-8.5 -22.5v-5q0 -27 24 -27z" />
    <glyph glyph-name="guillemotleft" unicode="&#xab;" horiz-adv-x="550" 
d="M409 30l-172 234v10l172 236l130 -61l-104 -179l104 -179zM164 30l-148 204v71l148 205l130 -61l-104 -179l104 -179z" />
    <glyph glyph-name="registered" unicode="&#xae;" horiz-adv-x="333" 
d="M167 361q-67 0 -112 49t-45 122v6q0 73 45 122.5t112 49.5t111.5 -49t44.5 -122v-6q0 -73 -45 -122.5t-111 -49.5zM167 379q59 0 98 44t39 110v6q0 66 -38.5 109t-98.5 43t-98.5 -43.5t-38.5 -109.5v-6q0 -66 38.5 -109.5t98.5 -43.5zM93 444v189h78q80 0 80 -65v-1
q0 -39 -33 -55l38 -68h-65l-30 55h-9v-55h-59zM152 544h18q22 0 22 19v2q0 19 -22 19h-18v-40z" />
    <glyph glyph-name="macron" unicode="&#xaf;" 
d="M75 584v116h350v-116h-350z" />
    <glyph glyph-name="degree" unicode="&#xb0;" horiz-adv-x="402" 
d="M201 340q-72 0 -121.5 50.5t-49.5 127.5v12q0 76 50 127t121 51t121 -51t50 -127v-12q0 -77 -49 -127.5t-122 -50.5zM201 445q26 0 42 20.5t16 54.5v7q0 34 -16.5 55t-41.5 21t-41.5 -21t-16.5 -55v-7q0 -34 16 -54.5t42 -20.5z" />
    <glyph glyph-name="plusminus" unicode="&#xb1;" horiz-adv-x="574" 
d="M534 354l-161 1l1 -152h-174v152l-160 -1v164l160 -1v152h174l-1 -152l161 1v-164zM534 0h-494v150h494v-150z" />
    <glyph glyph-name="acute" unicode="&#xb4;" 
d="M125 576l87 172l199 -50l-151 -122h-135z" />
    <glyph glyph-name="paragraph" unicode="&#xb6;" horiz-adv-x="521" 
d="M283 0v215h-12q-118 4 -189.5 65t-71.5 174v4q0 119 76 180.5t206 61.5h195v-700h-204z" />
    <glyph glyph-name="periodcentered" unicode="&#xb7;" horiz-adv-x="259" 
d="M22 208v214h216v-214h-216z" />
    <glyph glyph-name="cedilla" unicode="&#xb8;" 
d="M274 -160l-170 62l93 118h128z" />
    <glyph glyph-name="ordmasculine" unicode="&#xba;" horiz-adv-x="346" 
d="M172 394q-65 0 -107 42t-42 108v10q0 67 42.5 109t108.5 42q65 0 107 -42t42 -107v-11q0 -66 -42.5 -108.5t-108.5 -42.5zM43 269v86h259v-86h-259zM173 491q38 0 38 55v7q0 26 -11 41t-28 15q-37 0 -37 -55v-7q0 -26 10.5 -41t27.5 -15z" />
    <glyph glyph-name="guillemotright" unicode="&#xbb;" horiz-adv-x="550" 
d="M387 30l-130 61l103 178l-103 180l130 61l148 -205v-71zM142 30l-130 61l103 178l-103 180l130 61l172 -236v-10z" />
    <glyph glyph-name="questiondown" unicode="&#xbf;" horiz-adv-x="485" 
d="M154 520v180h219v-180h-219zM247 -11q-108 0 -174 56.5t-66 148.5v1q0 83 45 130.5t130 75.5l14 77h130l26 -176l-9 -10q-128 -19 -128 -71v-1q0 -18 14.5 -29t40.5 -11q57 0 133 55l86 -161q-110 -85 -242 -85z" />
    <glyph glyph-name="Agrave" unicode="&#xc0;" horiz-adv-x="691" 
d="M-10 0l242 704h227l242 -704h-229l-30 100h-198l-29 -100h-225zM291 260h105l-53 182zM424 743h-151l-145 103l212 45z" />
    <glyph glyph-name="Aacute" unicode="&#xc1;" horiz-adv-x="691" 
d="M-10 0l242 704h227l242 -704h-229l-30 100h-198l-29 -100h-225zM291 260h105l-53 182zM266 743l84 148l212 -45l-145 -103h-151z" />
    <glyph glyph-name="Acircumflex" unicode="&#xc2;" horiz-adv-x="691" 
d="M-10 0l242 704h227l242 -704h-229l-30 100h-198l-29 -100h-225zM291 260h105l-53 182zM154 743l104 135h174l104 -135h-126l-66 45l-66 -45h-124z" />
    <glyph glyph-name="Atilde" unicode="&#xc3;" horiz-adv-x="691" 
d="M-10 0l242 704h227l242 -704h-229l-30 100h-198l-29 -100h-225zM291 260h105l-53 182zM437 741q-28 0 -92 20q-54 17 -65 17q-16 0 -24.5 -9t-15.5 -32l-93 21q20 147 110 147q32 0 92 -19q48 -17 64 -17q17 0 25.5 9t15.5 32l93 -21q-20 -148 -110 -148z" />
    <glyph glyph-name="Adieresis" unicode="&#xc4;" horiz-adv-x="691" 
d="M-10 0l242 704h227l242 -704h-229l-30 100h-198l-29 -100h-225zM291 260h105l-53 182zM363 743v138h164v-138h-164zM163 743v138h164v-138h-164z" />
    <glyph glyph-name="Aring" unicode="&#xc5;" horiz-adv-x="691" 
d="M-10 0l232 678q-17 29 -17 64q0 54 40 90t100 36q61 0 101.5 -36t40.5 -90q0 -35 -18 -64l232 -678h-229l-30 100h-198l-29 -100h-225zM345 676q31 0 51 18.5t20 46.5t-20 47t-51 19q-30 0 -50 -19t-20 -47t19.5 -46.5t50.5 -18.5zM291 260h105l-53 182z" />
    <glyph glyph-name="AE" unicode="&#xc6;" horiz-adv-x="931" 
d="M-17 0l294 700h629v-184h-286v-80h264v-168h-264v-84h291v-184h-501v100h-174l-38 -100h-215zM299 260h111v260h-8z" />
    <glyph glyph-name="Ccedilla" unicode="&#xc7;" horiz-adv-x="615" 
d="M343 -160l-170 62l77 98q-102 30 -166 119.5t-64 220.5v17q0 160 96 258.5t237 98.5q166 0 258 -132l-146 -134q-41 66 -108 66q-52 0 -84.5 -42.5t-32.5 -118.5v-4q0 -80 33 -121.5t85 -41.5q68 0 111 68l146 -129q-82 -121 -230 -137z" />
    <glyph glyph-name="Egrave" unicode="&#xc8;" horiz-adv-x="571" 
d="M371 734h-151l-145 103l212 45zM33 0v700h513v-184h-299v-80h277v-168h-277v-84h304v-184h-518z" />
    <glyph glyph-name="Eacute" unicode="&#xc9;" horiz-adv-x="571" 
d="M212 734l84 148l212 -45l-145 -103h-151zM33 0v700h513v-184h-299v-80h277v-168h-277v-84h304v-184h-518z" />
    <glyph glyph-name="Ecircumflex" unicode="&#xca;" horiz-adv-x="571" 
d="M33 0v700h513v-184h-299v-80h277v-168h-277v-84h304v-184h-518zM101 734l104 135h174l104 -135h-126l-66 45l-66 -45h-124z" />
    <glyph glyph-name="Edieresis" unicode="&#xcb;" horiz-adv-x="571" 
d="M310 734v138h164v-138h-164zM110 734v138h164v-138h-164zM33 0v700h513v-184h-299v-80h277v-168h-277v-84h304v-184h-518z" />
    <glyph glyph-name="Igrave" unicode="&#xcc;" horiz-adv-x="286" 
d="M35 0v700h216v-700h-216zM223 734h-151l-145 103l212 45z" />
    <glyph glyph-name="Iacute" unicode="&#xcd;" horiz-adv-x="286" 
d="M35 0v700h216v-700h-216zM65 734l84 148l212 -45l-145 -103h-151z" />
    <glyph glyph-name="Icircumflex" unicode="&#xce;" horiz-adv-x="286" 
d="M35 0v700h216v-700h-216zM-47 734l104 135h174l104 -135h-126l-66 45l-66 -45h-124z" />
    <glyph glyph-name="Idieresis" unicode="&#xcf;" horiz-adv-x="286" 
d="M35 0v700h216v-700h-216zM162 734v138h164v-138h-164zM-38 734v138h164v-138h-164z" />
    <glyph glyph-name="Eth" unicode="&#xd0;" horiz-adv-x="712" 
d="M85 0v271h-68v162h68v267h236q182 0 276.5 -90t94.5 -249v-15q0 -160 -96.5 -253t-280.5 -93h-230zM365 275h-72v-91h33q148 0 148 159v14q0 159 -148 159h-33v-86h72v-155z" />
    <glyph glyph-name="Ntilde" unicode="&#xd1;" horiz-adv-x="682" 
d="M433 732q-28 0 -92 20q-54 17 -65 17q-16 0 -24.5 -9t-15.5 -32l-93 21q20 147 110 147q32 0 92 -19q48 -17 64 -17q17 0 25.5 9t15.5 32l93 -21q-20 -148 -110 -148zM33 0v700h205l199 -296v296h211v-700h-194l-209 311v-311h-212z" />
    <glyph glyph-name="Ograve" unicode="&#xd2;" horiz-adv-x="704" 
d="M430 743h-151l-145 103l212 45zM351 -15q-145 0 -238 99t-93 256v18q0 157 93.5 257t238.5 100t238.5 -99t93.5 -256v-18q0 -157 -94 -257t-239 -100zM352 178q53 0 83 43t30 121v15q0 78 -30.5 121.5t-83.5 43.5q-52 0 -82.5 -43.5t-30.5 -120.5v-15q0 -78 30.5 -121.5
t83.5 -43.5z" />
    <glyph glyph-name="Oacute" unicode="&#xd3;" horiz-adv-x="704" 
d="M272 743l84 148l212 -45l-145 -103h-151zM351 -15q-145 0 -238 99t-93 256v18q0 157 93.5 257t238.5 100t238.5 -99t93.5 -256v-18q0 -157 -94 -257t-239 -100zM352 178q53 0 83 43t30 121v15q0 78 -30.5 121.5t-83.5 43.5q-52 0 -82.5 -43.5t-30.5 -120.5v-15
q0 -78 30.5 -121.5t83.5 -43.5z" />
    <glyph glyph-name="Ocircumflex" unicode="&#xd4;" horiz-adv-x="704" 
d="M351 -15q-145 0 -238 99t-93 256v18q0 157 93.5 257t238.5 100t238.5 -99t93.5 -256v-18q0 -157 -94 -257t-239 -100zM352 178q53 0 83 43t30 121v15q0 78 -30.5 121.5t-83.5 43.5q-52 0 -82.5 -43.5t-30.5 -120.5v-15q0 -78 30.5 -121.5t83.5 -43.5zM160 743l104 135
h174l104 -135h-126l-66 45l-66 -45h-124z" />
    <glyph glyph-name="Otilde" unicode="&#xd5;" horiz-adv-x="704" 
d="M444 741q-28 0 -92 20q-54 17 -65 17q-16 0 -24.5 -9t-15.5 -32l-93 21q20 147 110 147q32 0 92 -19q48 -17 64 -17q17 0 25.5 9t15.5 32l93 -21q-20 -148 -110 -148zM351 -15q-145 0 -238 99t-93 256v18q0 157 93.5 257t238.5 100t238.5 -99t93.5 -256v-18
q0 -157 -94 -257t-239 -100zM352 178q53 0 83 43t30 121v15q0 78 -30.5 121.5t-83.5 43.5q-52 0 -82.5 -43.5t-30.5 -120.5v-15q0 -78 30.5 -121.5t83.5 -43.5z" />
    <glyph glyph-name="Odieresis" unicode="&#xd6;" horiz-adv-x="704" 
d="M369 743v138h164v-138h-164zM169 743v138h164v-138h-164zM351 -15q-145 0 -238 99t-93 256v18q0 157 93.5 257t238.5 100t238.5 -99t93.5 -256v-18q0 -157 -94 -257t-239 -100zM352 178q53 0 83 43t30 121v15q0 78 -30.5 121.5t-83.5 43.5q-52 0 -82.5 -43.5
t-30.5 -120.5v-15q0 -78 30.5 -121.5t83.5 -43.5z" />
    <glyph glyph-name="multiply" unicode="&#xd7;" horiz-adv-x="574" 
d="M413 98l-127 130l-128 -130l-125 125l130 127l-131 128l128 128l128 -130l128 130l125 -125l-130 -127l130 -128z" />
    <glyph glyph-name="Oslash" unicode="&#xd8;" horiz-adv-x="704" 
d="M564 705h123l-83 -106q80 -99 80 -239v-18q0 -157 -94 -257t-239 -100q-101 0 -180 51l-31 -41h-124l83 106q-79 96 -79 239v18q0 157 93.5 257t238.5 100q100 0 180 -52zM353 173q54 0 85.5 44.5t31.5 124.5v15q0 36 -8 68l-172 -232q28 -20 63 -20zM234 343
q0 -40 7 -68l172 232q-28 20 -62 20q-54 0 -85.5 -45t-31.5 -124v-15z" />
    <glyph glyph-name="Ugrave" unicode="&#xd9;" horiz-adv-x="662" 
d="M409 734h-151l-145 103l212 45zM329 -14q-141 0 -221 72.5t-80 223.5v418h219v-420q0 -51 22.5 -76t61.5 -25t61.5 24t22.5 74v423h218v-414q0 -154 -80.5 -227t-223.5 -73z" />
    <glyph glyph-name="Uacute" unicode="&#xda;" horiz-adv-x="662" 
d="M251 734l84 148l212 -45l-145 -103h-151zM329 -14q-141 0 -221 72.5t-80 223.5v418h219v-420q0 -51 22.5 -76t61.5 -25t61.5 24t22.5 74v423h218v-414q0 -154 -80.5 -227t-223.5 -73z" />
    <glyph glyph-name="Ucircumflex" unicode="&#xdb;" horiz-adv-x="662" 
d="M329 -14q-141 0 -221 72.5t-80 223.5v418h219v-420q0 -51 22.5 -76t61.5 -25t61.5 24t22.5 74v423h218v-414q0 -154 -80.5 -227t-223.5 -73zM140 734l104 135h174l104 -135h-126l-66 45l-66 -45h-124z" />
    <glyph glyph-name="Udieresis" unicode="&#xdc;" horiz-adv-x="662" 
d="M348 734v138h164v-138h-164zM148 734v138h164v-138h-164zM329 -14q-141 0 -221 72.5t-80 223.5v418h219v-420q0 -51 22.5 -76t61.5 -25t61.5 24t22.5 74v423h218v-414q0 -154 -80.5 -227t-223.5 -73z" />
    <glyph glyph-name="Yacute" unicode="&#xdd;" horiz-adv-x="635" 
d="M209 0v247l-222 453h236l96 -230l97 230h232l-223 -451v-249h-216zM238 734l84 148l212 -45l-145 -103h-151z" />
    <glyph glyph-name="Thorn" unicode="&#xde;" horiz-adv-x="608" 
d="M33 0v700h215v-94h56q131 0 209 -61.5t78 -180.5v-7q0 -124 -81 -187.5t-208 -63.5h-54v-106h-215zM248 273h44q39 0 62.5 21t23.5 60v4q0 40 -22.5 61t-63.5 21h-44v-167z" />
    <glyph glyph-name="germandbls" unicode="&#xdf;" horiz-adv-x="589" 
d="M286 -3v153q39 5 61 24t22 49v1q0 62 -83 70v110q65 28 65 89v2q0 28 -15 46t-37 18q-60 0 -60 -91v-468h-210v467q0 122 68 193.5t203 71.5q117 0 185.5 -59.5t68.5 -148.5v-4q0 -53 -29.5 -96t-77.5 -64q56 -17 93 -58t37 -108v-2q0 -99 -79.5 -150t-211.5 -45z" />
    <glyph glyph-name="agrave" unicode="&#xe0;" horiz-adv-x="540" 
d="M169 -12q-71 0 -114.5 43.5t-43.5 122.5v7q0 83 49 127t134 44q68 0 112 -20v9q0 74 -88 74q-63 0 -131 -30l-43 150q97 40 212 40q139 0 203 -64q56 -56 56 -167v-324h-210v52q-54 -64 -136 -64zM251 115q25 0 40.5 19.5t15.5 54.5v36q-18 9 -43 9q-27 0 -42 -17
t-15 -43v-6q0 -24 12.5 -38.5t31.5 -14.5zM216 584l-151 122l199 50l87 -172h-135z" />
    <glyph glyph-name="aacute" unicode="&#xe1;" horiz-adv-x="540" 
d="M169 -12q-71 0 -114.5 43.5t-43.5 122.5v7q0 83 49 127t134 44q68 0 112 -20v9q0 74 -88 74q-63 0 -131 -30l-43 150q97 40 212 40q139 0 203 -64q56 -56 56 -167v-324h-210v52q-54 -64 -136 -64zM251 115q25 0 40.5 19.5t15.5 54.5v36q-18 9 -43 9q-27 0 -42 -17
t-15 -43v-6q0 -24 12.5 -38.5t31.5 -14.5zM197 584l87 172l199 -50l-151 -122h-135z" />
    <glyph glyph-name="acircumflex" unicode="&#xe2;" horiz-adv-x="540" 
d="M169 -12q-71 0 -114.5 43.5t-43.5 122.5v7q0 83 49 127t134 44q68 0 112 -20v9q0 74 -88 74q-63 0 -131 -30l-43 150q97 40 212 40q139 0 203 -64q56 -56 56 -167v-324h-210v52q-54 -64 -136 -64zM251 115q25 0 40.5 19.5t15.5 54.5v36q-18 9 -43 9q-27 0 -42 -17
t-15 -43v-6q0 -24 12.5 -38.5t31.5 -14.5zM83 584l116 154h150l116 -154h-117l-75 51l-75 -51h-115z" />
    <glyph glyph-name="atilde" unicode="&#xe3;" horiz-adv-x="540" 
d="M169 -12q-71 0 -114.5 43.5t-43.5 122.5v7q0 83 49 127t134 44q68 0 112 -20v9q0 74 -88 74q-63 0 -131 -30l-43 150q97 40 212 40q139 0 203 -64q56 -56 56 -167v-324h-210v52q-54 -64 -136 -64zM251 115q25 0 40.5 19.5t15.5 54.5v36q-18 9 -43 9q-27 0 -42 -17
t-15 -43v-6q0 -24 12.5 -38.5t31.5 -14.5zM363 583q-28 0 -85 19q-49 17 -63 17q-16 0 -24.5 -9t-15.5 -31l-92 21q10 77 36.5 112t71.5 35q28 0 85 -19q49 -17 63 -17q16 0 24 8.5t16 31.5l92 -20q-10 -77 -36.5 -112.5t-71.5 -35.5z" />
    <glyph glyph-name="adieresis" unicode="&#xe4;" horiz-adv-x="540" 
d="M169 -12q-71 0 -114.5 43.5t-43.5 122.5v7q0 83 49 127t134 44q68 0 112 -20v9q0 74 -88 74q-63 0 -131 -30l-43 150q97 40 212 40q139 0 203 -64q56 -56 56 -167v-324h-210v52q-54 -64 -136 -64zM251 115q25 0 40.5 19.5t15.5 54.5v36q-18 9 -43 9q-27 0 -42 -17
t-15 -43v-6q0 -24 12.5 -38.5t31.5 -14.5zM290 584v142h158v-142h-158zM100 584v142h158v-142h-158z" />
    <glyph glyph-name="aring" unicode="&#xe5;" horiz-adv-x="540" 
d="M169 -12q-71 0 -114.5 43.5t-43.5 122.5v7q0 83 49 127t134 44q68 0 112 -20v9q0 74 -88 74q-63 0 -131 -30l-43 150q97 40 212 40q139 0 203 -64q56 -56 56 -167v-324h-210v52q-54 -64 -136 -64zM251 115q25 0 40.5 19.5t15.5 54.5v36q-18 9 -43 9q-27 0 -42 -17
t-15 -43v-6q0 -24 12.5 -38.5t31.5 -14.5zM274 586q-54 0 -91.5 36.5t-37.5 88.5t37.5 88t91.5 36t91.5 -36t37.5 -88t-37.5 -88.5t-91.5 -36.5zM274 646q26 0 44 18.5t18 46.5t-18 46.5t-44 18.5t-44 -18.5t-18 -46.5t18 -46.5t44 -18.5z" />
    <glyph glyph-name="ae" unicode="&#xe6;" horiz-adv-x="825" 
d="M189 -12q-77 0 -127.5 42.5t-50.5 124.5v8q0 82 49 125.5t134 43.5q68 0 112 -20v9q0 74 -88 74q-63 0 -133 -31l-41 153q100 38 211 38q103 0 163 -49q59 53 145 53q118 0 182.5 -80t64.5 -212v-53h-309q19 -68 93 -68q56 0 108 49l95 -114q-91 -94 -222 -94
q-127 0 -200 81q-85 -80 -186 -80zM256 117q35 0 67 38q-12 33 -15 70q-23 9 -44 9q-27 0 -42 -17t-15 -43v-6q0 -24 13.5 -37.5t35.5 -13.5zM498 317h121q-6 89 -62 89q-52 0 -59 -89z" />
    <glyph glyph-name="ccedilla" unicode="&#xe7;" horiz-adv-x="491" 
d="M276 -160l-170 62l78 99q-78 28 -123.5 99t-45.5 164v11q0 121 75.5 202t193.5 81q69 0 122.5 -30t85.5 -81l-127 -114q-31 45 -70 45q-34 0 -55 -28.5t-21 -73.5v-2q0 -49 21 -78t54 -29q41 0 74 44l125 -113q-63 -93 -175 -109z" />
    <glyph glyph-name="egrave" unicode="&#xe8;" horiz-adv-x="538" 
d="M288 -13q-124 0 -198.5 74.5t-74.5 203.5v13q0 125 71.5 203t183.5 78q122 0 187.5 -79.5t65.5 -212.5v-53h-309q21 -68 93 -68q56 0 108 49l96 -114q-92 -94 -223 -94zM216 584l-151 122l199 50l87 -172h-135zM211 317h121q-6 89 -62 89q-50 0 -59 -89z" />
    <glyph glyph-name="eacute" unicode="&#xe9;" horiz-adv-x="538" 
d="M288 -13q-124 0 -198.5 74.5t-74.5 203.5v13q0 125 71.5 203t183.5 78q122 0 187.5 -79.5t65.5 -212.5v-53h-309q21 -68 93 -68q56 0 108 49l96 -114q-92 -94 -223 -94zM197 584l87 172l199 -50l-151 -122h-135zM211 317h121q-6 89 -62 89q-50 0 -59 -89z" />
    <glyph glyph-name="ecircumflex" unicode="&#xea;" horiz-adv-x="538" 
d="M288 -13q-124 0 -198.5 74.5t-74.5 203.5v13q0 125 71.5 203t183.5 78q122 0 187.5 -79.5t65.5 -212.5v-53h-309q21 -68 93 -68q56 0 108 49l96 -114q-92 -94 -223 -94zM83 584l116 154h150l116 -154h-117l-75 51l-75 -51h-115zM211 317h121q-6 89 -62 89q-50 0 -59 -89z
" />
    <glyph glyph-name="edieresis" unicode="&#xeb;" horiz-adv-x="538" 
d="M288 -13q-124 0 -198.5 74.5t-74.5 203.5v13q0 125 71.5 203t183.5 78q122 0 187.5 -79.5t65.5 -212.5v-53h-309q21 -68 93 -68q56 0 108 49l96 -114q-92 -94 -223 -94zM100 584v142h158v-142h-158zM290 584v142h158v-142h-158zM211 317h121q-6 89 -62 89q-50 0 -59 -89z
" />
    <glyph glyph-name="igrave" unicode="&#xec;" horiz-adv-x="271" 
d="M31 0v546h209v-546h-209zM77 576l-151 122l199 50l87 -172h-135z" />
    <glyph glyph-name="iacute" unicode="&#xed;" horiz-adv-x="271" 
d="M60 576l87 172l199 -50l-151 -122h-135zM31 0v546h209v-546h-209z" />
    <glyph glyph-name="icircumflex" unicode="&#xee;" horiz-adv-x="271" 
d="M-55 576l116 154h150l116 -154h-117l-75 51l-75 -51h-115zM31 0v546h209v-546h-209z" />
    <glyph glyph-name="idieresis" unicode="&#xef;" horiz-adv-x="271" 
d="M152 576v142h158v-142h-158zM-38 576v142h158v-142h-158zM31 0v546h209v-546h-209z" />
    <glyph glyph-name="eth" unicode="&#xf0;" horiz-adv-x="576" 
d="M502 646l-51 -12q110 -138 110 -314v-13q0 -149 -74 -234.5t-200 -85.5q-123 0 -197.5 77.5t-74.5 210.5v20q0 119 53.5 186t139.5 67q61 0 113 -38q-22 40 -58 82l-102 -23l-28 81l58 13q-38 32 -82 62h250q16 -12 23 -19l92 21zM289 164q32 0 50.5 28t18.5 75v12
q0 47 -19.5 75t-51.5 28q-31 0 -49.5 -27.5t-18.5 -74.5v-12q0 -48 19 -76t51 -28z" />
    <glyph glyph-name="ntilde" unicode="&#xf1;" horiz-adv-x="574" 
d="M29 0v546h209v-71q62 84 149 84q75 0 118 -47.5t43 -129.5v-382h-210v315q0 27 -13.5 43t-34.5 16q-22 0 -37 -16t-15 -43v-315h-209zM376 583q-28 0 -85 19q-49 17 -63 17q-16 0 -24.5 -9t-15.5 -31l-92 21q10 77 36.5 112t71.5 35q28 0 85 -19q49 -17 63 -17
q16 0 24 8.5t16 31.5l92 -20q-10 -77 -36.5 -112.5t-71.5 -35.5z" />
    <glyph glyph-name="ograve" unicode="&#xf2;" horiz-adv-x="576" 
d="M287 -13q-120 0 -196 78t-76 198v18q0 121 77 199.5t197 78.5t196 -78t76 -198v-18q0 -121 -77 -199.5t-197 -78.5zM289 164q32 0 50.5 28t18.5 75v12q0 47 -19.5 75t-51.5 28q-31 0 -49.5 -27.5t-18.5 -74.5v-12q0 -48 19 -76t51 -28zM230 584l-151 122l199 50l87 -172
h-135z" />
    <glyph glyph-name="oacute" unicode="&#xf3;" horiz-adv-x="576" 
d="M211 584l87 172l199 -50l-151 -122h-135zM287 -13q-120 0 -196 78t-76 198v18q0 121 77 199.5t197 78.5t196 -78t76 -198v-18q0 -121 -77 -199.5t-197 -78.5zM289 164q32 0 50.5 28t18.5 75v12q0 47 -19.5 75t-51.5 28q-31 0 -49.5 -27.5t-18.5 -74.5v-12q0 -48 19 -76
t51 -28z" />
    <glyph glyph-name="ocircumflex" unicode="&#xf4;" horiz-adv-x="576" 
d="M97 584l116 154h150l116 -154h-117l-75 51l-75 -51h-115zM287 -13q-120 0 -196 78t-76 198v18q0 121 77 199.5t197 78.5t196 -78t76 -198v-18q0 -121 -77 -199.5t-197 -78.5zM289 164q32 0 50.5 28t18.5 75v12q0 47 -19.5 75t-51.5 28q-31 0 -49.5 -27.5t-18.5 -74.5v-12
q0 -48 19 -76t51 -28z" />
    <glyph glyph-name="otilde" unicode="&#xf5;" horiz-adv-x="576" 
d="M287 -13q-120 0 -196 78t-76 198v18q0 121 77 199.5t197 78.5t196 -78t76 -198v-18q0 -121 -77 -199.5t-197 -78.5zM289 164q32 0 50.5 28t18.5 75v12q0 47 -19.5 75t-51.5 28q-31 0 -49.5 -27.5t-18.5 -74.5v-12q0 -48 19 -76t51 -28zM376 583q-28 0 -85 19
q-49 17 -63 17q-16 0 -24.5 -9t-15.5 -31l-92 21q10 77 36.5 112t71.5 35q28 0 85 -19q49 -17 63 -17q16 0 24 8.5t16 31.5l92 -20q-10 -77 -36.5 -112.5t-71.5 -35.5z" />
    <glyph glyph-name="odieresis" unicode="&#xf6;" horiz-adv-x="576" 
d="M304 584v142h158v-142h-158zM114 584v142h158v-142h-158zM287 -13q-120 0 -196 78t-76 198v18q0 121 77 199.5t197 78.5t196 -78t76 -198v-18q0 -121 -77 -199.5t-197 -78.5zM289 164q32 0 50.5 28t18.5 75v12q0 47 -19.5 75t-51.5 28q-31 0 -49.5 -27.5t-18.5 -74.5v-12
q0 -48 19 -76t51 -28z" />
    <glyph glyph-name="divide" unicode="&#xf7;" horiz-adv-x="574" 
d="M194 482v164h186v-164h-186zM536 269h-498v166h498v-166zM194 58v164h186v-164h-186z" />
    <glyph glyph-name="oslash" unicode="&#xf8;" horiz-adv-x="576" 
d="M460 550h113l-73 -88q61 -75 61 -179v-18q0 -121 -77 -199.5t-197 -78.5q-83 0 -146 40l-25 -31h-113l73 87q-61 74 -61 180v18q0 121 77 199.5t197 78.5q80 0 146 -40zM210 266q0 -19 1 -28l113 144q-18 10 -37 10q-35 0 -56 -30.5t-21 -80.5v-15zM289 154q35 0 56 30.5
t21 80.5v15q0 9 -2 25l-111 -142q17 -9 36 -9z" />
    <glyph glyph-name="ugrave" unicode="&#xf9;" horiz-adv-x="574" 
d="M187 -13q-76 0 -119 47.5t-43 129.5v382h210v-315q0 -27 14 -43t35 -16t36 16t15 43v315h210v-546h-210v69q-61 -82 -148 -82zM226 576l-151 122l199 50l87 -172h-135z" />
    <glyph glyph-name="uacute" unicode="&#xfa;" horiz-adv-x="574" 
d="M207 576l87 172l199 -50l-151 -122h-135zM187 -13q-76 0 -119 47.5t-43 129.5v382h210v-315q0 -27 14 -43t35 -16t36 16t15 43v315h210v-546h-210v69q-61 -82 -148 -82z" />
    <glyph glyph-name="ucircumflex" unicode="&#xfb;" horiz-adv-x="574" 
d="M93 576l116 154h150l116 -154h-117l-75 51l-75 -51h-115zM187 -13q-76 0 -119 47.5t-43 129.5v382h210v-315q0 -27 14 -43t35 -16t36 16t15 43v315h210v-546h-210v69q-61 -82 -148 -82z" />
    <glyph glyph-name="udieresis" unicode="&#xfc;" horiz-adv-x="574" 
d="M300 576v142h158v-142h-158zM110 576v142h158v-142h-158zM187 -13q-76 0 -119 47.5t-43 129.5v382h210v-315q0 -27 14 -43t35 -16t36 16t15 43v315h210v-546h-210v69q-61 -82 -148 -82z" />
    <glyph glyph-name="yacute" unicode="&#xfd;" horiz-adv-x="572" 
d="M291 263l71 283h212l-166 -508q-34 -103 -82 -147.5t-133 -44.5q-86 0 -171 44l50 146q50 -27 79 -27q20 0 32 8l-184 529h216zM213 576l87 172l199 -50l-151 -122h-135z" />
    <glyph glyph-name="thorn" unicode="&#xfe;" horiz-adv-x="598" 
d="M29 -150v875h209v-244q31 38 62.5 58t81.5 20q86 0 143 -72t57 -202v-20q0 -133 -56.5 -205.5t-142.5 -72.5t-145 75v-212h-209zM306 163q32 0 51.5 28.5t19.5 73.5v16q0 45 -19.5 73.5t-51.5 28.5t-51.5 -28.5t-19.5 -73.5v-16q0 -45 19.5 -73.5t51.5 -28.5z" />
    <glyph glyph-name="ydieresis" unicode="&#xff;" horiz-adv-x="572" 
d="M291 263l71 283h212l-166 -508q-34 -103 -82 -147.5t-133 -44.5q-86 0 -171 44l50 146q50 -27 79 -27q20 0 32 8l-184 529h216zM306 576v142h158v-142h-158zM116 576v142h158v-142h-158z" />
    <glyph glyph-name="Amacron" unicode="&#x100;" horiz-adv-x="691" 
d="M-10 0l242 704h227l242 -704h-229l-30 100h-198l-29 -100h-225zM291 260h105l-53 182zM160 750v120h370v-120h-370z" />
    <glyph glyph-name="amacron" unicode="&#x101;" horiz-adv-x="540" 
d="M169 -12q-71 0 -114.5 43.5t-43.5 122.5v7q0 83 49 127t134 44q68 0 112 -20v9q0 74 -88 74q-63 0 -131 -30l-43 150q97 40 212 40q139 0 203 -64q56 -56 56 -167v-324h-210v52q-54 -64 -136 -64zM251 115q25 0 40.5 19.5t15.5 54.5v36q-18 9 -43 9q-27 0 -42 -17
t-15 -43v-6q0 -24 12.5 -38.5t31.5 -14.5zM99 592v116h350v-116h-350z" />
    <glyph glyph-name="Abreve" unicode="&#x102;" horiz-adv-x="691" 
d="M-10 0l242 704h227l242 -704h-229l-30 100h-198l-29 -100h-225zM291 260h105l-53 182zM346 741q-159 0 -180 137h114q16 -36 66 -36q49 0 66 36h113q-19 -137 -179 -137z" />
    <glyph glyph-name="abreve" unicode="&#x103;" horiz-adv-x="540" 
d="M169 -12q-71 0 -114.5 43.5t-43.5 122.5v7q0 83 49 127t134 44q68 0 112 -20v9q0 74 -88 74q-63 0 -131 -30l-43 150q97 40 212 40q139 0 203 -64q56 -56 56 -167v-324h-210v52q-54 -64 -136 -64zM251 115q25 0 40.5 19.5t15.5 54.5v36q-18 9 -43 9q-27 0 -42 -17
t-15 -43v-6q0 -24 12.5 -38.5t31.5 -14.5zM274 582q-78 0 -126.5 40.5t-55.5 115.5h110q16 -50 72 -50t72 50h110q-7 -75 -55.5 -115.5t-126.5 -40.5z" />
    <glyph glyph-name="Aogonek" unicode="&#x104;" horiz-adv-x="691" 
d="M708 -63v-93q-32 -4 -71 -4q-72 0 -113.5 21t-41.5 58q0 41 43 81h-53l-30 100h-198l-29 -100h-225l242 704h227l242 -704h-43q-16 -20 -16 -35t14.5 -21t51.5 -7zM291 260h105l-53 182z" />
    <glyph glyph-name="aogonek" unicode="&#x105;" horiz-adv-x="540" 
d="M523 -63v-93q-32 -4 -71 -4q-72 0 -113.5 21t-41.5 58q0 41 43 81h-35v52q-54 -64 -136 -64q-71 0 -114.5 43.5t-43.5 122.5v7q0 83 49 127t134 44q68 0 112 -20v9q0 74 -88 74q-63 0 -131 -30l-43 150q97 40 212 40q139 0 203 -64q56 -56 56 -167v-324h-42
q-16 -20 -16 -35t14.5 -21t51.5 -7zM251 115q25 0 40.5 19.5t15.5 54.5v36q-18 9 -43 9q-27 0 -42 -17t-15 -43v-6q0 -24 12.5 -38.5t31.5 -14.5z" />
    <glyph glyph-name="Cacute" unicode="&#x106;" horiz-adv-x="615" 
d="M345 -14q-136 0 -230.5 96.5t-94.5 257.5v17q0 160 96 258.5t237 98.5q166 0 258 -132l-146 -134q-41 66 -108 66q-52 0 -84.5 -42.5t-32.5 -118.5v-4q0 -80 33 -121.5t85 -41.5q68 0 111 68l146 -129q-95 -139 -270 -139zM265 743l84 148l212 -45l-145 -103h-151z" />
    <glyph glyph-name="cacute" unicode="&#x107;" horiz-adv-x="491" 
d="M203 584l87 172l199 -50l-151 -122h-135zM276 -14q-115 0 -188 79t-73 199v11q0 121 75.5 202t193.5 81q69 0 122.5 -30t85.5 -81l-127 -114q-31 45 -70 45q-34 0 -55 -28.5t-21 -73.5v-2q0 -49 21 -78t54 -29q41 0 74 44l125 -113q-77 -112 -217 -112z" />
    <glyph glyph-name="Cdotaccent" unicode="&#x10a;" horiz-adv-x="615" 
d="M258 743v138h172v-138h-172zM345 -14q-136 0 -230.5 96.5t-94.5 257.5v17q0 160 96 258.5t237 98.5q166 0 258 -132l-146 -134q-41 66 -108 66q-52 0 -84.5 -42.5t-32.5 -118.5v-4q0 -80 33 -121.5t85 -41.5q68 0 111 68l146 -129q-95 -139 -270 -139z" />
    <glyph glyph-name="cdotaccent" unicode="&#x10b;" horiz-adv-x="491" 
d="M276 -14q-115 0 -188 79t-73 199v11q0 121 75.5 202t193.5 81q69 0 122.5 -30t85.5 -81l-127 -114q-31 45 -70 45q-34 0 -55 -28.5t-21 -73.5v-2q0 -49 21 -78t54 -29q41 0 74 44l125 -113q-77 -112 -217 -112zM195 584v142h168v-142h-168z" />
    <glyph glyph-name="Ccaron" unicode="&#x10c;" horiz-adv-x="615" 
d="M345 -14q-136 0 -230.5 96.5t-94.5 257.5v17q0 160 96 258.5t237 98.5q166 0 258 -132l-146 -134q-41 66 -108 66q-52 0 -84.5 -42.5t-32.5 -118.5v-4q0 -80 33 -121.5t85 -41.5q68 0 111 68l146 -129q-95 -139 -270 -139zM535 878l-104 -135h-174l-104 135h125l67 -44
l66 44h124z" />
    <glyph glyph-name="ccaron" unicode="&#x10d;" horiz-adv-x="491" 
d="M470 738l-116 -154h-150l-116 154h117l75 -50l75 50h115zM276 -14q-115 0 -188 79t-73 199v11q0 121 75.5 202t193.5 81q69 0 122.5 -30t85.5 -81l-127 -114q-31 45 -70 45q-34 0 -55 -28.5t-21 -73.5v-2q0 -49 21 -78t54 -29q41 0 74 44l125 -113q-77 -112 -217 -112z
" />
    <glyph glyph-name="Dcaron" unicode="&#x10e;" horiz-adv-x="660" 
d="M33 0v700h235q182 0 277 -90t95 -249v-15q0 -160 -96.5 -253t-280.5 -93h-230zM274 509h-25v-318h25q147 0 147 152v14q0 152 -147 152zM509 869l-104 -135h-174l-104 135h125l67 -44l66 44h124z" />
    <glyph glyph-name="dcaron" unicode="&#x10f;" horiz-adv-x="598" 
d="M605 574l10 198h133v-3l-61 -195h-82zM217 -13q-87 0 -143.5 72t-56.5 202v20q0 132 56.5 205t141.5 73q86 0 145 -75v241h210v-725h-210v65q-31 -38 -62.5 -58t-80.5 -20zM293 163q32 0 51.5 28.5t19.5 73.5v16q0 45 -19.5 73.5t-51.5 28.5t-51.5 -28.5t-19.5 -73.5v-16
q0 -45 19.5 -73.5t51.5 -28.5z" />
    <glyph glyph-name="Dcroat" unicode="&#x110;" horiz-adv-x="712" 
d="M85 0v271h-68v162h68v267h236q182 0 276.5 -90t94.5 -249v-15q0 -160 -96.5 -253t-280.5 -93h-230zM365 275h-72v-91h33q148 0 148 159v14q0 159 -148 159h-33v-86h72v-155z" />
    <glyph glyph-name="dcroat" unicode="&#x111;" horiz-adv-x="598" 
d="M241 587v95h119v43h210v-43h46v-96h-46v-586h-210v65q-31 -38 -62.5 -58t-80.5 -20q-87 0 -143.5 72t-56.5 202v20q0 132 56.5 205t141.5 73q86 0 145 -75v103h-119zM293 163q32 0 51.5 28.5t19.5 73.5v16q0 45 -19.5 73.5t-51.5 28.5t-51.5 -28.5t-19.5 -73.5v-16
q0 -45 19.5 -73.5t51.5 -28.5z" />
    <glyph glyph-name="Emacron" unicode="&#x112;" horiz-adv-x="571" 
d="M107 741v120h370v-120h-370zM33 0v700h513v-184h-299v-80h277v-168h-277v-84h304v-184h-518z" />
    <glyph glyph-name="emacron" unicode="&#x113;" horiz-adv-x="538" 
d="M288 -13q-124 0 -198.5 74.5t-74.5 203.5v13q0 125 71.5 203t183.5 78q122 0 187.5 -79.5t65.5 -212.5v-53h-309q21 -68 93 -68q56 0 108 49l96 -114q-92 -94 -223 -94zM99 592v116h350v-116h-350zM211 317h121q-6 89 -62 89q-50 0 -59 -89z" />
    <glyph glyph-name="Ebreve" unicode="&#x114;" horiz-adv-x="571" 
d="M293 732q-159 0 -180 137h114q16 -36 66 -36q49 0 66 36h113q-19 -137 -179 -137zM33 0v700h513v-184h-299v-80h277v-168h-277v-84h304v-184h-518z" />
    <glyph glyph-name="ebreve" unicode="&#x115;" horiz-adv-x="538" 
d="M288 -13q-124 0 -198.5 74.5t-74.5 203.5v13q0 125 71.5 203t183.5 78q122 0 187.5 -79.5t65.5 -212.5v-53h-309q21 -68 93 -68q56 0 108 49l96 -114q-92 -94 -223 -94zM274 582q-78 0 -126.5 40.5t-55.5 115.5h110q16 -50 72 -50t72 50h110q-7 -75 -55.5 -115.5
t-126.5 -40.5zM211 317h121q-6 89 -62 89q-50 0 -59 -89z" />
    <glyph glyph-name="Edotaccent" unicode="&#x116;" horiz-adv-x="571" 
d="M206 734v138h172v-138h-172zM33 0v700h513v-184h-299v-80h277v-168h-277v-84h304v-184h-518z" />
    <glyph glyph-name="edotaccent" unicode="&#x117;" horiz-adv-x="538" 
d="M288 -13q-124 0 -198.5 74.5t-74.5 203.5v13q0 125 71.5 203t183.5 78q122 0 187.5 -79.5t65.5 -212.5v-53h-309q21 -68 93 -68q56 0 108 49l96 -114q-92 -94 -223 -94zM190 584v142h168v-142h-168zM211 317h121q-6 89 -62 89q-50 0 -59 -89z" />
    <glyph glyph-name="Eogonek" unicode="&#x118;" horiz-adv-x="571" 
d="M33 0v700h513v-184h-299v-80h277v-168h-277v-84h304v-184h-50q-16 -20 -16 -35t14.5 -21t51.5 -7v-93q-32 -4 -71 -4q-72 0 -113.5 21t-41.5 58q0 41 43 81h-335z" />
    <glyph glyph-name="eogonek" unicode="&#x119;" horiz-adv-x="538" 
d="M415 195l96 -114q-8 -8 -16 -16.5t-18.5 -18.5t-16.5 -16q-43 -42 -43 -64q0 -15 14.5 -21.5t52.5 -7.5v-93q-32 -4 -72 -4q-71 0 -112.5 20.5t-41.5 58.5q0 35 33 68h-3q-124 0 -198.5 74.5t-74.5 203.5v13q0 125 71.5 203t183.5 78q122 0 187.5 -79.5t65.5 -212.5v-53
h-309q21 -68 93 -68q56 0 108 49zM211 317h121q-6 89 -62 89q-50 0 -59 -89z" />
    <glyph glyph-name="Ecaron" unicode="&#x11a;" horiz-adv-x="571" 
d="M483 869l-104 -135h-174l-104 135h125l67 -44l66 44h124zM33 0v700h513v-184h-299v-80h277v-168h-277v-84h304v-184h-518z" />
    <glyph glyph-name="ecaron" unicode="&#x11b;" horiz-adv-x="538" 
d="M288 -13q-124 0 -198.5 74.5t-74.5 203.5v13q0 125 71.5 203t183.5 78q122 0 187.5 -79.5t65.5 -212.5v-53h-309q21 -68 93 -68q56 0 108 49l96 -114q-92 -94 -223 -94zM465 738l-116 -154h-150l-116 154h117l75 -50l75 50h115zM211 317h121q-6 89 -62 89q-50 0 -59 -89z
" />
    <glyph glyph-name="Gbreve" unicode="&#x11e;" horiz-adv-x="657" 
d="M357 741q-159 0 -180 137h114q16 -36 66 -36q49 0 66 36h113q-19 -137 -179 -137zM367 -14q-149 0 -248 96.5t-99 257.5v19q0 157 98.5 256t248.5 99q142 0 252 -89l-114 -159q-62 55 -129 55q-60 0 -99 -45.5t-39 -122.5v-12q0 -81 38 -126.5t98 -45.5q36 0 58 12v84
h-96v152h296v-343q-116 -88 -265 -88z" />
    <glyph glyph-name="gbreve" unicode="&#x11f;" horiz-adv-x="598" 
d="M280 -153q-137 0 -257 53l55 141q84 -44 175 -44q54 0 82.5 27t28.5 77v21q-60 -73 -142 -73q-91 0 -148 64t-57 182v13q0 119 56 185t140 66q85 0 147 -71v58h210v-424q0 -137 -66 -203q-72 -72 -224 -72zM293 209q33 0 52 25t19 66v5q0 40 -19 65.5t-52 25.5
q-34 0 -52.5 -25t-18.5 -67v-5q0 -40 19 -65t52 -25zM310 582q-78 0 -126.5 40.5t-55.5 115.5h110q16 -50 72 -50t72 50h110q-7 -75 -55.5 -115.5t-126.5 -40.5z" />
    <glyph glyph-name="Gdotaccent" unicode="&#x120;" horiz-adv-x="657" 
d="M270 743v138h172v-138h-172zM367 -14q-149 0 -248 96.5t-99 257.5v19q0 157 98.5 256t248.5 99q142 0 252 -89l-114 -159q-62 55 -129 55q-60 0 -99 -45.5t-39 -122.5v-12q0 -81 38 -126.5t98 -45.5q36 0 58 12v84h-96v152h296v-343q-116 -88 -265 -88z" />
    <glyph glyph-name="gdotaccent" unicode="&#x121;" horiz-adv-x="598" 
d="M280 -153q-137 0 -257 53l55 141q84 -44 175 -44q54 0 82.5 27t28.5 77v21q-60 -73 -142 -73q-91 0 -148 64t-57 182v13q0 119 56 185t140 66q85 0 147 -71v58h210v-424q0 -137 -66 -203q-72 -72 -224 -72zM293 209q33 0 52 25t19 66v5q0 40 -19 65.5t-52 25.5
q-34 0 -52.5 -25t-18.5 -67v-5q0 -40 19 -65t52 -25zM226 584v142h168v-142h-168z" />
    <glyph glyph-name="Gcommaaccent" unicode="&#x122;" horiz-adv-x="657" 
d="M275 -296l-8 60q42 5 58.5 18t15.5 36h-69v138h166v-111q0 -71 -41.5 -103t-121.5 -38zM367 -14q-149 0 -248 96.5t-99 257.5v19q0 157 98.5 256t248.5 99q142 0 252 -89l-114 -159q-62 55 -129 55q-60 0 -99 -45.5t-39 -122.5v-12q0 -81 38 -126.5t98 -45.5q36 0 58 12
v84h-96v152h296v-343q-116 -88 -265 -88z" />
    <glyph glyph-name="gcommaaccent" unicode="&#x123;" horiz-adv-x="598" 
d="M388 836l8 -60q-42 -5 -58.5 -18t-15.5 -36h69v-138h-166v111q0 71 41.5 103t121.5 38zM280 -153q-137 0 -257 53l55 141q84 -44 175 -44q54 0 82.5 27t28.5 77v21q-60 -73 -142 -73q-91 0 -148 64t-57 182v13q0 119 56 185t140 66q85 0 147 -71v58h210v-424
q0 -137 -66 -203q-72 -72 -224 -72zM293 209q33 0 52 25t19 66v5q0 40 -19 65.5t-52 25.5q-34 0 -52.5 -25t-18.5 -67v-5q0 -40 19 -65t52 -25z" />
    <glyph glyph-name="Hbar" unicode="&#x126;" horiz-adv-x="680" 
d="M-5 516v115h45v69h216v-71h168v71h216v-69h45v-115h-45v-516h-216v256h-168v-256h-216v516h-45zM256 446h168v73h-168v-73z" />
    <glyph glyph-name="hbar" unicode="&#x127;" horiz-adv-x="574" 
d="M358 587h-120v-110q61 82 149 82q75 0 118 -47.5t43 -129.5v-382h-210v315q0 27 -13.5 43t-34.5 16q-22 0 -37 -16t-15 -43v-315h-209v586h-46v96h46v43h209v-43h120v-95z" />
    <glyph glyph-name="Imacron" unicode="&#x12a;" horiz-adv-x="286" 
d="M35 0v700h216v-700h-216zM-41 741v120h370v-120h-370z" />
    <glyph glyph-name="imacron" unicode="&#x12b;" horiz-adv-x="271" 
d="M31 0v546h209v-546h-209zM-39 584v116h350v-116h-350z" />
    <glyph glyph-name="Ibreve" unicode="&#x12c;" horiz-adv-x="286" 
d="M35 0v700h216v-700h-216zM145 732q-159 0 -180 137h114q16 -36 66 -36q49 0 66 36h113q-19 -137 -179 -137z" />
    <glyph glyph-name="ibreve" unicode="&#x12d;" horiz-adv-x="271" 
d="M31 0v546h209v-546h-209zM136 574q-78 0 -126.5 40.5t-55.5 115.5h110q16 -50 72 -50t72 50h110q-7 -75 -55.5 -115.5t-126.5 -40.5z" />
    <glyph glyph-name="Iogonek" unicode="&#x12e;" horiz-adv-x="286" 
d="M35 0v700h216v-700h-39q-16 -20 -16 -35t14.5 -21t51.5 -7v-93q-32 -4 -71 -4q-72 0 -113.5 21t-41.5 58q0 41 43 81h-44z" />
    <glyph glyph-name="iogonek" unicode="&#x12f;" horiz-adv-x="271" 
d="M31 0v546h209v-546h-38q-16 -20 -16 -35t14.5 -21t51.5 -7v-93q-32 -4 -71 -4q-72 0 -113.5 21t-41.5 58q0 41 43 81h-38zM28 582v143h216v-143h-216z" />
    <glyph glyph-name="Idotaccent" unicode="&#x130;" horiz-adv-x="286" 
d="M35 0v700h216v-700h-216zM58 734v138h172v-138h-172z" />
    <glyph glyph-name="dotlessi" unicode="&#x131;" horiz-adv-x="271" 
d="M31 0v546h209v-546h-209z" />
    <glyph glyph-name="Kcommaaccent" unicode="&#x136;" horiz-adv-x="638" 
d="M241 -287l-8 60q42 5 58.5 18t15.5 36h-69v138h166v-111q0 -71 -41.5 -103t-121.5 -38zM34 0v700h216v-253l156 253h242l-197 -300l202 -400h-250l-107 222l-46 -65v-157h-216z" />
    <glyph glyph-name="kcommaaccent" unicode="&#x137;" horiz-adv-x="550" 
d="M202 -287l-8 60q42 5 58.5 18t15.5 36h-69v138h166v-111q0 -71 -41.5 -103t-121.5 -38zM29 0v725h209v-343l96 164h223l-140 -219l143 -327h-224l-63 159l-35 -49v-110h-209z" />
    <glyph glyph-name="Lacute" unicode="&#x139;" horiz-adv-x="527" 
d="M79 734l84 148l212 -45l-145 -103h-151zM33 0v700h216v-510h267v-190h-483z" />
    <glyph glyph-name="lacute" unicode="&#x13a;" horiz-adv-x="271" 
d="M56 754l84 148l212 -45l-145 -103h-151zM31 0v725h209v-725h-209z" />
    <glyph glyph-name="Lcommaaccent" unicode="&#x13b;" horiz-adv-x="527" 
d="M196 -287l-8 60q42 5 58.5 18t15.5 36h-69v138h166v-111q0 -71 -41.5 -103t-121.5 -38zM33 0v700h216v-510h267v-190h-483z" />
    <glyph glyph-name="lcommaaccent" unicode="&#x13c;" horiz-adv-x="271" 
d="M58 -287l-8 60q42 5 58.5 18t15.5 36h-69v138h166v-111q0 -71 -41.5 -103t-121.5 -38zM31 0v725h209v-725h-209z" />
    <glyph glyph-name="Lcaron" unicode="&#x13d;" horiz-adv-x="527" 
d="M287 503l10 198h133v-3l-61 -195h-82zM33 0v700h216v-510h267v-190h-483z" />
    <glyph glyph-name="lcaron" unicode="&#x13e;" horiz-adv-x="271" 
d="M275 574l10 198h133v-3l-61 -195h-82zM31 0v725h209v-725h-209z" />
    <glyph glyph-name="Ldot" unicode="&#x13f;" horiz-adv-x="527" 
d="M328 327v172h157v-172h-157zM33 0v700h216v-510h267v-190h-483z" />
    <glyph glyph-name="ldot" unicode="&#x140;" horiz-adv-x="412" 
d="M272 282v175h140v-175h-140zM31 0v725h209v-725h-209z" />
    <glyph glyph-name="Lslash" unicode="&#x141;" horiz-adv-x="573" 
d="M419 354l-123 -54v-110h267v-190h-483v205l-63 -28v196l63 27v300h216v-205l123 55v-196z" />
    <glyph glyph-name="lslash" unicode="&#x142;" horiz-adv-x="381" 
d="M367 346l-72 -32v-314h-209v221l-72 -32v189l72 32v315h209v-221l72 32v-190z" />
    <glyph glyph-name="Nacute" unicode="&#x143;" horiz-adv-x="682" 
d="M261 734l84 148l212 -45l-145 -103h-151zM33 0v700h205l199 -296v296h211v-700h-194l-209 311v-311h-212z" />
    <glyph glyph-name="nacute" unicode="&#x144;" horiz-adv-x="574" 
d="M211 584l87 172l199 -50l-151 -122h-135zM29 0v546h209v-71q62 84 149 84q75 0 118 -47.5t43 -129.5v-382h-210v315q0 27 -13.5 43t-34.5 16q-22 0 -37 -16t-15 -43v-315h-209z" />
    <glyph glyph-name="Ncommaaccent" unicode="&#x145;" horiz-adv-x="682" 
d="M262 -287l-8 60q42 5 58.5 18t15.5 36h-69v138h166v-111q0 -71 -41.5 -103t-121.5 -38zM33 0v700h205l199 -296v296h211v-700h-194l-209 311v-311h-212z" />
    <glyph glyph-name="ncommaaccent" unicode="&#x146;" horiz-adv-x="574" 
d="M209 -287l-8 60q42 5 58.5 18t15.5 36h-69v138h166v-111q0 -71 -41.5 -103t-121.5 -38zM29 0v546h209v-71q62 84 149 84q75 0 118 -47.5t43 -129.5v-382h-210v315q0 27 -13.5 43t-34.5 16q-22 0 -37 -16t-15 -43v-315h-209z" />
    <glyph glyph-name="Ncaron" unicode="&#x147;" horiz-adv-x="682" 
d="M531 869l-104 -135h-174l-104 135h125l67 -44l66 44h124zM33 0v700h205l199 -296v296h211v-700h-194l-209 311v-311h-212z" />
    <glyph glyph-name="ncaron" unicode="&#x148;" horiz-adv-x="574" 
d="M479 738l-116 -154h-150l-116 154h117l75 -50l75 50h115zM29 0v546h209v-71q62 84 149 84q75 0 118 -47.5t43 -129.5v-382h-210v315q0 27 -13.5 43t-34.5 16q-22 0 -37 -16t-15 -43v-315h-209z" />
    <glyph glyph-name="Omacron" unicode="&#x14c;" horiz-adv-x="704" 
d="M166 750v120h370v-120h-370zM351 -15q-145 0 -238 99t-93 256v18q0 157 93.5 257t238.5 100t238.5 -99t93.5 -256v-18q0 -157 -94 -257t-239 -100zM352 178q53 0 83 43t30 121v15q0 78 -30.5 121.5t-83.5 43.5q-52 0 -82.5 -43.5t-30.5 -120.5v-15q0 -78 30.5 -121.5
t83.5 -43.5z" />
    <glyph glyph-name="omacron" unicode="&#x14d;" horiz-adv-x="576" 
d="M113 592v116h350v-116h-350zM287 -13q-120 0 -196 78t-76 198v18q0 121 77 199.5t197 78.5t196 -78t76 -198v-18q0 -121 -77 -199.5t-197 -78.5zM289 164q32 0 50.5 28t18.5 75v12q0 47 -19.5 75t-51.5 28q-31 0 -49.5 -27.5t-18.5 -74.5v-12q0 -48 19 -76t51 -28z" />
    <glyph glyph-name="Obreve" unicode="&#x14e;" horiz-adv-x="704" 
d="M352 741q-159 0 -180 137h114q16 -36 66 -36q49 0 66 36h113q-19 -137 -179 -137zM351 -15q-145 0 -238 99t-93 256v18q0 157 93.5 257t238.5 100t238.5 -99t93.5 -256v-18q0 -157 -94 -257t-239 -100zM352 178q53 0 83 43t30 121v15q0 78 -30.5 121.5t-83.5 43.5
q-52 0 -82.5 -43.5t-30.5 -120.5v-15q0 -78 30.5 -121.5t83.5 -43.5z" />
    <glyph glyph-name="obreve" unicode="&#x14f;" horiz-adv-x="576" 
d="M287 -13q-120 0 -196 78t-76 198v18q0 121 77 199.5t197 78.5t196 -78t76 -198v-18q0 -121 -77 -199.5t-197 -78.5zM289 164q32 0 50.5 28t18.5 75v12q0 47 -19.5 75t-51.5 28q-31 0 -49.5 -27.5t-18.5 -74.5v-12q0 -48 19 -76t51 -28zM288 582q-78 0 -126.5 40.5
t-55.5 115.5h110q16 -50 72 -50t72 50h110q-7 -75 -55.5 -115.5t-126.5 -40.5z" />
    <glyph glyph-name="Ohungarumlaut" unicode="&#x150;" horiz-adv-x="704" 
d="M351 -15q-145 0 -238 99t-93 256v18q0 157 93.5 257t238.5 100t238.5 -99t93.5 -256v-18q0 -157 -94 -257t-239 -100zM352 178q53 0 83 43t30 121v15q0 78 -30.5 121.5t-83.5 43.5q-52 0 -82.5 -43.5t-30.5 -120.5v-15q0 -78 30.5 -121.5t83.5 -43.5zM367 743l36 68
l-89 -68h-132l77 148l165 -39l21 39l189 -44l-134 -104h-133z" />
    <glyph glyph-name="ohungarumlaut" unicode="&#x151;" horiz-adv-x="576" 
d="M287 -13q-120 0 -196 78t-76 198v18q0 121 77 199.5t197 78.5t196 -78t76 -198v-18q0 -121 -77 -199.5t-197 -78.5zM125 584l81 172l155 -43l20 43l179 -49l-141 -123h-119l39 83l-95 -83h-119zM289 164q32 0 50.5 28t18.5 75v12q0 47 -19.5 75t-51.5 28
q-31 0 -49.5 -27.5t-18.5 -74.5v-12q0 -48 19 -76t51 -28z" />
    <glyph glyph-name="OE" unicode="&#x152;" horiz-adv-x="935" 
d="M392 0q-182 0 -277 90t-95 249v15q0 160 96.5 253t280.5 93h514v-184h-287v-80h264v-168h-264v-84h291v-184h-523zM383 187h28v326h-28q-68 0 -106.5 -38t-38.5 -118v-14q0 -79 38.5 -117.5t106.5 -38.5z" />
    <glyph glyph-name="oe" unicode="&#x153;" horiz-adv-x="878" 
d="M280 -13q-114 0 -189.5 78t-75.5 198v18q0 120 76 199t191 79q109 0 175 -69q61 69 160 69q118 0 182.5 -80t64.5 -212v-53h-309q21 -68 93 -68q56 0 108 49l96 -114q-92 -94 -218 -94q-112 0 -179 69q-67 -69 -175 -69zM289 164q32 0 50.5 28t18.5 75v12q0 47 -19.5 75
t-51.5 28q-31 0 -49.5 -27.5t-18.5 -74.5v-12q0 -48 19 -76t51 -28zM553 317h120q-6 89 -62 89q-51 0 -58 -89z" />
    <glyph glyph-name="Racute" unicode="&#x154;" horiz-adv-x="628" 
d="M33 0v700h288q156 0 230 -74q63 -63 63 -167v-6q0 -140 -120 -205l140 -248h-242l-109 204h-35v-204h-215zM226 734l84 148l212 -45l-145 -103h-151zM248 363h70q37 0 58 19.5t21 55.5v5q0 37 -21 56t-57 19h-71v-155z" />
    <glyph glyph-name="racute" unicode="&#x155;" horiz-adv-x="386" 
d="M123 576l87 172l199 -50l-151 -122h-135zM29 0v546h209v-102q44 115 143 110v-231h-17q-126 0 -126 -153v-170h-209z" />
    <glyph glyph-name="Rcommaaccent" unicode="&#x156;" horiz-adv-x="628" 
d="M33 0v700h288q156 0 230 -74q63 -63 63 -167v-6q0 -140 -120 -205l140 -248h-242l-109 204h-35v-204h-215zM230 -287l-8 60q42 5 58.5 18t15.5 36h-69v138h166v-111q0 -71 -41.5 -103t-121.5 -38zM248 363h70q37 0 58 19.5t21 55.5v5q0 37 -21 56t-57 19h-71v-155z" />
    <glyph glyph-name="rcommaaccent" unicode="&#x157;" horiz-adv-x="386" 
d="M59 -287l-8 60q42 5 58.5 18t15.5 36h-69v138h166v-111q0 -71 -41.5 -103t-121.5 -38zM29 0v546h209v-102q44 115 143 110v-231h-17q-126 0 -126 -153v-170h-209z" />
    <glyph glyph-name="Rcaron" unicode="&#x158;" horiz-adv-x="628" 
d="M33 0v700h288q156 0 230 -74q63 -63 63 -167v-6q0 -140 -120 -205l140 -248h-242l-109 204h-35v-204h-215zM497 869l-104 -135h-174l-104 135h125l67 -44l66 44h124zM248 363h70q37 0 58 19.5t21 55.5v5q0 37 -21 56t-57 19h-71v-155z" />
    <glyph glyph-name="rcaron" unicode="&#x159;" horiz-adv-x="386" 
d="M390 730l-116 -154h-150l-116 154h117l75 -50l75 50h115zM29 0v546h209v-102q44 115 143 110v-231h-17q-126 0 -126 -153v-170h-209z" />
    <glyph glyph-name="Sacute" unicode="&#x15a;" horiz-adv-x="582" 
d="M294 -12q-185 0 -310 103l104 155q102 -78 208 -78q54 0 54 33v2q0 16 -18 27t-67 25q-60 18 -99 34.5t-76 42.5t-55 63t-18 85v4q0 101 72.5 164.5t196.5 63.5q163 0 274 -86l-101 -157q-87 63 -176 63q-23 0 -35.5 -9t-12.5 -22v-2q0 -16 19 -27t71 -28
q120 -33 182 -83t62 -140v-3q0 -105 -75.5 -167.5t-199.5 -62.5zM214 743l84 148l212 -45l-145 -103h-151z" />
    <glyph glyph-name="sacute" unicode="&#x15b;" horiz-adv-x="468" 
d="M162 584l87 172l199 -50l-151 -122h-135zM239 -13q-137 0 -245 72l70 136q91 -59 171 -59q31 0 31 19v1q0 9 -12 16.5t-48 19.5q-98 31 -143.5 68.5t-45.5 111.5v2q0 86 59.5 135.5t158.5 49.5q124 0 218 -58l-69 -137q-80 46 -144 46q-31 0 -31 -18v-2q0 -9 13 -16
t50 -19q97 -32 141.5 -70.5t44.5 -107.5v-2q0 -87 -58.5 -137.5t-160.5 -50.5z" />
    <glyph glyph-name="Scedilla" unicode="&#x15e;" horiz-adv-x="582" 
d="M300 -160l-170 62l73 93q-129 20 -219 96l104 155q102 -78 208 -78q54 0 54 33v2q0 16 -18 27t-67 25q-60 18 -99 34.5t-76 42.5t-55 63t-18 85v4q0 101 72.5 164.5t196.5 63.5q163 0 274 -86l-101 -157q-87 63 -176 63q-23 0 -35.5 -9t-12.5 -22v-2q0 -16 19 -27t71 -28
q120 -33 182 -83t62 -140v-3q0 -95 -61.5 -155.5t-165.5 -71.5z" />
    <glyph glyph-name="scedilla" unicode="&#x15f;" horiz-adv-x="468" 
d="M244 -160l-170 62l74 94q-82 15 -154 63l70 136q91 -59 171 -59q31 0 31 19v1q0 9 -12 16.5t-48 19.5q-98 31 -143.5 68.5t-45.5 111.5v2q0 86 59.5 135.5t158.5 49.5q124 0 218 -58l-69 -137q-80 46 -144 46q-31 0 -31 -18v-2q0 -9 13 -16t50 -19q97 -32 141.5 -70.5
t44.5 -107.5v-2q0 -76 -45.5 -124.5t-126.5 -59.5z" />
    <glyph glyph-name="Scaron" unicode="&#x160;" horiz-adv-x="582" 
d="M294 -12q-185 0 -310 103l104 155q102 -78 208 -78q54 0 54 33v2q0 16 -18 27t-67 25q-60 18 -99 34.5t-76 42.5t-55 63t-18 85v4q0 101 72.5 164.5t196.5 63.5q163 0 274 -86l-101 -157q-87 63 -176 63q-23 0 -35.5 -9t-12.5 -22v-2q0 -16 19 -27t71 -28
q120 -33 182 -83t62 -140v-3q0 -105 -75.5 -167.5t-199.5 -62.5zM485 878l-104 -135h-174l-104 135h125l67 -44l66 44h124z" />
    <glyph glyph-name="scaron" unicode="&#x161;" horiz-adv-x="468" 
d="M431 738l-116 -154h-150l-116 154h117l75 -50l75 50h115zM239 -13q-137 0 -245 72l70 136q91 -59 171 -59q31 0 31 19v1q0 9 -12 16.5t-48 19.5q-98 31 -143.5 68.5t-45.5 111.5v2q0 86 59.5 135.5t158.5 49.5q124 0 218 -58l-69 -137q-80 46 -144 46q-31 0 -31 -18v-2
q0 -9 13 -16t50 -19q97 -32 141.5 -70.5t44.5 -107.5v-2q0 -87 -58.5 -137.5t-160.5 -50.5z" />
    <glyph glyph-name="Tcommaaccent" unicode="&#x162;" horiz-adv-x="580" 
d="M211 -287l-8 60q42 5 58.5 18t15.5 36h-69v138h166v-111q0 -71 -41.5 -103t-121.5 -38zM182 0v511h-171v189h558v-189h-171v-511h-216z" />
    <glyph glyph-name="tcommaaccent" unicode="&#x163;" horiz-adv-x="391" 
d="M131 -295l-8 60q42 5 58.5 18t15.5 36h-69v138h166v-111q0 -71 -41.5 -103t-121.5 -38zM244 -12q-181 0 -181 173v222h-53v163h53v134h209v-134h105v-163h-105v-172q0 -45 45 -45q25 0 58 14v-163q-56 -29 -131 -29z" />
    <glyph glyph-name="Tcaron" unicode="&#x164;" horiz-adv-x="580" 
d="M481 869l-104 -135h-174l-104 135h125l67 -44l66 44h124zM182 0v511h-171v189h558v-189h-171v-511h-216z" />
    <glyph glyph-name="tcaron" unicode="&#x165;" horiz-adv-x="391" 
d="M302 574l10 198h133v-3l-61 -195h-82zM244 -12q-181 0 -181 173v222h-53v163h53v134h209v-134h105v-163h-105v-172q0 -45 45 -45q25 0 58 14v-163q-56 -29 -131 -29z" />
    <glyph glyph-name="Umacron" unicode="&#x16a;" horiz-adv-x="662" 
d="M145 741v120h370v-120h-370zM329 -14q-141 0 -221 72.5t-80 223.5v418h219v-420q0 -51 22.5 -76t61.5 -25t61.5 24t22.5 74v423h218v-414q0 -154 -80.5 -227t-223.5 -73z" />
    <glyph glyph-name="umacron" unicode="&#x16b;" horiz-adv-x="574" 
d="M187 -13q-76 0 -119 47.5t-43 129.5v382h210v-315q0 -27 14 -43t35 -16t36 16t15 43v315h210v-546h-210v69q-61 -82 -148 -82zM109 584v116h350v-116h-350z" />
    <glyph glyph-name="Ubreve" unicode="&#x16c;" horiz-adv-x="662" 
d="M331 726q-159 0 -180 137h114q16 -36 66 -36q49 0 66 36h113q-19 -137 -179 -137zM329 -14q-141 0 -221 72.5t-80 223.5v418h219v-420q0 -51 22.5 -76t61.5 -25t61.5 24t22.5 74v423h218v-414q0 -154 -80.5 -227t-223.5 -73z" />
    <glyph glyph-name="ubreve" unicode="&#x16d;" horiz-adv-x="574" 
d="M187 -13q-76 0 -119 47.5t-43 129.5v382h210v-315q0 -27 14 -43t35 -16t36 16t15 43v315h210v-546h-210v69q-61 -82 -148 -82zM284 574q-78 0 -126.5 40.5t-55.5 115.5h110q16 -50 72 -50t72 50h110q-7 -75 -55.5 -115.5t-126.5 -40.5z" />
    <glyph glyph-name="Uring" unicode="&#x16e;" horiz-adv-x="662" 
d="M329 -14q-141 0 -221 72.5t-80 223.5v418h219v-420q0 -51 22.5 -76t61.5 -25t61.5 24t22.5 74v423h218v-414q0 -154 -80.5 -227t-223.5 -73zM330 722q-61 0 -101 36.5t-40 90.5q0 55 40 91t101 36t101 -36t40 -91q0 -54 -40 -90.5t-101 -36.5zM330 784q31 0 51 18.5
t20 46.5t-20 47t-51 19t-51 -19t-20 -47t20 -46.5t51 -18.5z" />
    <glyph glyph-name="uring" unicode="&#x16f;" horiz-adv-x="574" 
d="M284 572q-54 0 -91.5 36.5t-37.5 88.5t37.5 88t91.5 36t91.5 -36t37.5 -88t-37.5 -88.5t-91.5 -36.5zM284 632q26 0 44 18.5t18 46.5t-18 46.5t-44 18.5t-44 -18.5t-18 -46.5t18 -46.5t44 -18.5zM187 -13q-76 0 -119 47.5t-43 129.5v382h210v-315q0 -27 14 -43t35 -16
t36 16t15 43v315h210v-546h-210v69q-61 -82 -148 -82z" />
    <glyph glyph-name="Uhungarumlaut" unicode="&#x170;" horiz-adv-x="662" 
d="M329 -14q-141 0 -221 72.5t-80 223.5v418h219v-420q0 -51 22.5 -76t61.5 -25t61.5 24t22.5 74v423h218v-414q0 -154 -80.5 -227t-223.5 -73zM337 734l36 68l-89 -68h-132l77 148l165 -39l21 39l189 -44l-134 -104h-133z" />
    <glyph glyph-name="uhungarumlaut" unicode="&#x171;" horiz-adv-x="574" 
d="M187 -13q-76 0 -119 47.5t-43 129.5v382h210v-315q0 -27 14 -43t35 -16t36 16t15 43v315h210v-546h-210v69q-61 -82 -148 -82zM116 576l81 172l155 -43l20 43l179 -49l-141 -123h-119l39 83l-95 -83h-119z" />
    <glyph glyph-name="Uogonek" unicode="&#x172;" horiz-adv-x="662" 
d="M443 -63v-93q-32 -4 -71 -4q-72 0 -113.5 21t-41.5 58t35 73q-107 17 -165.5 89t-58.5 201v418h219v-420q0 -51 22.5 -76t61.5 -25t61.5 24t22.5 74v423h218v-414q0 -138 -65 -211t-183 -86q-8 -12 -8 -24q0 -15 14.5 -21t51.5 -7z" />
    <glyph glyph-name="uogonek" unicode="&#x173;" horiz-adv-x="574" 
d="M187 -13q-76 0 -119 47.5t-43 129.5v382h210v-315q0 -27 14 -43t35 -16t36 16t15 43v315h210v-546h-42q-16 -20 -16 -35t14.5 -21t51.5 -7v-93q-32 -4 -71 -4q-72 0 -113.5 21t-41.5 58q0 41 43 81h-35v69q-61 -82 -148 -82z" />
    <glyph glyph-name="Wcircumflex" unicode="&#x174;" horiz-adv-x="968" 
d="M189 -4l-190 704h226l78 -349l91 351h184l91 -351l78 349h223l-191 -704h-198l-97 329l-97 -329h-198zM293 734l104 135h174l104 -135h-126l-66 45l-66 -45h-124z" />
    <glyph glyph-name="wcircumflex" unicode="&#x175;" horiz-adv-x="767" 
d="M192 576l116 154h150l116 -154h-117l-75 51l-75 -51h-115zM143 -4l-144 550h203l46 -231l53 233h165l54 -235l48 233h200l-145 -550h-178l-62 230l-63 -230h-177z" />
    <glyph glyph-name="Ycircumflex" unicode="&#x176;" horiz-adv-x="635" 
d="M209 0v247l-222 453h236l96 -230l97 230h232l-223 -451v-249h-216zM126 734l104 135h174l104 -135h-126l-66 45l-66 -45h-124z" />
    <glyph glyph-name="ycircumflex" unicode="&#x177;" horiz-adv-x="572" 
d="M291 263l71 283h212l-166 -508q-34 -103 -82 -147.5t-133 -44.5q-86 0 -171 44l50 146q50 -27 79 -27q20 0 32 8l-184 529h216zM100 576l116 154h150l116 -154h-117l-75 51l-75 -51h-115z" />
    <glyph glyph-name="Ydieresis" unicode="&#x178;" horiz-adv-x="635" 
d="M209 0v247l-222 453h236l96 -230l97 230h232l-223 -451v-249h-216zM335 734v138h164v-138h-164zM135 734v138h164v-138h-164z" />
    <glyph glyph-name="Zacute" unicode="&#x179;" horiz-adv-x="587" 
d="M16 0v158l264 358h-255v184h547v-158l-264 -358h264v-184h-556zM222 734l84 148l212 -45l-145 -103h-151z" />
    <glyph glyph-name="zacute" unicode="&#x17a;" horiz-adv-x="493" 
d="M178 576l87 172l199 -50l-151 -122h-135zM14 0v137l194 242h-188v167h461v-137l-194 -242h194v-167h-467z" />
    <glyph glyph-name="Zdotaccent" unicode="&#x17b;" horiz-adv-x="587" 
d="M215 734v138h172v-138h-172zM16 0v158l264 358h-255v184h547v-158l-264 -358h264v-184h-556z" />
    <glyph glyph-name="zdotaccent" unicode="&#x17c;" horiz-adv-x="493" 
d="M14 0v137l194 242h-188v167h461v-137l-194 -242h194v-167h-467zM171 576v142h168v-142h-168z" />
    <glyph glyph-name="Zcaron" unicode="&#x17d;" horiz-adv-x="587" 
d="M493 869l-104 -135h-174l-104 135h125l67 -44l66 44h124zM16 0v158l264 358h-255v184h547v-158l-264 -358h264v-184h-556z" />
    <glyph glyph-name="zcaron" unicode="&#x17e;" horiz-adv-x="493" 
d="M446 730l-116 -154h-150l-116 154h117l75 -50l75 50h115zM14 0v137l194 242h-188v167h461v-137l-194 -242h194v-167h-467z" />
    <glyph glyph-name="Aringacute" unicode="&#x1fa;" horiz-adv-x="691" 
d="M-10 0l232 678q-17 29 -17 64q0 54 40 90t100 36q61 0 101.5 -36t40.5 -90q0 -35 -18 -64l232 -678h-229l-30 100h-198l-29 -100h-225zM266 887l88 143l208 -47l-154 -96h-142zM345 676q31 0 51 18.5t20 46.5t-20 47t-51 19q-30 0 -50 -19t-20 -47t19.5 -46.5t50.5 -18.5
zM291 260h105l-53 182z" />
    <glyph glyph-name="aringacute" unicode="&#x1fb;" horiz-adv-x="540" 
d="M196 863l94 150l195 -46l-152 -104h-137zM169 -12q-71 0 -114.5 43.5t-43.5 122.5v7q0 83 49 127t134 44q68 0 112 -20v9q0 74 -88 74q-63 0 -131 -30l-43 150q97 40 212 40q139 0 203 -64q56 -56 56 -167v-324h-210v52q-54 -64 -136 -64zM251 115q25 0 40.5 19.5
t15.5 54.5v36q-18 9 -43 9q-27 0 -42 -17t-15 -43v-6q0 -24 12.5 -38.5t31.5 -14.5zM274 586q-54 0 -91.5 36.5t-37.5 88.5t37.5 88t91.5 36t91.5 -36t37.5 -88t-37.5 -88.5t-91.5 -36.5zM274 646q26 0 44 18.5t18 46.5t-18 46.5t-44 18.5t-44 -18.5t-18 -46.5t18 -46.5
t44 -18.5z" />
    <glyph glyph-name="AEacute" unicode="&#x1fc;" horiz-adv-x="931" 
d="M447 734l84 148l212 -45l-145 -103h-151zM-17 0l294 700h629v-184h-286v-80h264v-168h-264v-84h291v-184h-501v100h-174l-38 -100h-215zM299 260h111v260h-8z" />
    <glyph glyph-name="aeacute" unicode="&#x1fd;" horiz-adv-x="825" 
d="M189 -12q-77 0 -127.5 42.5t-50.5 124.5v8q0 82 49 125.5t134 43.5q68 0 112 -20v9q0 74 -88 74q-63 0 -133 -31l-41 153q100 38 211 38q103 0 163 -49q59 53 145 53q118 0 182.5 -80t64.5 -212v-53h-309q19 -68 93 -68q56 0 108 49l95 -114q-91 -94 -222 -94
q-127 0 -200 81q-85 -80 -186 -80zM332 576l87 172l199 -50l-151 -122h-135zM256 117q35 0 67 38q-12 33 -15 70q-23 9 -44 9q-27 0 -42 -17t-15 -43v-6q0 -24 13.5 -37.5t35.5 -13.5zM498 317h121q-6 89 -62 89q-52 0 -59 -89z" />
    <glyph glyph-name="Oslashacute" unicode="&#x1fe;" horiz-adv-x="704" 
d="M564 705h123l-83 -106q80 -99 80 -239v-18q0 -157 -94 -257t-239 -100q-101 0 -180 51l-31 -41h-124l83 106q-79 96 -79 239v18q0 157 93.5 257t238.5 100q100 0 180 -52zM272 743l84 148l212 -45l-145 -103h-151zM353 173q54 0 85.5 44.5t31.5 124.5v15q0 36 -8 68
l-172 -232q28 -20 63 -20zM234 343q0 -40 7 -68l172 232q-28 20 -62 20q-54 0 -85.5 -45t-31.5 -124v-15z" />
    <glyph glyph-name="oslashacute" unicode="&#x1ff;" horiz-adv-x="576" 
d="M460 550h113l-73 -88q61 -75 61 -179v-18q0 -121 -77 -199.5t-197 -78.5q-83 0 -146 40l-25 -31h-113l73 87q-61 74 -61 180v18q0 121 77 199.5t197 78.5q80 0 146 -40zM211 584l87 172l199 -50l-151 -122h-135zM210 266q0 -19 1 -28l113 144q-18 10 -37 10
q-35 0 -56 -30.5t-21 -80.5v-15zM289 154q35 0 56 30.5t21 80.5v15q0 9 -2 25l-111 -142q17 -9 36 -9z" />
    <glyph glyph-name="Scommaaccent" unicode="&#x218;" horiz-adv-x="582" 
d="M209 -296l-8 60q42 5 58.5 18t15.5 36h-69v138h166v-111q0 -71 -41.5 -103t-121.5 -38zM294 -12q-185 0 -310 103l104 155q102 -78 208 -78q54 0 54 33v2q0 16 -18 27t-67 25q-60 18 -99 34.5t-76 42.5t-55 63t-18 85v4q0 101 72.5 164.5t196.5 63.5q163 0 274 -86
l-101 -157q-87 63 -176 63q-23 0 -35.5 -9t-12.5 -22v-2q0 -16 19 -27t71 -28q120 -33 182 -83t62 -140v-3q0 -105 -75.5 -167.5t-199.5 -62.5z" />
    <glyph glyph-name="scommaaccent" unicode="&#x219;" horiz-adv-x="468" 
d="M157 -295l-8 60q42 5 58.5 18t15.5 36h-69v138h166v-111q0 -71 -41.5 -103t-121.5 -38zM239 -13q-137 0 -245 72l70 136q91 -59 171 -59q31 0 31 19v1q0 9 -12 16.5t-48 19.5q-98 31 -143.5 68.5t-45.5 111.5v2q0 86 59.5 135.5t158.5 49.5q124 0 218 -58l-69 -137
q-80 46 -144 46q-31 0 -31 -18v-2q0 -9 13 -16t50 -19q97 -32 141.5 -70.5t44.5 -107.5v-2q0 -87 -58.5 -137.5t-160.5 -50.5z" />
    <glyph glyph-name="schwa" unicode="&#x259;" horiz-adv-x="538" 
d="M249 559q124 0 198.5 -74.5t74.5 -203.5v-13q0 -125 -71.5 -203t-183.5 -78q-122 0 -187.5 79.5t-65.5 212.5v53h309q-21 68 -93 68q-56 0 -108 -49l-96 114q92 94 223 94zM326 229h-121q6 -89 62 -89q50 0 59 89z" />
    <glyph glyph-name="circumflex" unicode="&#x2c6;" 
d="M59 576l116 154h150l116 -154h-117l-75 51l-75 -51h-115z" />
    <glyph glyph-name="caron" unicode="&#x2c7;" 
d="M441 730l-116 -154h-150l-116 154h117l75 -50l75 50h115z" />
    <glyph glyph-name="breve" unicode="&#x2d8;" 
d="M250 574q-78 0 -126.5 40.5t-55.5 115.5h110q16 -50 72 -50t72 50h110q-7 -75 -55.5 -115.5t-126.5 -40.5z" />
    <glyph glyph-name="dotaccent" unicode="&#x2d9;" 
d="M166 576v142h168v-142h-168z" />
    <glyph glyph-name="ring" unicode="&#x2da;" 
d="M250 578q-54 0 -91.5 36.5t-37.5 88.5t37.5 88t91.5 36t91.5 -36t37.5 -88t-37.5 -88.5t-91.5 -36.5zM250 638q26 0 44 18.5t18 46.5t-18 46.5t-44 18.5t-44 -18.5t-18 -46.5t18 -46.5t44 -18.5z" />
    <glyph glyph-name="ogonek" unicode="&#x2db;" 
d="M376 -63v-93q-32 -4 -71 -4q-72 0 -113.5 21t-41.5 58q0 50 65 99l124 -4q-29 -30 -29 -49q0 -15 14.5 -21t51.5 -7z" />
    <glyph glyph-name="tilde" unicode="&#x2dc;" 
d="M336 575q-28 0 -85 19q-49 17 -63 17q-16 0 -24.5 -9t-15.5 -31l-92 21q10 77 36.5 112t71.5 35q28 0 85 -19q49 -17 63 -17q16 0 24 8.5t16 31.5l92 -20q-10 -77 -36.5 -112.5t-71.5 -35.5z" />
    <glyph glyph-name="hungarumlaut" unicode="&#x2dd;" 
d="M37 576l81 172l155 -43l20 43l179 -49l-141 -123h-119l39 83l-95 -83h-119z" />
    <glyph glyph-name="commaaccent" unicode="&#x326;" 
d="M170 -287l-8 60q42 5 58.5 18t15.5 36h-69v138h166v-111q0 -71 -41.5 -103t-121.5 -38z" />
    <glyph glyph-name="Wgrave" unicode="&#x1e80;" horiz-adv-x="968" 
d="M562 734h-151l-145 103l212 45zM189 -4l-190 704h226l78 -349l91 351h184l91 -351l78 349h223l-191 -704h-198l-97 329l-97 -329h-198z" />
    <glyph glyph-name="wgrave" unicode="&#x1e81;" horiz-adv-x="767" 
d="M143 -4l-144 550h203l46 -231l53 233h165l54 -235l48 233h200l-145 -550h-178l-62 230l-63 -230h-177zM324 576l-151 122l199 50l87 -172h-135z" />
    <glyph glyph-name="Wacute" unicode="&#x1e82;" horiz-adv-x="968" 
d="M404 734l84 148l212 -45l-145 -103h-151zM189 -4l-190 704h226l78 -349l91 351h184l91 -351l78 349h223l-191 -704h-198l-97 329l-97 -329h-198z" />
    <glyph glyph-name="wacute" unicode="&#x1e83;" horiz-adv-x="767" 
d="M306 576l87 172l199 -50l-151 -122h-135zM143 -4l-144 550h203l46 -231l53 233h165l54 -235l48 233h200l-145 -550h-178l-62 230l-63 -230h-177z" />
    <glyph glyph-name="Wdieresis" unicode="&#x1e84;" horiz-adv-x="968" 
d="M501 734v138h164v-138h-164zM301 734v138h164v-138h-164zM189 -4l-190 704h226l78 -349l91 351h184l91 -351l78 349h223l-191 -704h-198l-97 329l-97 -329h-198z" />
    <glyph glyph-name="wdieresis" unicode="&#x1e85;" horiz-adv-x="767" 
d="M399 576v142h158v-142h-158zM209 576v142h158v-142h-158zM143 -4l-144 550h203l46 -231l53 233h165l54 -235l48 233h200l-145 -550h-178l-62 230l-63 -230h-177z" />
    <glyph glyph-name="Ygrave" unicode="&#x1ef2;" horiz-adv-x="635" 
d="M209 0v247l-222 453h236l96 -230l97 230h232l-223 -451v-249h-216zM396 734h-151l-145 103l212 45z" />
    <glyph glyph-name="ygrave" unicode="&#x1ef3;" horiz-adv-x="572" 
d="M291 263l71 283h212l-166 -508q-34 -103 -82 -147.5t-133 -44.5q-86 0 -171 44l50 146q50 -27 79 -27q20 0 32 8l-184 529h216zM233 576l-151 122l199 50l87 -172h-135z" />
    <glyph glyph-name="enspace" unicode="&#x2002;" 
 />
    <glyph glyph-name="emspace" unicode="&#x2003;" horiz-adv-x="1000" 
 />
    <glyph glyph-name="threeperemspace" unicode="&#x2004;" horiz-adv-x="333" 
 />
    <glyph glyph-name="fourperemspace" unicode="&#x2005;" horiz-adv-x="250" 
 />
    <glyph glyph-name="thinspace" unicode="&#x2009;" horiz-adv-x="122" 
 />
    <glyph glyph-name="hairspace" unicode="&#x200a;" horiz-adv-x="67" 
 />
    <glyph glyph-name="endash" unicode="&#x2013;" horiz-adv-x="499" 
d="M25 228v174h450v-174h-450z" />
    <glyph glyph-name="emdash" unicode="&#x2014;" horiz-adv-x="824" 
d="M25 228v174h774v-174h-774z" />
    <glyph glyph-name="quoteleft" unicode="&#x2018;" horiz-adv-x="259" 
d="M20 330v172q0 103 54.5 149.5t153.5 53.5l17 -77q-97 -16 -100 -83h91v-215h-216z" />
    <glyph glyph-name="quoteright" unicode="&#x2019;" horiz-adv-x="259" 
d="M31 325l-17 78q98 15 100 82h-91v215h216v-172q0 -103 -54.5 -149t-153.5 -54z" />
    <glyph glyph-name="quotesinglbase" unicode="&#x201a;" horiz-adv-x="259" 
d="M30 -160l-17 78q97 15 100 82h-91v215h216v-172q0 -103 -54.5 -149t-153.5 -54z" />
    <glyph glyph-name="quotedblleft" unicode="&#x201c;" horiz-adv-x="506" 
d="M273 330v172q0 101 52.5 148.5t148.5 54.5l17 -77q-94 -16 -96 -83h87v-215h-209zM20 330v172q0 102 53 149t149 54l17 -77q-94 -16 -97 -83h88v-215h-210z" />
    <glyph glyph-name="quotedblright" unicode="&#x201d;" horiz-adv-x="506" 
d="M284 325l-17 78q94 15 96 82h-87v215h209v-172q0 -101 -52.5 -148t-148.5 -55zM31 325l-17 78q94 15 96 82h-87v215h209v-172q0 -101 -52.5 -148t-148.5 -55z" />
    <glyph glyph-name="quotedblbase" unicode="&#x201e;" horiz-adv-x="505" 
d="M282 -160l-17 78q94 14 97 82h-88v215h210v-172q0 -101 -52.5 -148t-149.5 -55zM30 -160l-17 78q94 15 96 82h-87v215h209v-172q0 -101 -52.5 -148t-148.5 -55z" />
    <glyph glyph-name="dagger" unicode="&#x2020;" horiz-adv-x="368" 
d="M127 218l12 264l-114 -13v121l113 -13l-18 123h128l-18 -123l113 13v-121l-114 13l11 -264h-113z" />
    <glyph glyph-name="daggerdbl" unicode="&#x2021;" horiz-adv-x="384" 
d="M128 0l18 123l-112 -13v121l115 -13l-18 132l18 132l-115 -13v121l112 -13l-18 123h129l-18 -123l112 13v-121l-115 13l17 -132l-17 -132l115 13v-121l-112 13l18 -123h-129z" />
    <glyph glyph-name="bullet" unicode="&#x2022;" horiz-adv-x="460" 
d="M230 163q-72 0 -121 52.5t-49 132.5v9q0 80 49 132.5t121 52.5t121 -52.5t49 -132.5v-9q0 -80 -49 -132.5t-121 -52.5z" />
    <glyph glyph-name="ellipsis" unicode="&#x2026;" horiz-adv-x="774" 
d="M539 0v214h213v-214h-213zM280 0v214h214v-214h-214zM22 0v214h213v-214h-213z" />
    <glyph glyph-name="perthousand" unicode="&#x2030;" horiz-adv-x="1185" 
d="M190 428q19 0 30.5 20.5t11.5 57.5v9q0 37 -11.5 57.5t-30.5 20.5q-43 0 -43 -78v-9q0 -37 12 -57.5t31 -20.5zM190 311q-75 0 -122 54.5t-47 141.5v7q0 87 46.5 141.5t122.5 54.5q75 0 121.5 -54.5t46.5 -141.5v-7q0 -87 -47 -141.5t-121 -54.5zM723 700l-275 -382
l-217 -318h-131l271 376l221 324h131zM632 107q19 0 31 20.5t12 57.5v9q0 37 -11.5 57.5t-31.5 20.5q-42 0 -42 -78v-9q0 -37 11.5 -57.5t30.5 -20.5zM632 -10q-74 0 -121 54.5t-47 141.5v7q0 87 46.5 141.5t121.5 54.5q76 0 122.5 -54.5t46.5 -141.5v-7q0 -87 -47 -141.5
t-122 -54.5zM995 107q19 0 30.5 20.5t11.5 57.5v9q0 37 -11.5 57.5t-30.5 20.5q-43 0 -43 -78v-9q0 -37 12 -57.5t31 -20.5zM995 -10q-75 0 -122 54.5t-47 141.5v7q0 87 46.5 141.5t122.5 54.5q75 0 121.5 -54.5t46.5 -141.5v-7q0 -87 -47 -141.5t-121 -54.5z" />
    <glyph glyph-name="guilsinglleft" unicode="&#x2039;" horiz-adv-x="306" 
d="M164 30l-148 204v71l148 205l130 -61l-104 -179l104 -179z" />
    <glyph glyph-name="guilsinglright" unicode="&#x203a;" horiz-adv-x="306" 
d="M142 30l-130 61l103 178l-103 179l130 61l148 -204v-71z" />
    <glyph glyph-name="Euro" unicode="&#x20ac;" horiz-adv-x="569" 
d="M572 635l-106 -146q-39 39 -88 39q-61 0 -85 -53h123v-106h-141v-5v-27v-3h141v-105h-126q24 -57 90 -57q51 0 91 42l102 -145q-84 -83 -212 -83q-111 0 -185.5 64t-94.5 174h-61v110h53v31v5h-53v109h64q21 106 98 170.5t187 64.5q121 0 203 -79z" />
    <glyph glyph-name="published" unicode="&#x2117;" horiz-adv-x="726" 
d="M362 -15q-138 0 -230 102.5t-92 255.5v13q0 153 92.5 256t230.5 103t230.5 -102.5t92.5 -255.5v-13q0 -153 -93 -256t-231 -103zM362 24q123 0 203 91.5t80 228.5v13q0 137 -79.5 228t-202.5 91t-203 -91.5t-80 -228.5v-13q0 -137 79.5 -228t202.5 -91zM226 157v396h149
q76 0 120 -35.5t44 -104.5v-4q0 -69 -45.5 -105.5t-116.5 -36.5h-30v-110h-121zM347 359h24q22 0 35 12t13 34v2q0 47 -47 47h-25v-95z" />
    <glyph glyph-name="servicemark" unicode="&#x2120;" horiz-adv-x="619" 
d="M285 390v310h98l57 -102l56 102h99v-310h-96v150l-59 -101h-1l-60 101v-150h-94zM140 385q-83 0 -138 44l43 70q47 -34 96 -34q23 0 23 15q0 13 -38 23q-55 17 -82.5 37.5t-27.5 61.5q0 45 32 74.5t88 29.5q71 0 121 -37l-41 -72q-41 28 -81 28q-22 0 -22 -14
q0 -11 37 -23q58 -16 85 -37.5t27 -61.5q0 -48 -33.5 -76t-88.5 -28z" />
    <glyph glyph-name="trademark" unicode="&#x2122;" horiz-adv-x="618" 
d="M284 390v310h97l57 -102l57 102h98v-310h-95v150l-59 -101h-2l-59 101v-150h-94zM84 390v224h-77v86h250v-86h-77v-224h-96z" />
    <glyph glyph-name="minus" unicode="&#x2212;" horiz-adv-x="574" 
d="M536 261h-498v182h498v-182z" />
    <glyph glyph-name="Q.alt" horiz-adv-x="704" 
d="M484 -73l-59 68q-38 -8 -75 -8q-144 0 -237 99t-93 255v17q0 157 93.5 257t238.5 100t238.5 -99t93.5 -256v-18q0 -144 -83 -241l147 -172v-2h-264zM352 177q53 0 83 43t30 121v16q0 78 -30.5 121.5t-83.5 43.5q-52 0 -82.5 -43.5t-30.5 -120.5v-16q0 -77 31 -121t83 -44
z" />
    <glyph glyph-name="a.alt" horiz-adv-x="598" 
d="M217 -13q-87 0 -143.5 72t-56.5 202v20q0 132 56.5 205t141.5 73q86 0 145 -75v62h210v-546h-210v65q-31 -38 -62.5 -58t-80.5 -20zM293 163q32 0 51.5 28t19.5 75v14q0 47 -19.5 75t-51.5 28t-51.5 -28t-19.5 -75v-14q0 -47 19.5 -75t51.5 -28z" />
    <glyph glyph-name="aacute.alt" horiz-adv-x="598" 
d="M234 584l87 172l199 -50l-151 -122h-135zM217 -13q-87 0 -143.5 72t-56.5 202v20q0 132 56.5 205t141.5 73q86 0 145 -75v62h210v-546h-210v65q-31 -38 -62.5 -58t-80.5 -20zM293 163q32 0 51.5 28t19.5 75v14q0 47 -19.5 75t-51.5 28t-51.5 -28t-19.5 -75v-14
q0 -47 19.5 -75t51.5 -28z" />
    <glyph glyph-name="abreve.alt" horiz-adv-x="598" 
d="M217 -13q-87 0 -143.5 72t-56.5 202v20q0 132 56.5 205t141.5 73q86 0 145 -75v62h210v-546h-210v65q-31 -38 -62.5 -58t-80.5 -20zM293 163q32 0 51.5 28t19.5 75v14q0 47 -19.5 75t-51.5 28t-51.5 -28t-19.5 -75v-14q0 -47 19.5 -75t51.5 -28zM310 582
q-78 0 -126.5 40.5t-55.5 115.5h110q16 -50 72 -50t72 50h110q-7 -75 -55.5 -115.5t-126.5 -40.5z" />
    <glyph glyph-name="acircumflex.alt" horiz-adv-x="598" 
d="M119 584l116 154h150l116 -154h-117l-75 51l-75 -51h-115zM217 -13q-87 0 -143.5 72t-56.5 202v20q0 132 56.5 205t141.5 73q86 0 145 -75v62h210v-546h-210v65q-31 -38 -62.5 -58t-80.5 -20zM293 163q32 0 51.5 28t19.5 75v14q0 47 -19.5 75t-51.5 28t-51.5 -28
t-19.5 -75v-14q0 -47 19.5 -75t51.5 -28z" />
    <glyph glyph-name="adieresis.alt" horiz-adv-x="598" 
d="M326 584v142h158v-142h-158zM136 584v142h158v-142h-158zM217 -13q-87 0 -143.5 72t-56.5 202v20q0 132 56.5 205t141.5 73q86 0 145 -75v62h210v-546h-210v65q-31 -38 -62.5 -58t-80.5 -20zM293 163q32 0 51.5 28t19.5 75v14q0 47 -19.5 75t-51.5 28t-51.5 -28
t-19.5 -75v-14q0 -47 19.5 -75t51.5 -28z" />
    <glyph glyph-name="agrave.alt" horiz-adv-x="598" 
d="M217 -13q-87 0 -143.5 72t-56.5 202v20q0 132 56.5 205t141.5 73q86 0 145 -75v62h210v-546h-210v65q-31 -38 -62.5 -58t-80.5 -20zM293 163q32 0 51.5 28t19.5 75v14q0 47 -19.5 75t-51.5 28t-51.5 -28t-19.5 -75v-14q0 -47 19.5 -75t51.5 -28zM252 584l-151 122l199 50
l87 -172h-135z" />
    <glyph glyph-name="amacron.alt" horiz-adv-x="598" 
d="M217 -13q-87 0 -143.5 72t-56.5 202v20q0 132 56.5 205t141.5 73q86 0 145 -75v62h210v-546h-210v65q-31 -38 -62.5 -58t-80.5 -20zM293 163q32 0 51.5 28t19.5 75v14q0 47 -19.5 75t-51.5 28t-51.5 -28t-19.5 -75v-14q0 -47 19.5 -75t51.5 -28zM135 592v116h350v-116
h-350z" />
    <glyph glyph-name="aogonek.alt" horiz-adv-x="598" 
d="M578 -63v-93q-32 -4 -71 -4q-72 0 -113.5 21t-41.5 58q0 41 43 81h-35v65q-31 -38 -62.5 -58t-80.5 -20q-87 0 -143.5 72t-56.5 202v20q0 132 56.5 205t141.5 73q86 0 145 -75v62h210v-546h-42q-16 -20 -16 -35t14.5 -21t51.5 -7zM293 163q32 0 51.5 28t19.5 75v14
q0 47 -19.5 75t-51.5 28t-51.5 -28t-19.5 -75v-14q0 -47 19.5 -75t51.5 -28z" />
    <glyph glyph-name="aring.alt" horiz-adv-x="598" 
d="M310 586q-54 0 -91.5 36.5t-37.5 88.5t37.5 88t91.5 36t91.5 -36t37.5 -88t-37.5 -88.5t-91.5 -36.5zM310 646q26 0 44 18.5t18 46.5t-18 46.5t-44 18.5t-44 -18.5t-18 -46.5t18 -46.5t44 -18.5zM217 -13q-87 0 -143.5 72t-56.5 202v20q0 132 56.5 205t141.5 73
q86 0 145 -75v62h210v-546h-210v65q-31 -38 -62.5 -58t-80.5 -20zM293 163q32 0 51.5 28t19.5 75v14q0 47 -19.5 75t-51.5 28t-51.5 -28t-19.5 -75v-14q0 -47 19.5 -75t51.5 -28z" />
    <glyph glyph-name="aring.alt2" horiz-adv-x="540" 
d="M169 -12q-71 0 -114.5 43.5t-43.5 122.5v7q0 83 49 127t134 44q68 0 112 -20v9q0 74 -88 74q-63 0 -131 -30l-43 150q62 25 124 33q-23 33 -23 72q0 52 37.5 88t91.5 36t91.5 -36t37.5 -88q0 -46 -29 -80q52 -16 85 -49q56 -56 56 -167v-324h-210v52q-54 -64 -136 -64z
M251 115q25 0 40.5 19.5t15.5 54.5v36q-18 9 -43 9q-27 0 -42 -17t-15 -43v-6q0 -24 12.5 -38.5t31.5 -14.5zM274 555q26 0 44 18.5t18 46.5t-18 46.5t-44 18.5t-44 -18.5t-18 -46.5t18 -46.5t44 -18.5z" />
    <glyph glyph-name="aringacute.alt" horiz-adv-x="598" 
d="M232 863l95 150l195 -46l-153 -104h-137zM310 586q-54 0 -91.5 36.5t-37.5 88.5t37.5 88t91.5 36t91.5 -36t37.5 -88t-37.5 -88.5t-91.5 -36.5zM310 646q26 0 44 18.5t18 46.5t-18 46.5t-44 18.5t-44 -18.5t-18 -46.5t18 -46.5t44 -18.5zM217 -13q-87 0 -143.5 72
t-56.5 202v20q0 132 56.5 205t141.5 73q86 0 145 -75v62h210v-546h-210v65q-31 -38 -62.5 -58t-80.5 -20zM293 163q32 0 51.5 28t19.5 75v14q0 47 -19.5 75t-51.5 28t-51.5 -28t-19.5 -75v-14q0 -47 19.5 -75t51.5 -28z" />
    <glyph glyph-name="aringacute.alt2" horiz-adv-x="540" 
d="M196 772l94 149l195 -45l-152 -104h-137zM169 -12q-71 0 -114.5 43.5t-43.5 122.5v7q0 83 49 127t134 44q68 0 112 -20v9q0 74 -88 74q-63 0 -131 -30l-43 150q62 25 124 33q-23 33 -23 72q0 52 37.5 88t91.5 36t91.5 -36t37.5 -88q0 -46 -29 -80q52 -16 85 -49
q56 -56 56 -167v-324h-210v52q-54 -64 -136 -64zM251 115q25 0 40.5 19.5t15.5 54.5v36q-18 9 -43 9q-27 0 -42 -17t-15 -43v-6q0 -24 12.5 -38.5t31.5 -14.5zM274 555q26 0 44 18.5t18 46.5t-18 46.5t-44 18.5t-44 -18.5t-18 -46.5t18 -46.5t44 -18.5z" />
    <glyph glyph-name="atilde.alt" horiz-adv-x="598" 
d="M217 -13q-87 0 -143.5 72t-56.5 202v20q0 132 56.5 205t141.5 73q86 0 145 -75v62h210v-546h-210v65q-31 -38 -62.5 -58t-80.5 -20zM293 163q32 0 51.5 28t19.5 75v14q0 47 -19.5 75t-51.5 28t-51.5 -28t-19.5 -75v-14q0 -47 19.5 -75t51.5 -28zM398 583q-28 0 -85 19
q-49 17 -63 17q-16 0 -24.5 -9t-15.5 -31l-92 21q10 77 36.5 112t71.5 35q28 0 85 -19q49 -17 63 -17q16 0 24 8.5t16 31.5l92 -20q-10 -77 -36.5 -112.5t-71.5 -35.5z" />
    <glyph glyph-name="three.alt" horiz-adv-x="545" 
d="M269 -14q-162 0 -273 99l107 148q74 -64 147 -64q34 0 54.5 15.5t20.5 37.5v2q0 50 -92 50h-61v159h56q89 0 89 50v2q0 21 -18.5 34t-49.5 13q-61 0 -129 -59l-100 141q104 100 258 100q111 0 179 -51.5t68 -131.5v-4q0 -57 -30.5 -99.5t-80.5 -65.5q122 -42 122 -163v-4
q0 -92 -72.5 -150.5t-194.5 -58.5z" />
    <glyph glyph-name="registered.alt" horiz-adv-x="726" 
d="M362 -15q-138 0 -230 102.5t-92 255.5v13q0 153 92.5 256t230.5 103t230.5 -102.5t92.5 -255.5v-13q0 -153 -93 -256t-231 -103zM362 24q123 0 203 91.5t80 228.5v13q0 137 -79.5 228t-202.5 91t-203 -91.5t-80 -228.5v-13q0 -137 79.5 -228t202.5 -91zM211 160v397h161
q86 0 130 -42q35 -35 35 -95v-4q0 -78 -67 -115l78 -141h-135l-62 116h-19v-116h-121zM332 366h38q21 0 33 11t12 32v2q0 43 -45 43h-38v-88z" />
    <glyph glyph-name="NUL" horiz-adv-x="0" 
 />
    <glyph glyph-name="hfjslug" horiz-adv-x="694" 
d="M644 -200h-208l-8 14h-163l-8 -14h-207v303q14 0 23 9.5t9 22.5t-9.5 22.5t-22.5 9.5v554h100l30 79h334l29 -79h101v-921zM400 563v-172h15v78h38v14h-38v66h43v14h-58zM184 563v-172h15v79h47v-79h15v172h-15v-79h-47v79h-15zM460 394q10 -4 21 -4q31 0 31 36v137h-16
v-137q0 -22 -16 -22q-8 0 -20 5v-15zM371 465l-13 3q-4 -18 -8 -30h-1l-16 31q23 21 23 42q0 31 -27 31q-12 0 -20 -9t-8 -22t14 -39q-23 -18 -23 -47q0 -16 8 -26.5t21 -10.5q19 0 29 24h1l12 -24l12 6l-17 32q6 14 13 39zM523 323v-46h8v12l8 8l15 -20h10l-20 26l18 20
h-10l-20 -24h-1v24h-8zM488 292l10 -15h9l-12 17q10 4 10 14q0 15 -17 15h-20v-46h8v15h12zM426 276q10 0 17 7t7 17q0 9 -7 16.5t-17 7.5t-17 -7.5t-7 -16.5q0 -10 7 -17t17 -7zM370 301l-13 22h-9l18 -29v-17h8v17l18 29h-9zM193 323v-46h34v7h-26v13h23v7h-23v12h26v7
h-34zM132 323v-46h8v32l25 -32h7v46h-8v-32l-25 32h-7zM241 323l14 -47h8l11 34h1l11 -34h8l14 47h-8l-10 -35h-1l-11 35h-7l-11 -35h-1l-10 35h-8zM327 479q-12 22 -12 32q0 19 14 19q13 0 13 -19q0 -15 -15 -32zM342 423q-8 -21 -20 -21q-16 0 -16 25q0 19 16 35zM487 299
h-11v17h11q10 0 10 -8q0 -9 -10 -9zM426 283q-16 0 -16 17q0 6 4.5 11.5t11.5 5.5t11.5 -5.5t4.5 -11.5q0 -17 -16 -17z" />
    <glyph glyph-name="i.dot" horiz-adv-x="271" 
d="M28 582v143h216v-143h-216zM31 0v546h209v-546h-209z" />
    <glyph glyph-name="caron.alt" 
d="M185 574l10 198h133v-3l-61 -195h-82z" />
    <glyph glyph-name="acute.cap" 
d="M120 734l84 148l212 -45l-145 -103h-151z" />
    <glyph glyph-name="hungarumlaut.cap" 
d="M235 734l36 68l-89 -68h-132l77 148l165 -39l21 39l189 -44l-134 -104h-133z" />
    <glyph glyph-name="grave.cap" 
d="M383 734h-151l-145 103l212 45z" />
    <glyph glyph-name="circumflex.cap" 
d="M59 734l104 135h174l104 -135h-126l-66 45l-66 -45h-124z" />
    <glyph glyph-name="caron.cap" 
d="M441 869l-104 -135h-174l-104 135h125l67 -44l66 44h124z" />
    <glyph glyph-name="breve.cap" 
d="M250 732q-159 0 -180 137h114q16 -36 66 -36q49 0 66 36h113q-19 -137 -179 -137z" />
    <glyph glyph-name="tilde.cap" 
d="M340 732q-28 0 -92 20q-54 17 -65 17q-16 0 -24.5 -9t-15.5 -32l-93 21q20 147 110 147q32 0 92 -19q48 -17 64 -17q17 0 25.5 9t15.5 32l93 -21q-20 -148 -110 -148z" />
    <glyph glyph-name="macron.cap" 
d="M65 741v120h370v-120h-370z" />
    <glyph glyph-name="dieresis.cap" 
d="M268 734v138h164v-138h-164zM68 734v138h164v-138h-164z" />
    <glyph glyph-name="dotaccent.cap" 
d="M164 734v138h172v-138h-172z" />
    <glyph glyph-name="ring.cap" 
d="M250 736q-61 0 -101 36.5t-40 90.5q0 55 40 91t101 36t101 -36t40 -91q0 -54 -40 -90.5t-101 -36.5zM250 798q31 0 51 18.5t20 46.5t-20 47t-51 19t-51 -19t-20 -47t20 -46.5t51 -18.5z" />
    </font>
</defs>
</svg>
