<?xml version="1.0" standalone="no"?>
<!DOCTYPE svg PUBLIC "-//W3C//DTD SVG 1.1//EN" "http://www.w3.org/Graphics/SVG/1.1/DTD/svg11.dtd" >
<svg xmlns="http://www.w3.org/2000/svg" xmlns:xlink="http://www.w3.org/1999/xlink" version="1.1">
<metadata>
Created by FontForge 20161003 at Mon Jul 17 05:45:46 2017
 By www-data
Copyright (C) 2001, 2008 Hoefler &#38; Frere-Jones. http://www.typography.com
</metadata>
<defs>
<font id="GothamNarrowThin" horiz-adv-x="504" >
  <font-face 
    font-family="GothamNarrowThin"
    font-weight="250"
    font-stretch="condensed"
    units-per-em="1000"
    panose-1="0 0 0 0 0 0 0 0 0 0"
    ascent="800"
    descent="-200"
    x-height="508"
    cap-height="700"
    bbox="-17 -200 980 949"
    underline-thickness="50"
    underline-position="-150"
    unicode-range="U+0020-FB04"
  />
<missing-glyph 
d="M2 -200v1000h500v-1000h-500zM73 750l179 -390l179 390h-358zM52 -76l172 376l-172 376v-752zM452 676l-172 -376l172 -376v752zM252 240l-179 -390h358z" />
    <glyph glyph-name="f_f" unicode="ff" horiz-adv-x="562" 
d="M110 0v489h-70v19h70v71q0 79 37 114q31 31 84 31q28 0 53 -10v-20q-23 10 -53 10q-99 0 -99 -128v-68h149v-19h-149v-489h-22zM391 0v489h-71v19h71v71q0 79 37 114q30 31 83 31q29 0 54 -10v-20q-25 10 -54 10q-99 0 -99 -128v-68h150v-19h-150v-489h-21z" />
    <glyph glyph-name="fi" unicode="fi" horiz-adv-x="474" 
d="M110 0v489h-70v19h70v71q0 79 37 114q31 31 84 31q28 0 53 -10v-20q-23 10 -53 10q-99 0 -99 -128v-68h149v-19h-149v-489h-22zM367 0v508h21v-508h-21zM363 645v57h29v-57h-29z" />
    <glyph glyph-name="fl" unicode="fl" horiz-adv-x="474" 
d="M110 0v489h-70v19h70v71q0 79 37 114q31 31 84 31q28 0 53 -10v-20q-23 10 -53 10q-99 0 -99 -128v-68h149v-19h-149v-489h-22zM367 0v722h21v-722h-21z" />
    <glyph glyph-name="f_f_i" unicode="ffi" horiz-adv-x="754" 
d="M110 0v489h-70v19h70v71q0 79 37 114q31 31 84 31q28 0 53 -10v-20q-23 10 -53 10q-99 0 -99 -128v-68h149v-19h-149v-489h-22zM391 0v489h-71v19h71v71q0 79 37 114q30 31 83 31q29 0 54 -10v-20q-25 10 -54 10q-99 0 -99 -128v-68h150v-19h-150v-489h-21zM647 0v508h21
v-508h-21zM643 645v57h29v-57h-29z" />
    <glyph glyph-name="f_f_l" unicode="ffl" horiz-adv-x="754" 
d="M110 0v489h-70v19h70v71q0 79 37 114q31 31 84 31q28 0 53 -10v-20q-23 10 -53 10q-99 0 -99 -128v-68h149v-19h-149v-489h-22zM391 0v489h-71v19h71v71q0 79 37 114q30 31 83 31q29 0 54 -10v-20q-25 10 -54 10q-99 0 -99 -128v-68h150v-19h-150v-489h-21zM647 0v722h21
v-722h-21z" />
    <glyph glyph-name=".notdef" 
d="M2 -200v1000h500v-1000h-500zM73 750l179 -390l179 390h-358zM52 -76l172 376l-172 376v-752zM452 676l-172 -376l172 -376v752zM252 240l-179 -390h358z" />
    <glyph glyph-name=".null" horiz-adv-x="0" 
 />
    <glyph glyph-name="nonmarkingreturn" horiz-adv-x="333" 
 />
    <glyph glyph-name="space" unicode=" " horiz-adv-x="230" 
 />
    <glyph glyph-name="exclam" unicode="!" horiz-adv-x="178" 
d="M84 183l-6 421v96h22v-96l-6 -421h-10zM72 0v52h34v-52h-34z" />
    <glyph glyph-name="quotedbl" unicode="&#x22;" horiz-adv-x="276" 
d="M177 450l24 250h25v-4l-37 -246h-12zM57 450l23 250h25v-4l-36 -246h-12z" />
    <glyph glyph-name="numbersign" unicode="#" horiz-adv-x="569" 
d="M493 220v-19h-110l-28 -201h-20l28 201h-202l-28 -201h-19l28 201h-100v19h102l38 266h-107v19h109l28 195h19l-27 -195h202l28 195h19l-28 -195h101v-19h-103l-38 -266h108zM202 486l-38 -266h202l37 266h-201z" />
    <glyph glyph-name="dollar" unicode="$" horiz-adv-x="529" 
d="M449 630l-13 -16q-75 64 -162 68v-315q102 -35 147.5 -78t45.5 -110v-1q0 -77 -54 -128t-139 -52v-96h-19v97q-119 4 -205 95l15 15q80 -85 190 -92v336q-95 32 -138 72.5t-43 108.5v1q0 69 50 116t131 50v60h19v-60q99 -4 175 -71zM445 177q0 62 -39.5 99t-131.5 69
v-328q75 0 123 45t48 115zM96 534q0 -60 38 -95.5t121 -63.5v307q-71 -2 -115 -43.5t-44 -102.5v-2z" />
    <glyph glyph-name="percent" unicode="%" horiz-adv-x="697" 
d="M183 356q-60 0 -98 49.5t-38 124.5v4q0 73 38 123t98 50t97.5 -50t37.5 -123v-4q0 -75 -37.5 -124.5t-97.5 -49.5zM182 689q-50 0 -82 -44t-32 -111v-4q0 -66 32.5 -110.5t82.5 -44.5q51 0 82.5 43t31.5 111v4q0 67 -32 111.5t-83 44.5zM341 354l222 346h21l-229 -357
l-220 -343h-22zM515 -7q-60 0 -98 49.5t-38 123.5v4q0 74 38 124t98 50t97.5 -50t37.5 -124v-4q0 -74 -37.5 -123.5t-97.5 -49.5zM515 11q51 0 82.5 44t31.5 111v4q0 67 -32.5 111t-82.5 44t-82 -43.5t-32 -110.5v-4q0 -67 32.5 -111.5t82.5 -44.5z" />
    <glyph glyph-name="ampersand" unicode="&#x26;" horiz-adv-x="581" 
d="M535 -9l-102 124q-87 -124 -205 -124q-80 0 -131 52t-51 126v3q0 72 43.5 121t123.5 96q-86 105 -86 180v2q0 56 39.5 98t103.5 42q61 0 99 -41t38 -95v-2q0 -55 -37.5 -99t-125.5 -90l188 -234q44 72 79 192l20 -5q-36 -125 -86 -203l106 -131zM231 399q83 42 119 82.5
t36 91.5v2q0 46 -32.5 81t-83.5 35q-54 0 -88 -36t-34 -83v-2q0 -71 83 -171zM228 11q111 0 193 121l-195 241q-75 -42 -116.5 -88t-41.5 -112v-3q0 -66 44.5 -112.5t115.5 -46.5z" />
    <glyph glyph-name="quotesingle" unicode="'" horiz-adv-x="152" 
d="M57 450l23 250h25v-4l-36 -246h-12z" />
    <glyph glyph-name="parenleft" unicode="(" horiz-adv-x="337" 
d="M287 -133q-228 146 -228 421t228 421l11 -16q-106 -69 -161 -172.5t-55 -232.5t55 -232.5t161 -172.5z" />
    <glyph glyph-name="parenright" unicode=")" horiz-adv-x="337" 
d="M50 -133l-11 16q106 69 161 172.5t55 232.5t-55 232.5t-161 172.5l11 16q228 -146 228 -421t-228 -421z" />
    <glyph glyph-name="asterisk" unicode="*" horiz-adv-x="379" 
d="M178 414l6 135l-107 -70l-12 19l114 60l-115 61l12 19l108 -71l-6 135h22l-6 -135l108 71l12 -19l-115 -61l115 -60l-12 -19l-108 70l6 -135h-22z" />
    <glyph glyph-name="plus" unicode="+" horiz-adv-x="515" 
d="M248 144v199h-189v18h189v199h20v-199h188v-18h-188v-199h-20z" />
    <glyph glyph-name="comma" unicode="," horiz-adv-x="142" 
d="M52 -74l-7 13q26 13 25 61h-16v52h33v-49q0 -35 -8.5 -51.5t-26.5 -25.5z" />
    <glyph glyph-name="hyphen" unicode="-" horiz-adv-x="344" 
d="M61 287v20h222v-20h-222z" />
    <glyph glyph-name="period" unicode="." horiz-adv-x="143" 
d="M55 0v52h33v-52h-33z" />
    <glyph glyph-name="slash" unicode="/" horiz-adv-x="401" 
d="M-11 -118l388 906h22l-388 -906h-22z" />
    <glyph glyph-name="zero" unicode="0" horiz-adv-x="600" 
d="M300 -11q-110 0 -174.5 99.5t-64.5 257.5v7q0 158 64.5 258t174.5 100q111 0 175 -99.5t64 -258.5v-7q0 -158 -64 -257.5t-175 -99.5zM301 9q100 0 158 94.5t58 242.5v6q0 148 -59 243.5t-159 95.5t-158 -95t-58 -243v-6q0 -147 59 -242.5t159 -95.5z" />
    <glyph glyph-name="one" unicode="1" horiz-adv-x="274" 
d="M148 0v678l-113 -54l-6 20l122 60h18v-704h-21z" />
    <glyph glyph-name="two" unicode="2" horiz-adv-x="489" 
d="M36 0v13l269 320q60 70 81.5 116t21.5 90q0 65 -44.5 108t-113.5 43q-116 0 -180 -117l-18 11q69 126 198 126q80 0 130 -48.5t50 -120.5v-2q0 -50 -23 -98t-89 -125l-249 -296h369v-20h-402z" />
    <glyph glyph-name="three" unicode="3" horiz-adv-x="460" 
d="M213 -9q-119 0 -199 94l17 15q71 -89 183 -89q75 0 128 49t53 124v2q0 84 -60 127.5t-163 46.5h-17l-4 14l230 306h-340v20h367v-16l-229 -305q109 -4 173.5 -52t64.5 -140v-2q0 -85 -59 -139.5t-145 -54.5z" />
    <glyph glyph-name="four" unicode="4" horiz-adv-x="527" 
d="M383 0v178h-347l-4 14l353 513h18v-507h95v-20h-95v-178h-20zM60 198h323v468z" />
    <glyph glyph-name="five" unicode="5" horiz-adv-x="502" 
d="M239 -10q-55 0 -105 24.5t-83 61.5l16 15q73 -81 173 -81q83 0 136.5 55.5t53.5 143.5v2q0 85 -53 133.5t-131 48.5t-149 -37l-14 7l19 337h314v-20h-295l-16 -298q67 32 143 32q88 0 146 -54.5t58 -147.5v-2q0 -97 -59.5 -158.5t-153.5 -61.5z" />
    <glyph glyph-name="six" unicode="6" horiz-adv-x="536" 
d="M281 -11q-85 0 -142 57q-77 79 -77 270v11q0 176 63.5 279.5t178.5 103.5q85 0 153 -62l-14 -17q-62 59 -140 59q-103 0 -161 -99t-58 -264v-61q14 75 70.5 118t124.5 43q89 0 147.5 -57.5t58.5 -152.5v-3q0 -94 -58 -159.5t-146 -65.5zM281 9q78 0 130 60.5t52 143.5v3
q0 88 -52.5 139.5t-132.5 51.5q-74 0 -128 -53t-54 -137v-3q0 -84 53 -144.5t132 -60.5z" />
    <glyph glyph-name="seven" unicode="7" horiz-adv-x="456" 
d="M118 0l285 680h-357v20h381v-14l-286 -686h-23z" />
    <glyph glyph-name="eight" unicode="8" horiz-adv-x="530" 
d="M265 -10q-97 0 -156.5 53t-59.5 135v3q0 68 43.5 116t111.5 64q-59 17 -95.5 61.5t-36.5 106.5v2q0 79 55.5 129t137.5 50t137.5 -50t55.5 -129v-2q0 -62 -36.5 -106.5t-95.5 -61.5q68 -17 111.5 -65t43.5 -115v-3q0 -82 -59.5 -135t-156.5 -53zM266 371q73 0 122 45.5
t49 111.5v2q0 70 -49.5 115t-122.5 45q-74 0 -123 -44t-49 -114v-3q0 -66 50.5 -112t122.5 -46zM266 10q87 0 140.5 47.5t53.5 120.5v2q0 73 -56.5 122t-138.5 49t-138 -48.5t-56 -121.5v-2q0 -73 53.5 -121t141.5 -48z" />
    <glyph glyph-name="nine" unicode="9" horiz-adv-x="533" 
d="M230 11q105 0 163 99t58 264v57q-14 -76 -70.5 -119.5t-125.5 -43.5q-89 0 -147 57.5t-58 155.5v3q0 97 58 162.5t146 65.5q85 0 141 -58q78 -76 78 -269v-12q0 -176 -64 -279t-179 -103q-90 0 -159 67l14 16q66 -63 145 -63zM256 288q75 0 129 53.5t54 139.5v3
q0 86 -52.5 147t-132.5 61q-78 0 -130 -61t-52 -146v-3q0 -91 52 -142.5t132 -51.5z" />
    <glyph glyph-name="colon" unicode=":" horiz-adv-x="148" 
d="M58 447v51h33v-51h-33zM58 0v52h33v-52h-33z" />
    <glyph glyph-name="semicolon" unicode=";" horiz-adv-x="146" 
d="M55 447v51h34v-51h-34zM53 -74l-7 13q26 13 25 61h-16v52h34v-49q0 -35 -8.5 -51.5t-27.5 -25.5z" />
    <glyph glyph-name="less" unicode="&#x3c;" horiz-adv-x="520" 
d="M445 139l-392 208v10l392 208v-23l-361 -190l361 -190v-23z" />
    <glyph glyph-name="equal" unicode="=" horiz-adv-x="515" 
d="M76 444v20h364v-20h-364zM76 240v21h364v-21h-364z" />
    <glyph glyph-name="greater" unicode="&#x3e;" horiz-adv-x="520" 
d="M75 139v23l361 190l-361 190v23l391 -208v-10z" />
    <glyph glyph-name="question" unicode="?" horiz-adv-x="434" 
d="M182 183l-8 162l3 4q86 14 137.5 61t51.5 117v3q0 69 -47 113t-118 44q-100 0 -162 -91l-16 13q68 99 179 99q81 0 133.5 -50t52.5 -127v-3q0 -77 -53.5 -127.5t-135.5 -67.5l-7 -150h-10zM171 0v52h33v-52h-33z" />
    <glyph glyph-name="at" unicode="@" horiz-adv-x="847" 
d="M430 -153q-161 0 -267.5 109t-106.5 290q0 122 48 228t137.5 171.5t200.5 65.5q151 0 250 -107t99 -257q0 -119 -48.5 -194t-109.5 -75q-49 0 -73 34.5t-21 82.5q-25 -51 -67.5 -84.5t-91.5 -33.5q-62 0 -99.5 42t-37.5 114q0 104 58 180t134 76q50 0 85.5 -32.5
t44.5 -84.5l18 96l20 -4l-40 -214q-6 -30 -6 -59q0 -42 18.5 -68t58.5 -26q53 0 95.5 70.5t42.5 178.5q0 143 -93.5 245t-237.5 102q-105 0 -190 -64t-130 -165.5t-45 -215.5q0 -174 101 -279t253 -105q115 0 207 61l11 -16q-97 -62 -218 -62zM382 98q57 0 99 44
q35 35 53.5 87t18.5 99q0 59 -33 100t-84 41q-57 0 -100 -45q-34 -33 -53 -83.5t-19 -104.5q0 -65 32 -101.5t86 -36.5z" />
    <glyph glyph-name="A" unicode="A" horiz-adv-x="647" 
d="M36 0l278 705h19l278 -705h-23l-83 210h-364l-83 -210h-22zM149 230h348l-174 443z" />
    <glyph glyph-name="B" unicode="B" horiz-adv-x="610" 
d="M90 0v700h215q115 0 174 -57q45 -47 45 -119v-2q0 -64 -37 -108t-99 -58q73 -12 118.5 -59t45.5 -114v-2q0 -85 -61.5 -133t-176.5 -48h-224zM502 521v2q0 73 -51.5 115t-146.5 42h-192v-316h203q84 0 135.5 41.5t51.5 115.5zM530 182q0 74 -56 118t-146 44h-216v-324
h202q105 0 160.5 42t55.5 118v2z" />
    <glyph glyph-name="C" unicode="C" horiz-adv-x="597" 
d="M349 -9q-125 0 -205.5 99t-80.5 257v5q0 156 82.5 256.5t207.5 100.5q69 0 115 -22t89 -63l-14 -15q-84 80 -190 80q-114 0 -191 -96.5t-77 -240.5v-4q0 -148 75.5 -242.5t189.5 -94.5q109 0 196 89l15 -15q-92 -94 -212 -94z" />
    <glyph glyph-name="D" unicode="D" horiz-adv-x="651" 
d="M90 0v700h167q149 0 240 -96t91 -251v-6q0 -154 -91 -250.5t-241 -96.5h-166zM256 680h-144v-660h144q140 0 225 91t85 235v7q0 144 -85.5 235.5t-224.5 91.5z" />
    <glyph glyph-name="E" unicode="E" horiz-adv-x="552" 
d="M90 0v700h404v-20h-382v-318h347v-20h-347v-322h386v-20h-408z" />
    <glyph glyph-name="F" unicode="F" horiz-adv-x="519" 
d="M90 0v700h398v-20h-376v-325h341v-20h-341v-335h-22z" />
    <glyph glyph-name="G" unicode="G" horiz-adv-x="650" 
d="M363 -11q-135 0 -217.5 98t-82.5 260v5q0 154 84 256.5t214 102.5q61 0 105.5 -17.5t88.5 -54.5l-13 -17q-84 69 -182 69q-118 0 -196.5 -98t-78.5 -241v-4q0 -152 77.5 -245.5t201.5 -93.5q105 0 188 71v248h-212v22h233v-280q-93 -81 -210 -81z" />
    <glyph glyph-name="H" unicode="H" horiz-adv-x="643" 
d="M90 0v700h22v-337h419v337h22v-700h-22v343h-419v-343h-22z" />
    <glyph glyph-name="I" unicode="I" horiz-adv-x="215" 
d="M97 0v700h22v-700h-22z" />
    <glyph glyph-name="J" unicode="J" horiz-adv-x="432" 
d="M182 -9q-51 0 -92.5 27.5t-63.5 75.5l18 10q46 -93 140 -93q64 0 103.5 45t39.5 135v509h22v-503q0 -110 -53 -161q-44 -45 -114 -45z" />
    <glyph glyph-name="K" unicode="K" horiz-adv-x="588" 
d="M90 0v700h22v-460l395 460h28l-260 -301l273 -399h-26l-261 382l-149 -171v-211h-22z" />
    <glyph glyph-name="L" unicode="L" horiz-adv-x="487" 
d="M90 0v700h22v-680h351v-20h-373z" />
    <glyph glyph-name="M" unicode="M" horiz-adv-x="733" 
d="M90 0v700h22l255 -435l254 435h21v-700h-21v659l-254 -435h-1l-254 435v-659h-22z" />
    <glyph glyph-name="N" unicode="N" horiz-adv-x="663" 
d="M90 0v700h20l442 -656v656h21v-700h-18l-444 660v-660h-21z" />
    <glyph glyph-name="O" unicode="O" horiz-adv-x="701" 
d="M351 -11q-128 0 -208 101.5t-80 257.5v4q0 156 80 257.5t208 101.5t207.5 -101.5t79.5 -257.5v-4q0 -156 -79.5 -257.5t-207.5 -101.5zM351 9q117 0 191 96.5t74 241.5v5q0 144 -75 241.5t-191 97.5t-190.5 -97t-74.5 -241v-5q0 -144 75 -241.5t191 -97.5z" />
    <glyph glyph-name="P" unicode="P" horiz-adv-x="566" 
d="M90 0v700h185q117 0 183 -57t66 -154v-1q0 -100 -67.5 -157.5t-185.5 -57.5h-159v-273h-22zM112 293h159q107 0 169 51t62 143v1q0 90 -61.5 141t-167.5 51h-161v-387z" />
    <glyph glyph-name="Q" unicode="Q" horiz-adv-x="704" 
d="M641 2l-14 -14l-87 82q-78 -81 -189 -81q-128 0 -208 101.5t-80 257.5v4q0 156 80 257.5t208 101.5t207.5 -101.5t79.5 -257.5v-4q0 -160 -84 -263zM351 9q104 0 174 75l-130 123l14 15l129 -122q78 96 78 247v5q0 144 -75 241.5t-191 97.5t-190.5 -97t-74.5 -241v-5
q0 -144 75 -241.5t191 -97.5z" />
    <glyph glyph-name="R" unicode="R" horiz-adv-x="611" 
d="M90 0v700h213q126 0 187 -63q51 -51 51 -134v-1q0 -85 -52.5 -135.5t-145.5 -62.5l205 -304h-26l-204 302q-8 -1 -28 -1h-178v-301h-22zM112 321h179q113 0 170.5 48.5t57.5 131.5v1q0 84 -57.5 131t-159.5 47h-190v-359z" />
    <glyph glyph-name="S" unicode="S" horiz-adv-x="541" 
d="M276 -9q-135 0 -230 102l16 15q91 -97 216 -97q82 0 133 44t51 112v2q0 62 -41 101.5t-152 78.5q-108 37 -152.5 79.5t-44.5 110.5v2q0 70 56.5 119t141.5 49q111 0 198 -75l-15 -17q-84 72 -184 72q-77 0 -126 -43.5t-49 -103.5v-2q0 -62 40.5 -99.5t146.5 -74.5
q115 -40 159 -84t44 -111v-2q0 -77 -57 -127.5t-151 -50.5z" />
    <glyph glyph-name="T" unicode="T" horiz-adv-x="486" 
d="M232 0v680h-210v20h441v-20h-209v-680h-22z" />
    <glyph glyph-name="U" unicode="U" horiz-adv-x="640" 
d="M320 -10q-109 0 -173.5 72.5t-64.5 206.5v431h22v-431q0 -125 59 -192t158 -67q100 0 157.5 66t57.5 192v432h22v-431q0 -135 -64 -207t-174 -72z" />
    <glyph glyph-name="V" unicode="V" horiz-adv-x="617" 
d="M300 -5l-264 705h23l250 -670l250 670h23l-264 -705h-18z" />
    <glyph glyph-name="W" unicode="W" horiz-adv-x="884" 
d="M238 -5l-196 705h23l183 -666l185 668h18l186 -668l183 666h22l-196 -705h-19l-185 664l-185 -664h-19z" />
    <glyph glyph-name="X" unicode="X" horiz-adv-x="567" 
d="M500 700h25l-228 -344l237 -356h-25l-226 342l-224 -342h-26l236 356l-227 344h25l217 -328z" />
    <glyph glyph-name="Y" unicode="Y" horiz-adv-x="555" 
d="M267 0v296l-247 404h24l234 -384l233 384h24l-246 -404v-296h-22z" />
    <glyph glyph-name="Z" unicode="Z" horiz-adv-x="564" 
d="M56 0v14l419 666h-404v20h432v-14l-419 -666h417v-20h-445z" />
    <glyph glyph-name="bracketleft" unicode="[" horiz-adv-x="356" 
d="M93 -130v830h216v-17h-194v-796h194v-17h-216z" />
    <glyph glyph-name="backslash" unicode="\" horiz-adv-x="401" 
d="M390 -118l-388 906h22l388 -906h-22z" />
    <glyph glyph-name="bracketright" unicode="]" horiz-adv-x="356" 
d="M47 -130v17h194v796h-194v17h216v-830h-216z" />
    <glyph glyph-name="asciicircum" unicode="^" horiz-adv-x="439" 
d="M85 507l128 190h13l127 -190h-16l-118 165l-117 -165h-17z" />
    <glyph glyph-name="underscore" unicode="_" horiz-adv-x="519" 
d="M0 -149v19h519v-19h-519z" />
    <glyph glyph-name="grave" unicode="`" 
d="M285 588l-91 104l23 11l80 -115h-12z" />
    <glyph glyph-name="a" unicode="a" horiz-adv-x="487" 
d="M207 -10q-70 0 -116 40.5t-46 112.5v2q0 76 52.5 119t139.5 43q82 0 156 -30v60q0 76 -41.5 117t-116.5 41q-67 0 -140 -38l-9 18q75 40 149 40q89 0 134 -47q45 -45 45 -129v-339h-21v110q-17 -49 -65.5 -84.5t-120.5 -35.5zM208 10q80 0 132.5 51.5t52.5 118.5v76
q-73 31 -155 31q-77 0 -124 -37t-47 -104v-2q0 -63 40 -98.5t101 -35.5z" />
    <glyph glyph-name="b" unicode="b" horiz-adv-x="557" 
d="M294 -10q-72 0 -123 46t-69 110v-146h-21v722h21v-361q18 65 69 111t123 46q92 0 151.5 -75t59.5 -187v-4q0 -112 -59 -187t-152 -75zM293 10q85 0 137.5 69t52.5 172v4q0 103 -52.5 173t-137.5 70q-83 0 -137.5 -71t-54.5 -171v-4q0 -100 54.5 -171t137.5 -71z" />
    <glyph glyph-name="c" unicode="c" horiz-adv-x="463" 
d="M266 -10q-92 0 -153.5 73t-61.5 189v4q0 113 63 187.5t155 74.5q87 0 155 -72l-15 -15q-62 66 -141 66q-82 0 -138.5 -68.5t-56.5 -172.5v-4q0 -105 55.5 -173.5t138.5 -68.5q79 0 144 71l15 -14q-68 -77 -160 -77z" />
    <glyph glyph-name="d" unicode="d" horiz-adv-x="557" 
d="M263 -10q-92 0 -151.5 75t-59.5 187v4q0 112 59.5 187t151.5 75q72 0 123 -46t69 -111v361h21v-722h-21v146q-18 -64 -69 -110t-123 -46zM264 10q83 0 137.5 70.5t54.5 171.5v4q0 100 -54.5 171t-137.5 71q-85 0 -137.5 -69t-52.5 -173v-4q0 -103 52.5 -172.5
t137.5 -69.5z" />
    <glyph glyph-name="e" unicode="e" horiz-adv-x="499" 
d="M268 -10q-92 0 -154.5 71t-62.5 191v3q0 117 58.5 190t146.5 73q92 0 143.5 -75.5t51.5 -185.5v-10h-378q2 -108 58 -172.5t138 -64.5q89 0 153 76l15 -13q-67 -83 -169 -83zM73 267h356q-2 96 -49 163.5t-125 67.5q-77 0 -127.5 -64.5t-54.5 -166.5z" />
    <glyph glyph-name="f" unicode="f" horiz-adv-x="282" 
d="M110 0v489h-70v19h70v71q0 79 37 114q31 31 84 31q28 0 53 -10v-20q-23 10 -53 10q-99 0 -99 -128v-68h149v-19h-149v-489h-22z" />
    <glyph glyph-name="g" unicode="g" horiz-adv-x="550" 
d="M262 -152q-100 0 -188 58l12 19q80 -57 176 -57q87 0 136.5 48.5t49.5 141.5v111q-23 -56 -72.5 -96.5t-115.5 -40.5q-88 0 -148 70t-60 171v3q0 101 60.5 171.5t147.5 70.5q66 0 115.5 -40.5t72.5 -96.5v127h21v-451q0 -101 -55 -156q-55 -53 -152 -53zM261 52
q79 0 134 65.5t55 154.5v4q0 89 -55.5 155.5t-133.5 66.5q-79 0 -132.5 -65t-53.5 -156v-3q0 -92 53.5 -157t132.5 -65z" />
    <glyph glyph-name="h" unicode="h" horiz-adv-x="524" 
d="M81 0v722h21v-335q13 50 58.5 90.5t113.5 40.5q84 0 131 -56t47 -153v-309h-21v308q0 87 -41.5 138.5t-117.5 51.5q-70 0 -120 -56t-50 -138v-304h-21z" />
    <glyph glyph-name="i" unicode="i" horiz-adv-x="193" 
d="M82 645v57h29v-57h-29zM86 0v508h21v-508h-21z" />
    <glyph glyph-name="j" unicode="j" horiz-adv-x="195" 
d="M83 645v57h29v-57h-29zM19 -155q-19 0 -34 4v20q13 -4 34 -4q32 0 50 22.5t18 65.5v555h21v-554q0 -109 -89 -109z" />
    <glyph glyph-name="k" unicode="k" horiz-adv-x="460" 
d="M81 0v722h21v-543l287 329h26l-195 -221l209 -287h-25l-197 272l-105 -121v-151h-21z" />
    <glyph glyph-name="l" unicode="l" horiz-adv-x="193" 
d="M86 0v722h21v-722h-21z" />
    <glyph glyph-name="m" unicode="m" horiz-adv-x="807" 
d="M81 0v508h21v-114q12 48 53.5 86t98.5 38q64 0 103.5 -36t52.5 -96q14 53 57.5 92.5t101.5 39.5q74 0 118.5 -51.5t44.5 -147.5v-319h-21v318q0 87 -39 133.5t-104 46.5q-61 0 -106 -52.5t-45 -130.5v-315h-21v318q0 87 -39 133.5t-104 46.5q-60 0 -105.5 -52.5
t-45.5 -130.5v-315h-21z" />
    <glyph glyph-name="n" unicode="n" horiz-adv-x="524" 
d="M81 0v508h21v-121q13 50 58.5 90.5t113.5 40.5q84 0 131 -56t47 -153v-309h-21v308q0 87 -41.5 138.5t-117.5 51.5q-70 0 -120 -56t-50 -138v-304h-21z" />
    <glyph glyph-name="o" unicode="o" horiz-adv-x="539" 
d="M270 -10q-96 0 -158 74.5t-62 186.5v4q0 112 62 187.5t158 75.5q95 0 157 -75t62 -187v-4q0 -112 -61.5 -187t-157.5 -75zM270 10q86 0 141.5 69.5t55.5 172.5v4q0 102 -56.5 172t-141.5 70q-86 0 -141.5 -70t-55.5 -172v-4q0 -102 56.5 -172t141.5 -70z" />
    <glyph glyph-name="p" unicode="p" horiz-adv-x="557" 
d="M81 -150v658h21v-147q18 65 69 111t123 46q92 0 151.5 -75t59.5 -187v-4q0 -112 -59.5 -187t-151.5 -75q-72 0 -123 46t-69 110v-296h-21zM293 10q85 0 137.5 69t52.5 172v4q0 103 -52.5 173t-137.5 70q-83 0 -137.5 -71t-54.5 -171v-4q0 -100 54.5 -171t137.5 -71z" />
    <glyph glyph-name="q" unicode="q" horiz-adv-x="557" 
d="M455 -150v296q-18 -64 -69 -110t-123 -46q-92 0 -151.5 75t-59.5 187v4q0 112 59.5 187t151.5 75q72 0 123 -46t69 -111v147h21v-658h-21zM264 10q83 0 137.5 70.5t54.5 171.5v4q0 100 -54.5 171t-137.5 71q-85 0 -137.5 -69t-52.5 -173v-4q0 -103 52.5 -172.5
t137.5 -69.5z" />
    <glyph glyph-name="r" unicode="r" horiz-adv-x="292" 
d="M81 0v508h21v-136q17 60 63 103t112 42v-21h-4q-74 0 -122.5 -64t-48.5 -141v-291h-21z" />
    <glyph glyph-name="s" unicode="s" horiz-adv-x="423" 
d="M209 -8q-96 0 -174 68l14 16q73 -64 162 -64q60 0 99.5 31t39.5 78v2q0 45 -33 70.5t-111 58.5q-81 31 -116 60.5t-35 77.5v2q0 52 43 88t112 36q81 0 152 -55l-13 -17q-63 52 -140 52q-59 0 -95.5 -30t-36.5 -74v-1q0 -40 32 -65.5t107 -55.5q84 -34 120 -64t36 -83v-1
q0 -56 -46 -93t-117 -37z" />
    <glyph glyph-name="t" unicode="t" horiz-adv-x="316" 
d="M216 -7q-54 0 -83.5 31t-29.5 90v375h-69v19h69v165h22v-165h150v-19h-150v-373q0 -103 91 -103q32 0 59 13v-21q-25 -12 -59 -12z" />
    <glyph glyph-name="u" unicode="u" horiz-adv-x="524" 
d="M251 -10q-84 0 -131 55.5t-47 152.5v310h21v-309q0 -87 41 -138t118 -51q70 0 120 56t50 137v305h21v-508h-21v121q-13 -50 -58.5 -90.5t-113.5 -40.5z" />
    <glyph glyph-name="v" unicode="v" horiz-adv-x="480" 
d="M232 -4l-197 512h23l183 -481l182 481h22l-196 -512h-17z" />
    <glyph glyph-name="w" unicode="w" horiz-adv-x="698" 
d="M192 -4l-152 512h22l138 -474l141 476h16l141 -476l138 474h21l-151 -512h-17l-140 474l-140 -474h-17z" />
    <glyph glyph-name="x" unicode="x" horiz-adv-x="454" 
d="M62 508l164 -234l166 234h24l-178 -250l185 -258h-24l-173 244l-172 -244h-24l184 259l-176 249h24z" />
    <glyph glyph-name="y" unicode="y" horiz-adv-x="486" 
d="M248 31l182 477h22l-195 -509q-35 -91 -65.5 -121.5t-75.5 -30.5q-40 0 -78 23l10 18q33 -22 68 -22q38 0 64 28t58 110l-202 504h23z" />
    <glyph glyph-name="z" unicode="z" horiz-adv-x="417" 
d="M35 0v12l317 477h-306v19h334v-12l-317 -477h318v-19h-346z" />
    <glyph glyph-name="braceleft" unicode="{" horiz-adv-x="380" 
d="M324 -140q-100 18 -131 58.5t-31 119.5q0 15 7 57t7 60q0 52 -30 87t-89 35h-16v20h16q59 0 89 35.5t30 87.5q0 18 -7 60t-7 57q0 79 31 119.5t131 58.5l4 -19q-89 -15 -116.5 -51.5t-27.5 -107.5q0 -15 6.5 -56.5t6.5 -60.5q0 -54 -27.5 -90.5t-77.5 -42.5
q50 -6 77.5 -42t27.5 -90q0 -19 -6.5 -60.5t-6.5 -56.5q0 -71 27.5 -107.5t116.5 -51.5z" />
    <glyph glyph-name="bar" unicode="|" horiz-adv-x="242" 
d="M111 -118v906h19v-906h-19z" />
    <glyph glyph-name="braceright" unicode="}" horiz-adv-x="380" 
d="M59 -140l-4 19q89 15 116.5 51.5t27.5 107.5q0 15 -6.5 56.5t-6.5 60.5q0 54 27.5 90t77.5 42q-50 6 -77.5 42.5t-27.5 90.5q0 19 6.5 60.5t6.5 56.5q0 71 -27.5 107.5t-116.5 51.5l4 19q101 -18 131.5 -58.5t30.5 -119.5q0 -15 -7 -57t-7 -60q0 -52 30 -87.5t89 -35.5
h16v-20h-16q-59 0 -89 -35t-30 -87q0 -18 7 -60t7 -57q0 -79 -30.5 -119.5t-131.5 -58.5z" />
    <glyph glyph-name="asciitilde" unicode="~" horiz-adv-x="396" 
d="M255 258q-22 0 -62 29q-35 27 -52 27q-32 0 -50 -58l-14 3q16 74 65 74q22 0 63 -30q35 -25 51 -25q32 0 50 58l13 -3q-16 -75 -64 -75z" />
    <glyph glyph-name="uni00A0" unicode="&#xa0;" horiz-adv-x="230" 
 />
    <glyph glyph-name="exclamdown" unicode="&#xa1;" horiz-adv-x="178" 
d="M72 648v52h34v-52h-34zM78 0v96l6 421h10l6 -421v-96h-22z" />
    <glyph glyph-name="cent" unicode="&#xa2;" horiz-adv-x="471" 
d="M323 705l-13 -90q67 -10 126 -67l-14 -14q-51 51 -114 61l-64 -484q15 -3 32 -3q87 0 148 68l13 -14q-68 -73 -162 -73q-18 0 -33 3l-14 -98h-19l14 102q-73 20 -118 90t-45 167v2q0 113 62.5 187.5t155.5 74.5h13l12 88h20zM81 353q0 -89 39.5 -153.5t105.5 -84.5
l62 483h-11q-84 0 -140 -69t-56 -173v-3z" />
    <glyph glyph-name="sterling" unicode="&#xa3;" horiz-adv-x="506" 
d="M56 0v13l78 8v303h-79v20h79v138q0 120 58 178q49 49 122 49q97 0 158 -89l-17 -12q-56 81 -141 81q-64 0 -107 -43q-51 -49 -51 -162v-140h248v-20h-248v-304h313v-20h-413z" />
    <glyph glyph-name="yen" unicode="&#xa5;" horiz-adv-x="530" 
d="M82 288v19h166l-227 393h26l219 -383l218 383h25l-227 -393h166v-19h-172v-139h172v-19h-172v-130h-21v130h-173v19h173v139h-173z" />
    <glyph glyph-name="section" unicode="&#xa7;" horiz-adv-x="541" 
d="M302 228q122 -43 122 -121v-2q0 -49 -43 -81.5t-114 -32.5q-98 0 -165 57l13 17q65 -54 153 -54q60 0 97 26t37 68v2q0 42 -42.5 71t-134.5 55q-87 24 -127 55t-40 75v2q0 48 48.5 80.5t133.5 27.5q-122 43 -122 121v2q0 49 43 81.5t114 32.5q48 0 92.5 -16.5t72.5 -40.5
l-13 -17q-65 54 -153 54q-60 0 -97 -26t-37 -68v-2q0 -42 42.5 -71t134.5 -55q87 -24 126.5 -55t39.5 -75v-2q0 -49 -48 -81.5t-133 -26.5zM323 244q58 0 98 25t40 66v2q0 36 -31.5 60.5t-99.5 43.5q-53 16 -111 16t-98.5 -25t-40.5 -66v-2q0 -36 32 -60.5t100 -43.5
q53 -16 111 -16z" />
    <glyph glyph-name="dieresis" unicode="&#xa8;" 
d="M291 604v45h33v-45h-33zM180 604v45h32v-45h-32z" />
    <glyph glyph-name="copyright" unicode="&#xa9;" horiz-adv-x="731" 
d="M365 -12q-135 0 -227.5 104t-92.5 252v13q0 147 92.5 251t227.5 104t227.5 -104t92.5 -251v-13q0 -148 -92.5 -252t-227.5 -104zM365 5q128 0 215.5 99.5t87.5 239.5v13q0 140 -87 239t-216 99q-128 0 -215 -99.5t-87 -238.5v-13q0 -140 87 -239.5t215 -99.5zM373 160
q-66 0 -109.5 53t-43.5 138v4q0 83 44 137t111 54q63 0 112 -47l-14 -14q-43 43 -98 43q-58 0 -96.5 -49t-38.5 -123v-5q0 -75 38.5 -124t96.5 -49q57 0 100 47l14 -13q-50 -52 -116 -52z" />
    <glyph glyph-name="ordfeminine" unicode="&#xaa;" horiz-adv-x="358" 
d="M162 410q-38 0 -64.5 23t-26.5 64v2q0 41 29 64.5t78 23.5q42 0 81 -14v25q0 87 -83 87q-34 0 -76 -22l-7 16q41 23 84 23q49 0 75 -26q25 -25 25 -76v-184h-18v51q-31 -57 -97 -57zM69 324v15h214v-15h-214zM163 427q41 0 68.5 25.5t27.5 59.5v46q-41 13 -82 13
q-40 0 -63.5 -19t-23.5 -53v-2q0 -33 21 -51.5t52 -18.5z" />
    <glyph glyph-name="guillemotleft" unicode="&#xab;" horiz-adv-x="414" 
d="M347 47l-156 205v6l156 205l14 -9l-146 -199l146 -198zM193 47l-156 205v6l156 205l14 -9l-146 -199l146 -198z" />
    <glyph glyph-name="registered" unicode="&#xae;" horiz-adv-x="383" 
d="M192 359q-68 0 -113 50t-45 123v6q0 72 45.5 123t112.5 51t112 -50t45 -123v-7q0 -71 -45 -122t-112 -51zM192 372q61 0 102 47t41 113v6q0 68 -41 114.5t-102 46.5t-102.5 -47t-41.5 -114v-6q0 -67 41 -113.5t103 -46.5zM136 448v180h62q27 0 44 -14t17 -39v-1
q0 -42 -42 -52l48 -74h-20l-45 71h-47v-71h-17zM153 534h43q46 0 46 40v1q0 17 -12 28t-33 11h-44v-80z" />
    <glyph glyph-name="macron" unicode="&#xaf;" 
d="M140 609v19h224v-19h-224z" />
    <glyph glyph-name="degree" unicode="&#xb0;" horiz-adv-x="369" 
d="M184 418q-52 0 -89 41.5t-37 100.5v4q0 61 37 101.5t89 40.5q53 0 90 -40.5t37 -101.5v-4q0 -60 -37 -101t-90 -41zM184 436q44 0 75.5 35t31.5 89v4q0 55 -31 89.5t-76 34.5q-44 0 -75 -34.5t-31 -89.5v-4q0 -53 31 -88.5t75 -35.5z" />
    <glyph glyph-name="plusminus" unicode="&#xb1;" horiz-adv-x="515" 
d="M456 363h-188v-188h-20v188h-189v19h189v187h20v-187h188v-19zM456 35h-397v18h397v-18z" />
    <glyph glyph-name="acute" unicode="&#xb4;" 
d="M207 588l80 115l23 -11l-90 -104h-13z" />
    <glyph glyph-name="paragraph" unicode="&#xb6;" horiz-adv-x="411" 
d="M299 0v271h-7q-110 0 -179 57.5t-69 156.5v2q0 98 65 155.5t171 57.5h41v-700h-22z" />
    <glyph glyph-name="periodcentered" unicode="&#xb7;" horiz-adv-x="144" 
d="M56 262v52h33v-52h-33z" />
    <glyph glyph-name="cedilla" unicode="&#xb8;" 
d="M207 -128l-22 10l76 123h14z" />
    <glyph glyph-name="ordmasculine" unicode="&#xba;" horiz-adv-x="361" 
d="M180 410q-53 0 -87 42.5t-34 102.5v5q0 63 34.5 104t87.5 41t87 -41t34 -104v-5q0 -60 -34 -102.5t-88 -42.5zM63 324v15h235v-15h-235zM181 428q45 0 73.5 36t28.5 91v5q0 55 -29 91t-74 36t-73.5 -36t-28.5 -91v-5q0 -54 29 -90.5t74 -36.5z" />
    <glyph glyph-name="guillemotright" unicode="&#xbb;" horiz-adv-x="414" 
d="M220 47l-13 10l146 198l-146 199l13 9l156 -205v-6zM67 47l-14 10l146 198l-146 199l14 9l155 -205v-6z" />
    <glyph glyph-name="questiondown" unicode="&#xbf;" horiz-adv-x="434" 
d="M230 648v52h33v-52h-33zM231 -8q-81 0 -133 50t-52 127v3q0 77 53.5 127.5t135.5 67.5l7 150h10l7 -162l-3 -4q-85 -14 -136.5 -61t-51.5 -117v-3q0 -69 47 -113t117 -44q101 0 163 91l16 -13q-69 -99 -180 -99z" />
    <glyph glyph-name="Agrave" unicode="&#xc0;" horiz-adv-x="647" 
d="M36 0l278 705h19l278 -705h-23l-83 210h-364l-83 -210h-22zM149 230h348l-174 443zM334 762h-15l-94 87l22 12z" />
    <glyph glyph-name="Aacute" unicode="&#xc1;" horiz-adv-x="647" 
d="M36 0l278 705h19l278 -705h-23l-83 210h-364l-83 -210h-22zM149 230h348l-174 443zM311 762l88 99l22 -12l-94 -87h-16z" />
    <glyph glyph-name="Acircumflex" unicode="&#xc2;" horiz-adv-x="647" 
d="M36 0l278 705h19l278 -705h-23l-83 210h-364l-83 -210h-22zM149 230h348l-174 443zM219 757l94 97h17l94 -97h-19l-84 75l-83 -75h-19z" />
    <glyph glyph-name="Atilde" unicode="&#xc3;" horiz-adv-x="647" 
d="M36 0l278 705h19l278 -705h-23l-83 210h-364l-83 -210h-22zM149 230h348l-174 443zM381 772q-21 0 -62 26q-42 24 -55 24q-31 0 -49 -53l-14 3q18 69 65 69q22 0 64 -27q38 -22 53 -22q32 0 49 52l14 -3q-16 -69 -65 -69z" />
    <glyph glyph-name="Adieresis" unicode="&#xc4;" horiz-adv-x="647" 
d="M36 0l278 705h19l278 -705h-23l-83 210h-364l-83 -210h-22zM149 230h348l-174 443zM365 778v46h34v-46h-34zM245 778v46h34v-46h-34z" />
    <glyph glyph-name="Aring" unicode="&#xc5;" horiz-adv-x="647" 
d="M36 0l266 677q-31 6 -50.5 28t-19.5 52q0 35 26 58t65 23t65 -23t26 -58q0 -30 -19.5 -52t-50.5 -28l267 -677h-23l-83 210h-364l-83 -210h-22zM149 230h348l-174 443zM323 690q32 0 52.5 19t20.5 48q0 28 -20.5 47t-52.5 19q-31 0 -52.5 -19t-21.5 -47q0 -29 21.5 -48
t52.5 -19z" />
    <glyph glyph-name="AE" unicode="&#xc6;" horiz-adv-x="849" 
d="M3 0l370 700h417v-20h-371v-318h337v-20h-337v-322h376v-20h-398v210h-260l-111 -210h-23zM148 230h249v450h-12z" />
    <glyph glyph-name="Ccedilla" unicode="&#xc7;" horiz-adv-x="597" 
d="M290 -128l-22 10l67 110q-120 5 -196 103t-76 252v5q0 156 82.5 256.5t207.5 100.5q69 0 115 -22t89 -63l-14 -15q-84 80 -190 80q-114 0 -191 -96.5t-77 -240.5v-4q0 -148 75.5 -242.5t189.5 -94.5q109 0 196 89l15 -15q-91 -93 -210 -94z" />
    <glyph glyph-name="Egrave" unicode="&#xc8;" horiz-adv-x="552" 
d="M305 757h-15l-94 87l22 12zM90 0v700h404v-20h-382v-318h347v-20h-347v-322h386v-20h-408z" />
    <glyph glyph-name="Eacute" unicode="&#xc9;" horiz-adv-x="552" 
d="M282 757l88 99l22 -12l-94 -87h-16zM90 0v700h404v-20h-382v-318h347v-20h-347v-322h386v-20h-408z" />
    <glyph glyph-name="Ecircumflex" unicode="&#xca;" horiz-adv-x="552" 
d="M90 0v700h404v-20h-382v-318h347v-20h-347v-322h386v-20h-408zM191 758l94 97h17l94 -97h-19l-84 75l-83 -75h-19z" />
    <glyph glyph-name="Edieresis" unicode="&#xcb;" horiz-adv-x="552" 
d="M337 773v46h34v-46h-34zM217 773v46h34v-46h-34zM90 0v700h404v-20h-382v-318h347v-20h-347v-322h386v-20h-408z" />
    <glyph glyph-name="Igrave" unicode="&#xcc;" horiz-adv-x="215" 
d="M97 0v700h22v-700h-22zM119 757h-15l-94 87l22 12z" />
    <glyph glyph-name="Iacute" unicode="&#xcd;" horiz-adv-x="215" 
d="M97 0v700h22v-700h-22zM97 757l88 99l22 -12l-94 -87h-16z" />
    <glyph glyph-name="Icircumflex" unicode="&#xce;" horiz-adv-x="215" 
d="M97 0v700h22v-700h-22zM6 758l94 97h17l94 -97h-19l-84 75l-83 -75h-19z" />
    <glyph glyph-name="Idieresis" unicode="&#xcf;" horiz-adv-x="215" 
d="M97 0v700h22v-700h-22zM152 773v46h34v-46h-34zM32 773v46h34v-46h-34z" />
    <glyph glyph-name="Eth" unicode="&#xd0;" horiz-adv-x="670" 
d="M109 0v342h-68v20h68v338h174q143 0 233 -96.5t90 -250.5v-6q0 -153 -90 -250t-234 -97h-173zM335 342h-204v-322h151q134 0 218 91.5t84 234.5v7q0 144 -84.5 235.5t-217.5 91.5h-151v-318h204v-20z" />
    <glyph glyph-name="Ntilde" unicode="&#xd1;" horiz-adv-x="663" 
d="M395 762q-21 0 -62 26q-42 24 -55 24q-31 0 -49 -53l-14 3q18 69 65 69q22 0 64 -27q38 -22 53 -22q32 0 49 52l14 -3q-16 -69 -65 -69zM90 0v700h20l442 -656v656h21v-700h-18l-444 660v-660h-21z" />
    <glyph glyph-name="Ograve" unicode="&#xd2;" horiz-adv-x="701" 
d="M361 762h-15l-94 87l22 12zM351 -11q-128 0 -208 101.5t-80 257.5v4q0 156 80 257.5t208 101.5t207.5 -101.5t79.5 -257.5v-4q0 -156 -79.5 -257.5t-207.5 -101.5zM351 9q117 0 191 96.5t74 241.5v5q0 144 -75 241.5t-191 97.5t-190.5 -97t-74.5 -241v-5
q0 -144 75 -241.5t191 -97.5z" />
    <glyph glyph-name="Oacute" unicode="&#xd3;" horiz-adv-x="701" 
d="M338 762l88 99l22 -12l-94 -87h-16zM351 -11q-128 0 -208 101.5t-80 257.5v4q0 156 80 257.5t208 101.5t207.5 -101.5t79.5 -257.5v-4q0 -156 -79.5 -257.5t-207.5 -101.5zM351 9q117 0 191 96.5t74 241.5v5q0 144 -75 241.5t-191 97.5t-190.5 -97t-74.5 -241v-5
q0 -144 75 -241.5t191 -97.5z" />
    <glyph glyph-name="Ocircumflex" unicode="&#xd4;" horiz-adv-x="701" 
d="M351 -11q-128 0 -208 101.5t-80 257.5v4q0 156 80 257.5t208 101.5t207.5 -101.5t79.5 -257.5v-4q0 -156 -79.5 -257.5t-207.5 -101.5zM351 9q117 0 191 96.5t74 241.5v5q0 144 -75 241.5t-191 97.5t-190.5 -97t-74.5 -241v-5q0 -144 75 -241.5t191 -97.5zM247 763l94 97
h17l94 -97h-19l-84 75l-83 -75h-19z" />
    <glyph glyph-name="Otilde" unicode="&#xd5;" horiz-adv-x="701" 
d="M408 772q-21 0 -62 26q-42 24 -55 24q-31 0 -49 -53l-14 3q18 69 65 69q22 0 64 -27q39 -22 53 -22q32 0 49 52l14 -3q-16 -69 -65 -69zM351 -11q-128 0 -208 101.5t-80 257.5v4q0 156 80 257.5t208 101.5t207.5 -101.5t79.5 -257.5v-4q0 -156 -79.5 -257.5
t-207.5 -101.5zM351 9q117 0 191 96.5t74 241.5v5q0 144 -75 241.5t-191 97.5t-190.5 -97t-74.5 -241v-5q0 -144 75 -241.5t191 -97.5z" />
    <glyph glyph-name="Odieresis" unicode="&#xd6;" horiz-adv-x="701" 
d="M393 778v46h34v-46h-34zM273 778v46h34v-46h-34zM351 -11q-128 0 -208 101.5t-80 257.5v4q0 156 80 257.5t208 101.5t207.5 -101.5t79.5 -257.5v-4q0 -156 -79.5 -257.5t-207.5 -101.5zM351 9q117 0 191 96.5t74 241.5v5q0 144 -75 241.5t-191 97.5t-190.5 -97
t-74.5 -241v-5q0 -144 75 -241.5t191 -97.5z" />
    <glyph glyph-name="multiply" unicode="&#xd7;" horiz-adv-x="514" 
d="M417 173l-161 166l-161 -166l-14 13l162 165l-162 165l15 15l161 -166l161 166l14 -13l-163 -165l163 -165z" />
    <glyph glyph-name="Oslash" unicode="&#xd8;" horiz-adv-x="701" 
d="M609 706h24l-74 -99q79 -101 79 -255v-4q0 -155 -80 -257t-207 -102q-117 0 -196 87l-63 -82h-24l73 98q-78 100 -78 256v4q0 155 80 257t208 102q114 0 195 -87zM351 9q117 0 191 96.5t74 241.5v5q0 141 -70 238l-378 -496q72 -85 183 -85zM85 348q0 -145 70 -238
l378 496q-74 85 -183 85q-117 0 -191 -96.5t-74 -241.5v-5z" />
    <glyph glyph-name="Ugrave" unicode="&#xd9;" horiz-adv-x="640" 
d="M330 752h-15l-94 87l22 12zM320 -10q-109 0 -173.5 72.5t-64.5 206.5v431h22v-431q0 -125 59 -192t158 -67q100 0 157.5 66t57.5 192v432h22v-431q0 -135 -64 -207t-174 -72z" />
    <glyph glyph-name="Uacute" unicode="&#xda;" horiz-adv-x="640" 
d="M308 752l88 99l22 -12l-94 -87h-16zM320 -10q-109 0 -173.5 72.5t-64.5 206.5v431h22v-431q0 -125 59 -192t158 -67q100 0 157.5 66t57.5 192v432h22v-431q0 -135 -64 -207t-174 -72z" />
    <glyph glyph-name="Ucircumflex" unicode="&#xdb;" horiz-adv-x="640" 
d="M320 -10q-109 0 -173.5 72.5t-64.5 206.5v431h22v-431q0 -125 59 -192t158 -67q100 0 157.5 66t57.5 192v432h22v-431q0 -135 -64 -207t-174 -72zM217 753l94 97h17l94 -97h-19l-84 75l-83 -75h-19z" />
    <glyph glyph-name="Udieresis" unicode="&#xdc;" horiz-adv-x="640" 
d="M362 768v46h34v-46h-34zM242 768v46h34v-46h-34zM320 -10q-109 0 -173.5 72.5t-64.5 206.5v431h22v-431q0 -125 59 -192t158 -67q100 0 157.5 66t57.5 192v432h22v-431q0 -135 -64 -207t-174 -72z" />
    <glyph glyph-name="Yacute" unicode="&#xdd;" horiz-adv-x="555" 
d="M267 0v296l-247 404h24l234 -384l233 384h24l-246 -404v-296h-22zM265 752l88 99l22 -12l-94 -87h-16z" />
    <glyph glyph-name="Thorn" unicode="&#xde;" horiz-adv-x="566" 
d="M90 0v700h22v-131h166q116 0 181 -56.5t65 -154.5v-2q0 -100 -67 -157t-183 -57h-162v-142h-22zM112 162h162q106 0 167 51t61 142v2q0 90 -60.5 141t-165.5 51h-164v-387z" />
    <glyph glyph-name="germandbls" unicode="&#xdf;" horiz-adv-x="494" 
d="M223 -3v20q90 2 145.5 49t55.5 123v2q0 73 -54 115t-147 51v18q72 20 118.5 66.5t46.5 116.5v2q0 61 -38.5 103.5t-100.5 42.5q-71 0 -109 -52t-38 -141v-513h-21v514q0 98 44 155t125 57q70 0 114.5 -47.5t44.5 -116.5v-3q0 -69 -41.5 -117.5t-106.5 -71.5
q80 -11 132 -56.5t52 -120.5v-3q0 -87 -62.5 -139t-159.5 -54z" />
    <glyph glyph-name="agrave" unicode="&#xe0;" horiz-adv-x="487" 
d="M207 -10q-70 0 -116 40.5t-46 112.5v2q0 76 52.5 119t139.5 43q82 0 156 -30v60q0 76 -41.5 117t-116.5 41q-67 0 -140 -38l-9 18q75 40 149 40q89 0 134 -47q45 -45 45 -129v-339h-21v110q-17 -49 -65.5 -84.5t-120.5 -35.5zM208 10q80 0 132.5 51.5t52.5 118.5v76
q-73 31 -155 31q-77 0 -124 -37t-47 -104v-2q0 -63 40 -98.5t101 -35.5zM245 589l-91 104l23 11l80 -115h-12z" />
    <glyph glyph-name="aacute" unicode="&#xe1;" horiz-adv-x="487" 
d="M207 -10q-70 0 -116 40.5t-46 112.5v2q0 76 52.5 119t139.5 43q82 0 156 -30v60q0 76 -41.5 117t-116.5 41q-67 0 -140 -38l-9 18q75 40 149 40q89 0 134 -47q45 -45 45 -129v-339h-21v110q-17 -49 -65.5 -84.5t-120.5 -35.5zM208 10q80 0 132.5 51.5t52.5 118.5v76
q-73 31 -155 31q-77 0 -124 -37t-47 -104v-2q0 -63 40 -98.5t101 -35.5zM236 589l80 115l23 -11l-90 -104h-13z" />
    <glyph glyph-name="acircumflex" unicode="&#xe2;" horiz-adv-x="487" 
d="M207 -10q-70 0 -116 40.5t-46 112.5v2q0 76 52.5 119t139.5 43q82 0 156 -30v60q0 76 -41.5 117t-116.5 41q-67 0 -140 -38l-9 18q75 40 149 40q89 0 134 -47q45 -45 45 -129v-339h-21v110q-17 -49 -65.5 -84.5t-120.5 -35.5zM208 10q80 0 132.5 51.5t52.5 118.5v76
q-73 31 -155 31q-77 0 -124 -37t-47 -104v-2q0 -63 40 -98.5t101 -35.5zM148 591l92 116h15l92 -116h-17l-83 91l-82 -91h-17z" />
    <glyph glyph-name="atilde" unicode="&#xe3;" horiz-adv-x="487" 
d="M207 -10q-70 0 -116 40.5t-46 112.5v2q0 76 52.5 119t139.5 43q82 0 156 -30v60q0 76 -41.5 117t-116.5 41q-67 0 -140 -38l-9 18q75 40 149 40q89 0 134 -47q45 -45 45 -129v-339h-21v110q-17 -49 -65.5 -84.5t-120.5 -35.5zM208 10q80 0 132.5 51.5t52.5 118.5v76
q-73 31 -155 31q-77 0 -124 -37t-47 -104v-2q0 -63 40 -98.5t101 -35.5zM302 600q-21 0 -60 29q-38 27 -52 27q-33 0 -50 -59l-14 3q17 76 65 76q21 0 62 -31q36 -26 51 -26q31 0 49 60l14 -3q-17 -76 -65 -76z" />
    <glyph glyph-name="adieresis" unicode="&#xe4;" horiz-adv-x="487" 
d="M207 -10q-70 0 -116 40.5t-46 112.5v2q0 76 52.5 119t139.5 43q82 0 156 -30v60q0 76 -41.5 117t-116.5 41q-67 0 -140 -38l-9 18q75 40 149 40q89 0 134 -47q45 -45 45 -129v-339h-21v110q-17 -49 -65.5 -84.5t-120.5 -35.5zM208 10q80 0 132.5 51.5t52.5 118.5v76
q-73 31 -155 31q-77 0 -124 -37t-47 -104v-2q0 -63 40 -98.5t101 -35.5zM286 605v45h33v-45h-33zM175 605v45h32v-45h-32z" />
    <glyph glyph-name="aring" unicode="&#xe5;" horiz-adv-x="487" 
d="M207 -10q-70 0 -116 40.5t-46 112.5v2q0 76 52.5 119t139.5 43q82 0 156 -30v60q0 76 -41.5 117t-116.5 41q-67 0 -140 -38l-9 18q75 40 149 40q89 0 134 -47q45 -45 45 -129v-339h-21v110q-17 -49 -65.5 -84.5t-120.5 -35.5zM208 10q80 0 132.5 51.5t52.5 118.5v76
q-73 31 -155 31q-77 0 -124 -37t-47 -104v-2q0 -63 40 -98.5t101 -35.5zM247 592q-37 0 -62 25t-25 61q0 35 25.5 60t61.5 25t61.5 -25t25.5 -60q0 -36 -25 -61t-62 -25zM247 607q30 0 50 20.5t20 50.5q0 29 -20 49.5t-50 20.5t-50.5 -20.5t-20.5 -49.5q0 -30 20.5 -50.5
t50.5 -20.5z" />
    <glyph glyph-name="ae" unicode="&#xe6;" horiz-adv-x="835" 
d="M214 -10q-76 0 -122.5 40.5t-46.5 112.5v2q0 76 52.5 119t139.5 43q84 0 152 -29q1 5 2 29t2 29q-1 79 -43 119t-118 40q-68 0 -138 -37l-9 19q76 38 148 38q74 0 120 -35.5t56 -104.5q24 66 72.5 104.5t110.5 38.5q92 0 143.5 -75.5t51.5 -185.5v-10h-377
q2 -108 59 -172.5t138 -64.5q91 0 152 71l15 -14q-66 -77 -168 -77q-61 0 -111.5 33.5t-77.5 94.5q-26 -53 -80 -90.5t-123 -37.5zM410 267h355q-2 95 -49 163t-124 68t-127.5 -64.5t-54.5 -166.5zM216 10q63 0 114.5 37t77.5 95q-19 50 -19 115q-68 30 -151 30
q-77 0 -124 -37t-47 -104v-2q0 -63 40.5 -98.5t108.5 -35.5z" />
    <glyph glyph-name="ccedilla" unicode="&#xe7;" horiz-adv-x="463" 
d="M210 -128l-22 10l67 108q-88 5 -146 77.5t-58 184.5v4q0 113 63 187.5t155 74.5q87 0 155 -72l-15 -15q-62 66 -141 66q-82 0 -138.5 -68.5t-56.5 -172.5v-4q0 -105 55.5 -173.5t138.5 -68.5q79 0 144 71l15 -14q-66 -74 -156 -77z" />
    <glyph glyph-name="egrave" unicode="&#xe8;" horiz-adv-x="499" 
d="M268 -10q-92 0 -154.5 71t-62.5 191v3q0 117 58.5 190t146.5 73q92 0 143.5 -75.5t51.5 -185.5v-10h-378q2 -108 58 -172.5t138 -64.5q89 0 153 76l15 -13q-67 -83 -169 -83zM73 267h356q-2 96 -49 163.5t-125 67.5q-77 0 -127.5 -64.5t-54.5 -166.5zM254 589l-91 104
l23 11l80 -115h-12z" />
    <glyph glyph-name="eacute" unicode="&#xe9;" horiz-adv-x="499" 
d="M268 -10q-92 0 -154.5 71t-62.5 191v3q0 117 58.5 190t146.5 73q92 0 143.5 -75.5t51.5 -185.5v-10h-378q2 -108 58 -172.5t138 -64.5q89 0 153 76l15 -13q-67 -83 -169 -83zM73 267h356q-2 96 -49 163.5t-125 67.5q-77 0 -127.5 -64.5t-54.5 -166.5zM245 589l80 115
l23 -11l-90 -104h-13z" />
    <glyph glyph-name="ecircumflex" unicode="&#xea;" horiz-adv-x="499" 
d="M268 -10q-92 0 -154.5 71t-62.5 191v3q0 117 58.5 190t146.5 73q92 0 143.5 -75.5t51.5 -185.5v-10h-378q2 -108 58 -172.5t138 -64.5q89 0 153 76l15 -13q-67 -83 -169 -83zM73 267h356q-2 96 -49 163.5t-125 67.5q-77 0 -127.5 -64.5t-54.5 -166.5zM156 591l92 116h15
l92 -116h-17l-83 91l-82 -91h-17z" />
    <glyph glyph-name="edieresis" unicode="&#xeb;" horiz-adv-x="499" 
d="M268 -10q-92 0 -154.5 71t-62.5 191v3q0 117 58.5 190t146.5 73q92 0 143.5 -75.5t51.5 -185.5v-10h-378q2 -108 58 -172.5t138 -64.5q89 0 153 76l15 -13q-67 -83 -169 -83zM73 267h356q-2 96 -49 163.5t-125 67.5q-77 0 -127.5 -64.5t-54.5 -166.5zM294 605v45h33v-45
h-33zM183 605v45h32v-45h-32z" />
    <glyph glyph-name="igrave" unicode="&#xec;" horiz-adv-x="193" 
d="M86 0v508h21v-508h-21zM95 588l-91 104l23 11l80 -115h-12z" />
    <glyph glyph-name="iacute" unicode="&#xed;" horiz-adv-x="193" 
d="M87 588l80 115l23 -11l-90 -104h-13zM86 0v508h21v-508h-21z" />
    <glyph glyph-name="icircumflex" unicode="&#xee;" horiz-adv-x="193" 
d="M-3 590l92 116h15l92 -116h-17l-83 91l-82 -91h-17zM86 0v508h21v-508h-21z" />
    <glyph glyph-name="idieresis" unicode="&#xef;" horiz-adv-x="193" 
d="M136 604v45h33v-45h-33zM25 604v45h32v-45h-32zM86 0v508h21v-508h-21z" />
    <glyph glyph-name="eth" unicode="&#xf0;" horiz-adv-x="534" 
d="M388 705l-87 -55q182 -180 182 -376v-6q0 -122 -61 -200.5t-154 -78.5q-95 0 -156.5 77t-61.5 186v4q0 113 63 188t154 75q101 0 164 -86q-44 103 -147 205l-99 -63l-11 16l96 61q-41 38 -83 70h32q34 -27 68 -59l90 57zM268 9q81 0 137.5 72t56.5 178v4q0 104 -56 170
t-139 66q-82 0 -138.5 -68.5t-56.5 -174.5v-4q0 -100 56 -171.5t140 -71.5z" />
    <glyph glyph-name="ntilde" unicode="&#xf1;" horiz-adv-x="524" 
d="M81 0v508h21v-121q13 50 58.5 90.5t113.5 40.5q84 0 131 -56t47 -153v-309h-21v308q0 87 -41.5 138.5t-117.5 51.5q-70 0 -120 -56t-50 -138v-304h-21zM321 600q-21 0 -60 29q-38 27 -52 27q-33 0 -50 -59l-14 3q17 76 65 76q21 0 62 -31q36 -26 51 -26q31 0 49 60l14 -3
q-17 -76 -65 -76z" />
    <glyph glyph-name="ograve" unicode="&#xf2;" horiz-adv-x="539" 
d="M270 -10q-96 0 -158 74.5t-62 186.5v4q0 112 62 187.5t158 75.5q95 0 157 -75t62 -187v-4q0 -112 -61.5 -187t-157.5 -75zM270 10q86 0 141.5 69.5t55.5 172.5v4q0 102 -56.5 172t-141.5 70q-86 0 -141.5 -70t-55.5 -172v-4q0 -102 56.5 -172t141.5 -70zM268 589l-91 104
l23 11l80 -115h-12z" />
    <glyph glyph-name="oacute" unicode="&#xf3;" horiz-adv-x="539" 
d="M259 589l80 115l23 -11l-90 -104h-13zM270 -10q-96 0 -158 74.5t-62 186.5v4q0 112 62 187.5t158 75.5q95 0 157 -75t62 -187v-4q0 -112 -61.5 -187t-157.5 -75zM270 10q86 0 141.5 69.5t55.5 172.5v4q0 102 -56.5 172t-141.5 70q-86 0 -141.5 -70t-55.5 -172v-4
q0 -102 56.5 -172t141.5 -70z" />
    <glyph glyph-name="ocircumflex" unicode="&#xf4;" horiz-adv-x="539" 
d="M170 591l92 116h15l92 -116h-17l-83 91l-82 -91h-17zM270 -10q-96 0 -158 74.5t-62 186.5v4q0 112 62 187.5t158 75.5q95 0 157 -75t62 -187v-4q0 -112 -61.5 -187t-157.5 -75zM270 10q86 0 141.5 69.5t55.5 172.5v4q0 102 -56.5 172t-141.5 70q-86 0 -141.5 -70
t-55.5 -172v-4q0 -102 56.5 -172t141.5 -70z" />
    <glyph glyph-name="otilde" unicode="&#xf5;" horiz-adv-x="539" 
d="M270 -10q-96 0 -158 74.5t-62 186.5v4q0 112 62 187.5t158 75.5q95 0 157 -75t62 -187v-4q0 -112 -61.5 -187t-157.5 -75zM270 10q86 0 141.5 69.5t55.5 172.5v4q0 102 -56.5 172t-141.5 70q-86 0 -141.5 -70t-55.5 -172v-4q0 -102 56.5 -172t141.5 -70zM325 600
q-21 0 -60 29q-38 27 -52 27q-33 0 -50 -59l-14 3q17 76 65 76q21 0 62 -31q36 -26 51 -26q31 0 49 60l14 -3q-17 -76 -65 -76z" />
    <glyph glyph-name="odieresis" unicode="&#xf6;" horiz-adv-x="539" 
d="M308 605v45h33v-45h-33zM197 605v45h32v-45h-32zM270 -10q-96 0 -158 74.5t-62 186.5v4q0 112 62 187.5t158 75.5q95 0 157 -75t62 -187v-4q0 -112 -61.5 -187t-157.5 -75zM270 10q86 0 141.5 69.5t55.5 172.5v4q0 102 -56.5 172t-141.5 70q-86 0 -141.5 -70t-55.5 -172
v-4q0 -102 56.5 -172t141.5 -70z" />
    <glyph glyph-name="divide" unicode="&#xf7;" horiz-adv-x="515" 
d="M242 511v49h32v-49h-32zM456 343h-397v18h397v-18zM242 144v49h32v-49h-32z" />
    <glyph glyph-name="oslash" unicode="&#xf8;" horiz-adv-x="539" 
d="M460 513h23l-55 -71q61 -75 61 -186v-4q0 -112 -61.5 -187t-157.5 -75q-87 0 -146 61l-45 -57h-23l55 71q-61 74 -61 186v4q0 112 62 187.5t158 75.5q85 0 145 -62zM72 252q0 -100 53 -169l277 356q-54 59 -133 59q-86 0 -141.5 -70t-55.5 -172v-4zM270 10
q86 0 141.5 69.5t55.5 172.5v4q0 99 -53 168l-277 -356q55 -58 133 -58z" />
    <glyph glyph-name="ugrave" unicode="&#xf9;" horiz-adv-x="524" 
d="M251 -10q-84 0 -131 55.5t-47 152.5v310h21v-309q0 -87 41 -138t118 -51q70 0 120 56t50 137v305h21v-508h-21v121q-13 -50 -58.5 -90.5t-113.5 -40.5zM257 583l-91 104l23 11l80 -115h-12z" />
    <glyph glyph-name="uacute" unicode="&#xfa;" horiz-adv-x="524" 
d="M248 583l80 115l23 -11l-90 -104h-13zM251 -10q-84 0 -131 55.5t-47 152.5v310h21v-309q0 -87 41 -138t118 -51q70 0 120 56t50 137v305h21v-508h-21v121q-13 -50 -58.5 -90.5t-113.5 -40.5z" />
    <glyph glyph-name="ucircumflex" unicode="&#xfb;" horiz-adv-x="524" 
d="M158 585l92 116h15l92 -116h-17l-83 91l-82 -91h-17zM251 -10q-84 0 -131 55.5t-47 152.5v310h21v-309q0 -87 41 -138t118 -51q70 0 120 56t50 137v305h21v-508h-21v121q-13 -50 -58.5 -90.5t-113.5 -40.5z" />
    <glyph glyph-name="udieresis" unicode="&#xfc;" horiz-adv-x="524" 
d="M297 599v45h33v-45h-33zM186 599v45h32v-45h-32zM251 -10q-84 0 -131 55.5t-47 152.5v310h21v-309q0 -87 41 -138t118 -51q70 0 120 56t50 137v305h21v-508h-21v121q-13 -50 -58.5 -90.5t-113.5 -40.5z" />
    <glyph glyph-name="yacute" unicode="&#xfd;" horiz-adv-x="486" 
d="M248 31l182 477h22l-195 -509q-35 -91 -65.5 -121.5t-75.5 -30.5q-40 0 -78 23l10 18q33 -22 68 -22q38 0 64 28t58 110l-202 504h23zM234 583l80 115l23 -11l-90 -104h-13z" />
    <glyph glyph-name="thorn" unicode="&#xfe;" horiz-adv-x="564" 
d="M81 -150v872h21v-361q18 65 69 111t122 46q92 0 152 -75.5t60 -186.5v-4q0 -111 -60 -186.5t-152 -75.5q-71 0 -122 46t-69 110v-296h-21zM292 10q84 0 137.5 69.5t53.5 171.5v4q0 102 -53.5 172.5t-137.5 70.5q-83 0 -137 -71t-54 -171v-4q0 -100 54.5 -171t136.5 -71z
" />
    <glyph glyph-name="ydieresis" unicode="&#xff;" horiz-adv-x="486" 
d="M248 31l182 477h22l-195 -509q-35 -91 -65.5 -121.5t-75.5 -30.5q-40 0 -78 23l10 18q33 -22 68 -22q38 0 64 28t58 110l-202 504h23zM284 599v45h33v-45h-33zM173 599v45h32v-45h-32z" />
    <glyph glyph-name="Amacron" unicode="&#x100;" horiz-adv-x="647" 
d="M36 0l278 705h19l278 -705h-23l-83 210h-364l-83 -210h-22zM149 230h348l-174 443zM204 783v20h236v-20h-236z" />
    <glyph glyph-name="amacron" unicode="&#x101;" horiz-adv-x="487" 
d="M207 -10q-70 0 -116 40.5t-46 112.5v2q0 76 52.5 119t139.5 43q82 0 156 -30v60q0 76 -41.5 117t-116.5 41q-67 0 -140 -38l-9 18q75 40 149 40q89 0 134 -47q45 -45 45 -129v-339h-21v110q-17 -49 -65.5 -84.5t-120.5 -35.5zM208 10q80 0 132.5 51.5t52.5 118.5v76
q-73 31 -155 31q-77 0 -124 -37t-47 -104v-2q0 -63 40 -98.5t101 -35.5zM135 610v19h224v-19h-224z" />
    <glyph glyph-name="Abreve" unicode="&#x102;" horiz-adv-x="647" 
d="M36 0l278 705h19l278 -705h-23l-83 210h-364l-83 -210h-22zM149 230h348l-174 443zM322 762q-49 0 -79 22.5t-36 60.5h17q16 -64 98 -64q80 0 98 64h17q-7 -38 -37 -60.5t-78 -22.5z" />
    <glyph glyph-name="abreve" unicode="&#x103;" horiz-adv-x="487" 
d="M207 -10q-70 0 -116 40.5t-46 112.5v2q0 76 52.5 119t139.5 43q82 0 156 -30v60q0 76 -41.5 117t-116.5 41q-67 0 -140 -38l-9 18q75 40 149 40q89 0 134 -47q45 -45 45 -129v-339h-21v110q-17 -49 -65.5 -84.5t-120.5 -35.5zM208 10q80 0 132.5 51.5t52.5 118.5v76
q-73 31 -155 31q-77 0 -124 -37t-47 -104v-2q0 -63 40 -98.5t101 -35.5zM247 590q-49 0 -78.5 26.5t-35.5 70.5h17q6 -33 30.5 -56t66.5 -23t66.5 23t30.5 56h17q-6 -44 -35.5 -70.5t-78.5 -26.5z" />
    <glyph glyph-name="Aogonek" unicode="&#x104;" horiz-adv-x="647" 
d="M624 -126v-15l-5 -1q-40 0 -64.5 17.5t-24.5 44.5q0 42 56 84l-81 206h-364l-83 -210h-22l278 705h19l278 -705h-11q-48 -41 -48 -78q0 -44 72 -48zM149 230h348l-174 443z" />
    <glyph glyph-name="aogonek" unicode="&#x105;" horiz-adv-x="487" 
d="M433 -126v-15l-5 -1q-40 0 -64.5 17.5t-24.5 44.5q0 42 54 82v108q-17 -49 -65.5 -84.5t-120.5 -35.5q-70 0 -116 40.5t-46 112.5v2q0 76 52.5 119t139.5 43q82 0 156 -30v60q0 76 -41.5 117t-116.5 41q-67 0 -140 -38l-9 18q75 40 149 40q89 0 134 -47q45 -45 45 -129
v-339h-5q-48 -41 -48 -78q0 -44 72 -48zM208 10q80 0 132.5 51.5t52.5 118.5v76q-73 31 -155 31q-77 0 -124 -37t-47 -104v-2q0 -63 40 -98.5t101 -35.5z" />
    <glyph glyph-name="Cacute" unicode="&#x106;" horiz-adv-x="597" 
d="M349 -9q-125 0 -205.5 99t-80.5 257v5q0 156 82.5 256.5t207.5 100.5q69 0 115 -22t89 -63l-14 -15q-84 80 -190 80q-114 0 -191 -96.5t-77 -240.5v-4q0 -148 75.5 -242.5t189.5 -94.5q109 0 196 89l15 -15q-92 -94 -212 -94zM335 762l88 99l22 -12l-94 -87h-16z" />
    <glyph glyph-name="cacute" unicode="&#x107;" horiz-adv-x="463" 
d="M258 589l80 115l23 -11l-90 -104h-13zM266 -10q-92 0 -153.5 73t-61.5 189v4q0 113 63 187.5t155 74.5q87 0 155 -72l-15 -15q-62 66 -141 66q-82 0 -138.5 -68.5t-56.5 -172.5v-4q0 -105 55.5 -173.5t138.5 -68.5q79 0 144 71l15 -14q-68 -77 -160 -77z" />
    <glyph glyph-name="Cdotaccent" unicode="&#x10a;" horiz-adv-x="597" 
d="M328 778v46h35v-46h-35zM349 -9q-125 0 -205.5 99t-80.5 257v5q0 156 82.5 256.5t207.5 100.5q69 0 115 -22t89 -63l-14 -15q-84 80 -190 80q-114 0 -191 -96.5t-77 -240.5v-4q0 -148 75.5 -242.5t189.5 -94.5q109 0 196 89l15 -15q-92 -94 -212 -94z" />
    <glyph glyph-name="cdotaccent" unicode="&#x10b;" horiz-adv-x="463" 
d="M266 -10q-92 0 -153.5 73t-61.5 189v4q0 113 63 187.5t155 74.5q87 0 155 -72l-15 -15q-62 66 -141 66q-82 0 -138.5 -68.5t-56.5 -172.5v-4q0 -105 55.5 -173.5t138.5 -68.5q79 0 144 71l15 -14q-68 -77 -160 -77zM252 605v45h33v-45h-33z" />
    <glyph glyph-name="Ccaron" unicode="&#x10c;" horiz-adv-x="597" 
d="M349 -9q-125 0 -205.5 99t-80.5 257v5q0 156 82.5 256.5t207.5 100.5q69 0 115 -22t89 -63l-14 -15q-84 80 -190 80q-114 0 -191 -96.5t-77 -240.5v-4q0 -148 75.5 -242.5t189.5 -94.5q109 0 196 89l15 -15q-92 -94 -212 -94zM448 860l-94 -97h-17l-94 97h19l83 -74
l84 74h19z" />
    <glyph glyph-name="ccaron" unicode="&#x10d;" horiz-adv-x="463" 
d="M369 707l-93 -116h-14l-92 116h17l82 -91l83 91h17zM266 -10q-92 0 -153.5 73t-61.5 189v4q0 113 63 187.5t155 74.5q87 0 155 -72l-15 -15q-62 66 -141 66q-82 0 -138.5 -68.5t-56.5 -172.5v-4q0 -105 55.5 -173.5t138.5 -68.5q79 0 144 71l15 -14q-68 -77 -160 -77z
" />
    <glyph glyph-name="Dcaron" unicode="&#x10e;" horiz-adv-x="651" 
d="M90 0v700h167q149 0 240 -96t91 -251v-6q0 -154 -91 -250.5t-241 -96.5h-166zM256 680h-144v-660h144q140 0 225 91t85 235v7q0 144 -85.5 235.5t-224.5 91.5zM403 855l-94 -97h-17l-94 97h19l83 -74l84 74h19z" />
    <glyph glyph-name="dcaron" unicode="&#x10f;" horiz-adv-x="557" 
d="M529 573l13 149h24v-2l-27 -147h-10zM263 -10q-92 0 -151.5 75t-59.5 187v4q0 112 59.5 187t151.5 75q72 0 123 -46t69 -111v361h21v-722h-21v146q-18 -64 -69 -110t-123 -46zM264 10q83 0 137.5 70.5t54.5 171.5v4q0 100 -54.5 171t-137.5 71q-85 0 -137.5 -69
t-52.5 -173v-4q0 -103 52.5 -172.5t137.5 -69.5z" />
    <glyph glyph-name="Dcroat" unicode="&#x110;" horiz-adv-x="670" 
d="M109 0v342h-68v20h68v338h174q143 0 233 -96.5t90 -250.5v-6q0 -153 -90 -250t-234 -97h-173zM335 342h-204v-322h151q134 0 218 91.5t84 234.5v7q0 144 -84.5 235.5t-217.5 91.5h-151v-318h204v-20z" />
    <glyph glyph-name="dcroat" unicode="&#x111;" horiz-adv-x="558" 
d="M294 615v18h161v89h21v-89h63v-18h-63v-615h-21v146q-18 -64 -69 -110t-122 -46q-91 0 -151 75.5t-60 186.5v4q0 111 60 186.5t151 75.5q71 0 122 -46t69 -111v254h-161zM265 10q83 0 137 70.5t54 171.5v4q0 100 -54 171t-137 71q-84 0 -137 -70t-53 -172v-4
q0 -102 53 -172t137 -70z" />
    <glyph glyph-name="Emacron" unicode="&#x112;" horiz-adv-x="552" 
d="M176 778v20h236v-20h-236zM90 0v700h404v-20h-382v-318h347v-20h-347v-322h386v-20h-408z" />
    <glyph glyph-name="emacron" unicode="&#x113;" horiz-adv-x="499" 
d="M268 -10q-92 0 -154.5 71t-62.5 191v3q0 117 58.5 190t146.5 73q92 0 143.5 -75.5t51.5 -185.5v-10h-378q2 -108 58 -172.5t138 -64.5q89 0 153 76l15 -13q-67 -83 -169 -83zM73 267h356q-2 96 -49 163.5t-125 67.5q-77 0 -127.5 -64.5t-54.5 -166.5zM143 610v19h224v-19
h-224z" />
    <glyph glyph-name="Ebreve" unicode="&#x114;" horiz-adv-x="552" 
d="M294 757q-49 0 -79 22.5t-36 60.5h17q16 -64 98 -64q80 0 98 64h17q-7 -38 -37 -60.5t-78 -22.5zM90 0v700h404v-20h-382v-318h347v-20h-347v-322h386v-20h-408z" />
    <glyph glyph-name="ebreve" unicode="&#x115;" horiz-adv-x="499" 
d="M268 -10q-92 0 -154.5 71t-62.5 191v3q0 117 58.5 190t146.5 73q92 0 143.5 -75.5t51.5 -185.5v-10h-378q2 -108 58 -172.5t138 -64.5q89 0 153 76l15 -13q-67 -83 -169 -83zM73 267h356q-2 96 -49 163.5t-125 67.5q-77 0 -127.5 -64.5t-54.5 -166.5zM255 590
q-49 0 -78.5 26.5t-35.5 70.5h17q6 -33 30.5 -56t66.5 -23t66.5 23t30.5 56h17q-6 -44 -35.5 -70.5t-78.5 -26.5z" />
    <glyph glyph-name="Edotaccent" unicode="&#x116;" horiz-adv-x="552" 
d="M276 773v46h35v-46h-35zM90 0v700h404v-20h-382v-318h347v-20h-347v-322h386v-20h-408z" />
    <glyph glyph-name="edotaccent" unicode="&#x117;" horiz-adv-x="499" 
d="M268 -10q-92 0 -154.5 71t-62.5 191v3q0 117 58.5 190t146.5 73q92 0 143.5 -75.5t51.5 -185.5v-10h-378q2 -108 58 -172.5t138 -64.5q89 0 153 76l15 -13q-67 -83 -169 -83zM73 267h356q-2 96 -49 163.5t-125 67.5q-77 0 -127.5 -64.5t-54.5 -166.5zM239 605v45h33v-45
h-33z" />
    <glyph glyph-name="Eogonek" unicode="&#x118;" horiz-adv-x="552" 
d="M90 0v700h404v-20h-382v-318h347v-20h-347v-322h386v-20h-26q-48 -41 -48 -78q0 -44 72 -48v-15l-5 -1q-40 0 -64.5 17.5t-24.5 44.5q0 40 51 80h-363z" />
    <glyph glyph-name="eogonek" unicode="&#x119;" horiz-adv-x="499" 
d="M73 267h356q-2 96 -49 163.5t-125 67.5q-77 0 -127.5 -64.5t-54.5 -166.5zM422 86l15 -13q-16 -22 -66 -65q-52 -49 -52 -85q0 -45 73 -49v-15l-6 -1q-40 0 -64.5 17t-24.5 44q0 39 54 89q-41 -18 -83 -18q-92 0 -154.5 71t-62.5 191v3q0 117 58.5 190t146.5 73
q92 0 143.5 -75.5t51.5 -185.5v-10h-378q2 -108 58 -172.5t138 -64.5q89 0 153 76z" />
    <glyph glyph-name="Ecaron" unicode="&#x11a;" horiz-adv-x="552" 
d="M396 855l-94 -97h-17l-94 97h19l83 -74l84 74h19zM90 0v700h404v-20h-382v-318h347v-20h-347v-322h386v-20h-408z" />
    <glyph glyph-name="ecaron" unicode="&#x11b;" horiz-adv-x="499" 
d="M268 -10q-92 0 -154.5 71t-62.5 191v3q0 117 58.5 190t146.5 73q92 0 143.5 -75.5t51.5 -185.5v-10h-378q2 -108 58 -172.5t138 -64.5q89 0 153 76l15 -13q-67 -83 -169 -83zM73 267h356q-2 96 -49 163.5t-125 67.5q-77 0 -127.5 -64.5t-54.5 -166.5zM355 707l-93 -116
h-14l-92 116h17l82 -91l83 91h17z" />
    <glyph glyph-name="Gbreve" unicode="&#x11e;" horiz-adv-x="650" 
d="M350 762q-49 0 -79 22.5t-36 60.5h17q16 -64 98 -64q80 0 98 64h17q-7 -38 -37 -60.5t-78 -22.5zM363 -11q-135 0 -217.5 98t-82.5 260v5q0 154 84 256.5t214 102.5q61 0 105.5 -17.5t88.5 -54.5l-13 -17q-84 69 -182 69q-118 0 -196.5 -98t-78.5 -241v-4
q0 -152 77.5 -245.5t201.5 -93.5q105 0 188 71v248h-212v22h233v-280q-93 -81 -210 -81z" />
    <glyph glyph-name="gbreve" unicode="&#x11f;" horiz-adv-x="550" 
d="M262 -152q-100 0 -188 58l12 19q80 -57 176 -57q87 0 136.5 48.5t49.5 141.5v111q-23 -56 -72.5 -96.5t-115.5 -40.5q-88 0 -148 70t-60 171v3q0 101 60.5 171.5t147.5 70.5q66 0 115.5 -40.5t72.5 -96.5v127h21v-451q0 -101 -55 -156q-55 -53 -152 -53zM261 52
q79 0 134 65.5t55 154.5v4q0 89 -55.5 155.5t-133.5 66.5q-79 0 -132.5 -65t-53.5 -156v-3q0 -92 53.5 -157t132.5 -65zM282 590q-49 0 -78.5 26.5t-35.5 70.5h17q6 -33 30.5 -56t66.5 -23t66.5 23t30.5 56h17q-6 -44 -35.5 -70.5t-78.5 -26.5z" />
    <glyph glyph-name="Gdotaccent" unicode="&#x120;" horiz-adv-x="650" 
d="M333 778v46h35v-46h-35zM363 -11q-135 0 -217.5 98t-82.5 260v5q0 154 84 256.5t214 102.5q61 0 105.5 -17.5t88.5 -54.5l-13 -17q-84 69 -182 69q-118 0 -196.5 -98t-78.5 -241v-4q0 -152 77.5 -245.5t201.5 -93.5q105 0 188 71v248h-212v22h233v-280q-93 -81 -210 -81z
" />
    <glyph glyph-name="gdotaccent" unicode="&#x121;" horiz-adv-x="550" 
d="M262 -152q-100 0 -188 58l12 19q80 -57 176 -57q87 0 136.5 48.5t49.5 141.5v111q-23 -56 -72.5 -96.5t-115.5 -40.5q-88 0 -148 70t-60 171v3q0 101 60.5 171.5t147.5 70.5q66 0 115.5 -40.5t72.5 -96.5v127h21v-451q0 -101 -55 -156q-55 -53 -152 -53zM261 52
q79 0 134 65.5t55 154.5v4q0 89 -55.5 155.5t-133.5 66.5q-79 0 -132.5 -65t-53.5 -156v-3q0 -92 53.5 -157t132.5 -65zM265 605v45h33v-45h-33z" />
    <glyph glyph-name="Gcommaaccent" unicode="&#x122;" horiz-adv-x="650" 
d="M330 -183l-7 13q24 13 25 48h-15v48h33v-32q0 -35 -8.5 -51.5t-27.5 -25.5zM363 -11q-135 0 -217.5 98t-82.5 260v5q0 154 84 256.5t214 102.5q61 0 105.5 -17.5t88.5 -54.5l-13 -17q-84 69 -182 69q-118 0 -196.5 -98t-78.5 -241v-4q0 -152 77.5 -245.5t201.5 -93.5
q105 0 188 71v248h-212v22h233v-280q-93 -81 -210 -81z" />
    <glyph glyph-name="gcommaaccent" unicode="&#x123;" horiz-adv-x="550" 
d="M297 713l7 -13q-24 -13 -25 -48h15v-48h-33v32q0 35 8.5 51.5t27.5 25.5zM262 -152q-100 0 -188 58l12 19q80 -57 176 -57q87 0 136.5 48.5t49.5 141.5v111q-23 -56 -72.5 -96.5t-115.5 -40.5q-88 0 -148 70t-60 171v3q0 101 60.5 171.5t147.5 70.5q66 0 115.5 -40.5
t72.5 -96.5v127h21v-451q0 -101 -55 -156q-55 -53 -152 -53zM261 52q79 0 134 65.5t55 154.5v4q0 89 -55.5 155.5t-133.5 66.5q-79 0 -132.5 -65t-53.5 -156v-3q0 -92 53.5 -157t132.5 -65z" />
    <glyph glyph-name="Hbar" unicode="&#x126;" horiz-adv-x="646" 
d="M24 541v19h68v140h22v-140h418v140h22v-140h68v-19h-68v-541h-22v343h-418v-343h-22v541h-68zM114 363h418v178h-418v-178z" />
    <glyph glyph-name="hbar" unicode="&#x127;" horiz-adv-x="524" 
d="M263 615h-161v-228q13 50 58.5 90.5t113.5 40.5q84 0 131 -56t47 -153v-309h-21v308q0 87 -41.5 138.5t-117.5 51.5q-70 0 -120 -56t-50 -138v-304h-21v615h-62v18h62v89h21v-89h161v-18z" />
    <glyph glyph-name="Imacron" unicode="&#x12a;" horiz-adv-x="215" 
d="M97 0v700h22v-700h-22zM-9 778v20h236v-20h-236z" />
    <glyph glyph-name="imacron" unicode="&#x12b;" horiz-adv-x="193" 
d="M86 0v508h21v-508h-21zM-15 609v19h224v-19h-224z" />
    <glyph glyph-name="Ibreve" unicode="&#x12c;" horiz-adv-x="215" 
d="M97 0v700h22v-700h-22zM109 757q-49 0 -79 22.5t-36 60.5h17q16 -64 98 -64q80 0 98 64h17q-7 -38 -37 -60.5t-78 -22.5z" />
    <glyph glyph-name="ibreve" unicode="&#x12d;" horiz-adv-x="193" 
d="M86 0v508h21v-508h-21zM97 589q-49 0 -78.5 26.5t-35.5 70.5h17q6 -33 30.5 -56t66.5 -23t66.5 23t30.5 56h17q-6 -44 -35.5 -70.5t-78.5 -26.5z" />
    <glyph glyph-name="Iogonek" unicode="&#x12e;" horiz-adv-x="215" 
d="M139 -126v-15l-5 -1q-40 0 -64.5 17.5t-24.5 44.5q0 40 52 81v699h22v-700h-4q-48 -41 -48 -78q0 -44 72 -48z" />
    <glyph glyph-name="iogonek" unicode="&#x12f;" horiz-adv-x="193" 
d="M128 -126v-15l-5 -1q-40 0 -64.5 17.5t-24.5 44.5q0 40 52 81v507h21v-508h-3q-48 -41 -48 -78q0 -44 72 -48zM82 645v57h29v-57h-29z" />
    <glyph glyph-name="Idotaccent" unicode="&#x130;" horiz-adv-x="215" 
d="M97 0v700h22v-700h-22zM91 773v46h35v-46h-35z" />
    <glyph glyph-name="dotlessi" unicode="&#x131;" horiz-adv-x="193" 
d="M86 0v508h21v-508h-21z" />
    <glyph glyph-name="Kcommaaccent" unicode="&#x136;" horiz-adv-x="588" 
d="M275 -177l-7 13q24 13 25 48h-15v48h33v-32q0 -35 -8.5 -51.5t-27.5 -25.5zM90 0v700h22v-460l395 460h28l-260 -301l273 -399h-26l-261 382l-149 -171v-211h-22z" />
    <glyph glyph-name="kcommaaccent" unicode="&#x137;" horiz-adv-x="460" 
d="M217 -177l-7 13q24 13 25 48h-15v48h33v-32q0 -35 -8.5 -51.5t-27.5 -25.5zM81 0v722h21v-543l287 329h26l-195 -221l209 -287h-25l-197 272l-105 -121v-151h-21z" />
    <glyph glyph-name="Lacute" unicode="&#x139;" horiz-adv-x="487" 
d="M102 757l88 99l22 -12l-94 -87h-16zM90 0v700h22v-680h351v-20h-373z" />
    <glyph glyph-name="lacute" unicode="&#x13a;" horiz-adv-x="193" 
d="M86 764l88 99l22 -12l-94 -87h-16zM86 0v722h21v-722h-21z" />
    <glyph glyph-name="Lcommaaccent" unicode="&#x13b;" horiz-adv-x="487" 
d="M250 -180l-7 13q24 13 25 48h-15v48h33v-32q0 -35 -8.5 -51.5t-27.5 -25.5zM90 0v700h22v-680h351v-20h-373z" />
    <glyph glyph-name="lcommaaccent" unicode="&#x13c;" horiz-adv-x="193" 
d="M77 -180l-7 13q24 13 25 48h-15v48h33v-32q0 -35 -8.5 -51.5t-27.5 -25.5zM86 0v722h21v-722h-21z" />
    <glyph glyph-name="Lcaron" unicode="&#x13d;" horiz-adv-x="487" 
d="M215 551l13 149h24v-2l-27 -147h-10zM90 0v700h22v-680h351v-20h-373z" />
    <glyph glyph-name="lcaron" unicode="&#x13e;" horiz-adv-x="193" 
d="M161 573l13 149h24v-2l-27 -147h-10zM86 0v722h21v-722h-21z" />
    <glyph glyph-name="Ldot" unicode="&#x13f;" horiz-adv-x="487" 
d="M345 325v51h30v-51h-30zM90 0v700h22v-680h351v-20h-373z" />
    <glyph glyph-name="ldot" unicode="&#x140;" horiz-adv-x="201" 
d="M180 331v52h30v-52h-30zM86 0v722h21v-722h-21z" />
    <glyph glyph-name="Lslash" unicode="&#x141;" horiz-adv-x="507" 
d="M306 417l-174 -91v-306h351v-20h-373v315l-82 -43v22l82 43v363h22v-351l174 90v-22z" />
    <glyph glyph-name="lslash" unicode="&#x142;" horiz-adv-x="226" 
d="M197 405l-74 -44v-361h-21v349l-73 -44v23l73 43v351h21v-339l74 44v-22z" />
    <glyph glyph-name="Nacute" unicode="&#x143;" horiz-adv-x="663" 
d="M325 752l88 99l22 -12l-94 -87h-16zM90 0v700h20l442 -656v656h21v-700h-18l-444 660v-660h-21z" />
    <glyph glyph-name="nacute" unicode="&#x144;" horiz-adv-x="524" 
d="M255 589l80 115l23 -11l-90 -104h-13zM81 0v508h21v-121q13 50 58.5 90.5t113.5 40.5q84 0 131 -56t47 -153v-309h-21v308q0 87 -41.5 138.5t-117.5 51.5q-70 0 -120 -56t-50 -138v-304h-21z" />
    <glyph glyph-name="Ncommaaccent" unicode="&#x145;" horiz-adv-x="663" 
d="M317 -177l-7 13q24 13 25 48h-15v48h33v-32q0 -35 -8.5 -51.5t-27.5 -25.5zM90 0v700h20l442 -656v656h21v-700h-18l-444 660v-660h-21z" />
    <glyph glyph-name="ncommaaccent" unicode="&#x146;" horiz-adv-x="524" 
d="M245 -177l-7 13q24 13 25 48h-15v48h33v-32q0 -35 -8.5 -51.5t-27.5 -25.5zM81 0v508h21v-121q13 50 58.5 90.5t113.5 40.5q84 0 131 -56t47 -153v-309h-21v308q0 87 -41.5 138.5t-117.5 51.5q-70 0 -120 -56t-50 -138v-304h-21z" />
    <glyph glyph-name="Ncaron" unicode="&#x147;" horiz-adv-x="663" 
d="M439 850l-94 -97h-17l-94 97h19l83 -74l84 74h19zM90 0v700h20l442 -656v656h21v-700h-18l-444 660v-660h-21z" />
    <glyph glyph-name="ncaron" unicode="&#x148;" horiz-adv-x="524" 
d="M365 707l-93 -116h-14l-92 116h17l82 -91l83 91h17zM81 0v508h21v-121q13 50 58.5 90.5t113.5 40.5q84 0 131 -56t47 -153v-309h-21v308q0 87 -41.5 138.5t-117.5 51.5q-70 0 -120 -56t-50 -138v-304h-21z" />
    <glyph glyph-name="Omacron" unicode="&#x14c;" horiz-adv-x="701" 
d="M232 783v20h236v-20h-236zM351 -11q-128 0 -208 101.5t-80 257.5v4q0 156 80 257.5t208 101.5t207.5 -101.5t79.5 -257.5v-4q0 -156 -79.5 -257.5t-207.5 -101.5zM351 9q117 0 191 96.5t74 241.5v5q0 144 -75 241.5t-191 97.5t-190.5 -97t-74.5 -241v-5q0 -144 75 -241.5
t191 -97.5z" />
    <glyph glyph-name="omacron" unicode="&#x14d;" horiz-adv-x="539" 
d="M157 610v19h224v-19h-224zM270 -10q-96 0 -158 74.5t-62 186.5v4q0 112 62 187.5t158 75.5q95 0 157 -75t62 -187v-4q0 -112 -61.5 -187t-157.5 -75zM270 10q86 0 141.5 69.5t55.5 172.5v4q0 102 -56.5 172t-141.5 70q-86 0 -141.5 -70t-55.5 -172v-4q0 -102 56.5 -172
t141.5 -70z" />
    <glyph glyph-name="Obreve" unicode="&#x14e;" horiz-adv-x="701" 
d="M350 762q-49 0 -79 22.5t-36 60.5h17q16 -64 98 -64q80 0 98 64h17q-7 -38 -37 -60.5t-78 -22.5zM351 -11q-128 0 -208 101.5t-80 257.5v4q0 156 80 257.5t208 101.5t207.5 -101.5t79.5 -257.5v-4q0 -156 -79.5 -257.5t-207.5 -101.5zM351 9q117 0 191 96.5t74 241.5v5
q0 144 -75 241.5t-191 97.5t-190.5 -97t-74.5 -241v-5q0 -144 75 -241.5t191 -97.5z" />
    <glyph glyph-name="obreve" unicode="&#x14f;" horiz-adv-x="539" 
d="M270 -10q-96 0 -158 74.5t-62 186.5v4q0 112 62 187.5t158 75.5q95 0 157 -75t62 -187v-4q0 -112 -61.5 -187t-157.5 -75zM270 10q86 0 141.5 69.5t55.5 172.5v4q0 102 -56.5 172t-141.5 70q-86 0 -141.5 -70t-55.5 -172v-4q0 -102 56.5 -172t141.5 -70zM269 590
q-49 0 -78.5 26.5t-35.5 70.5h17q6 -33 30.5 -56t66.5 -23t66.5 23t30.5 56h17q-6 -44 -35.5 -70.5t-78.5 -26.5z" />
    <glyph glyph-name="Ohungarumlaut" unicode="&#x150;" horiz-adv-x="701" 
d="M351 -11q-128 0 -208 101.5t-80 257.5v4q0 156 80 257.5t208 101.5t207.5 -101.5t79.5 -257.5v-4q0 -156 -79.5 -257.5t-207.5 -101.5zM351 9q117 0 191 96.5t74 241.5v5q0 144 -75 241.5t-191 97.5t-190.5 -97t-74.5 -241v-5q0 -144 75 -241.5t191 -97.5zM284 762l86 99
l23 -12l-94 -87h-15zM388 762l85 99l23 -12l-93 -87h-15z" />
    <glyph glyph-name="ohungarumlaut" unicode="&#x151;" horiz-adv-x="539" 
d="M302 589l79 115l24 -11l-91 -104h-12zM210 589l80 115l23 -11l-90 -104h-13zM270 -10q-96 0 -158 74.5t-62 186.5v4q0 112 62 187.5t158 75.5q95 0 157 -75t62 -187v-4q0 -112 -61.5 -187t-157.5 -75zM270 10q86 0 141.5 69.5t55.5 172.5v4q0 102 -56.5 172t-141.5 70
q-86 0 -141.5 -70t-55.5 -172v-4q0 -102 56.5 -172t141.5 -70z" />
    <glyph glyph-name="OE" unicode="&#x152;" horiz-adv-x="965" 
d="M383 0q-141 0 -230.5 99.5t-89.5 248.5v4q0 157 90 252.5t230 95.5h524v-20h-372v-318h338v-20h-338v-322h377v-20h-529zM384 20h129v660h-131q-129 0 -213 -90t-84 -237v-5q0 -142 84.5 -235t214.5 -93z" />
    <glyph glyph-name="oe" unicode="&#x153;" horiz-adv-x="914" 
d="M270 -10q-96 0 -158 74.5t-62 186.5v4q0 112 62 187.5t158 75.5q76 0 132 -49t75 -131q17 84 69.5 132t123.5 48q92 0 143.5 -75.5t51.5 -185.5v-10h-377q1 -108 57.5 -172.5t138.5 -64.5q91 0 152 71l15 -14q-67 -77 -168 -77q-75 0 -132 48t-74 134q-18 -83 -74 -132.5
t-133 -49.5zM270 10q86 0 141.5 69.5t55.5 172.5v4q0 102 -56.5 172t-141.5 70q-86 0 -141.5 -70t-55.5 -172v-4q0 -102 56.5 -172t141.5 -70zM488 267h355q-2 95 -49 163t-125 68q-77 0 -127.5 -64.5t-53.5 -166.5z" />
    <glyph glyph-name="Racute" unicode="&#x154;" horiz-adv-x="611" 
d="M90 0v700h213q126 0 187 -63q51 -51 51 -134v-1q0 -85 -52.5 -135.5t-145.5 -62.5l205 -304h-26l-204 302q-8 -1 -28 -1h-178v-301h-22zM112 321h179q113 0 170.5 48.5t57.5 131.5v1q0 84 -57.5 131t-159.5 47h-190v-359zM278 757l88 99l22 -12l-94 -87h-16z" />
    <glyph glyph-name="racute" unicode="&#x155;" horiz-adv-x="292" 
d="M81 0v508h21v-136q17 60 63 103t112 42v-21h-4q-74 0 -122.5 -64t-48.5 -141v-291h-21zM152 588l80 115l23 -11l-90 -104h-13z" />
    <glyph glyph-name="Rcommaaccent" unicode="&#x156;" horiz-adv-x="611" 
d="M270 -177l-7 13q24 13 25 48h-15v48h33v-32q0 -35 -8.5 -51.5t-27.5 -25.5zM90 0v700h213q126 0 187 -63q51 -51 51 -134v-1q0 -85 -52.5 -135.5t-145.5 -62.5l205 -304h-26l-204 302q-8 -1 -28 -1h-178v-301h-22zM112 321h179q113 0 170.5 48.5t57.5 131.5v1
q0 84 -57.5 131t-159.5 47h-190v-359z" />
    <glyph glyph-name="rcommaaccent" unicode="&#x157;" horiz-adv-x="292" 
d="M81 0v508h21v-136q17 60 63 103t112 42v-21h-4q-74 0 -122.5 -64t-48.5 -141v-291h-21zM74 -180l-7 13q24 13 25 48h-15v48h33v-32q0 -35 -8.5 -51.5t-27.5 -25.5z" />
    <glyph glyph-name="Rcaron" unicode="&#x158;" horiz-adv-x="611" 
d="M392 855l-94 -97h-17l-94 97h19l83 -74l84 74h19zM90 0v700h213q126 0 187 -63q51 -51 51 -134v-1q0 -85 -52.5 -135.5t-145.5 -62.5l205 -304h-26l-204 302q-8 -1 -28 -1h-178v-301h-22zM112 321h179q113 0 170.5 48.5t57.5 131.5v1q0 84 -57.5 131t-159.5 47h-190v-359
z" />
    <glyph glyph-name="rcaron" unicode="&#x159;" horiz-adv-x="292" 
d="M81 0v508h21v-136q17 60 63 103t112 42v-21h-4q-74 0 -122.5 -64t-48.5 -141v-291h-21zM264 706l-93 -116h-14l-92 116h17l82 -91l83 91h17z" />
    <glyph glyph-name="Sacute" unicode="&#x15a;" horiz-adv-x="541" 
d="M276 -9q-135 0 -230 102l16 15q91 -97 216 -97q82 0 133 44t51 112v2q0 62 -41 101.5t-152 78.5q-108 37 -152.5 79.5t-44.5 110.5v2q0 70 56.5 119t141.5 49q111 0 198 -75l-15 -17q-84 72 -184 72q-77 0 -126 -43.5t-49 -103.5v-2q0 -62 40.5 -99.5t146.5 -74.5
q115 -40 159 -84t44 -111v-2q0 -77 -57 -127.5t-151 -50.5zM268 762l88 99l22 -12l-94 -87h-16z" />
    <glyph glyph-name="sacute" unicode="&#x15b;" horiz-adv-x="423" 
d="M205 589l80 115l23 -11l-90 -104h-13zM209 -8q-96 0 -174 68l14 16q73 -64 162 -64q60 0 99.5 31t39.5 78v2q0 45 -33 70.5t-111 58.5q-81 31 -116 60.5t-35 77.5v2q0 52 43 88t112 36q81 0 152 -55l-13 -17q-63 52 -140 52q-59 0 -95.5 -30t-36.5 -74v-1q0 -40 32 -65.5
t107 -55.5q84 -34 120 -64t36 -83v-1q0 -56 -46 -93t-117 -37z" />
    <glyph glyph-name="Scedilla" unicode="&#x15e;" horiz-adv-x="541" 
d="M226 -128l-22 10l67 109q-132 3 -225 102l16 15q91 -97 216 -97q82 0 133 44t51 112v2q0 62 -41 101.5t-152 78.5q-108 37 -152.5 79.5t-44.5 110.5v2q0 70 56.5 119t141.5 49q111 0 198 -75l-15 -17q-84 72 -184 72q-77 0 -126 -43.5t-49 -103.5v-2q0 -62 40.5 -99.5
t146.5 -74.5q115 -40 159 -84t44 -111v-2q0 -74 -54 -124t-143 -54z" />
    <glyph glyph-name="scedilla" unicode="&#x15f;" horiz-adv-x="423" 
d="M159 -128l-22 10l68 110q-94 1 -170 68l14 16q73 -64 162 -64q60 0 99.5 31t39.5 78v2q0 45 -33 70.5t-111 58.5q-81 31 -116 60.5t-35 77.5v2q0 52 43 88t112 36q81 0 152 -55l-13 -17q-63 52 -140 52q-59 0 -95.5 -30t-36.5 -74v-1q0 -40 32 -65.5t107 -55.5
q84 -34 120 -64t36 -83v-1q0 -53 -42.5 -89.5t-109.5 -39.5z" />
    <glyph glyph-name="Scaron" unicode="&#x160;" horiz-adv-x="541" 
d="M276 -9q-135 0 -230 102l16 15q91 -97 216 -97q82 0 133 44t51 112v2q0 62 -41 101.5t-152 78.5q-108 37 -152.5 79.5t-44.5 110.5v2q0 70 56.5 119t141.5 49q111 0 198 -75l-15 -17q-84 72 -184 72q-77 0 -126 -43.5t-49 -103.5v-2q0 -62 40.5 -99.5t146.5 -74.5
q115 -40 159 -84t44 -111v-2q0 -77 -57 -127.5t-151 -50.5zM383 860l-94 -97h-17l-94 97h19l83 -74l84 74h19z" />
    <glyph glyph-name="scaron" unicode="&#x161;" horiz-adv-x="423" 
d="M315 707l-93 -116h-14l-92 116h17l82 -91l83 91h17zM209 -8q-96 0 -174 68l14 16q73 -64 162 -64q60 0 99.5 31t39.5 78v2q0 45 -33 70.5t-111 58.5q-81 31 -116 60.5t-35 77.5v2q0 52 43 88t112 36q81 0 152 -55l-13 -17q-63 52 -140 52q-59 0 -95.5 -30t-36.5 -74v-1
q0 -40 32 -65.5t107 -55.5q84 -34 120 -64t36 -83v-1q0 -56 -46 -93t-117 -37z" />
    <glyph glyph-name="Tcommaaccent" unicode="&#x162;" horiz-adv-x="486" 
d="M224 -180l-7 13q24 13 25 48h-15v48h33v-32q0 -35 -8.5 -51.5t-27.5 -25.5zM232 0v680h-210v20h441v-20h-209v-680h-22z" />
    <glyph glyph-name="tcommaaccent" unicode="&#x163;" horiz-adv-x="316" 
d="M164 -183l-7 13q24 13 25 48h-15v48h33v-32q0 -35 -8.5 -51.5t-27.5 -25.5zM216 -7q-54 0 -83.5 31t-29.5 90v375h-69v19h69v165h22v-165h150v-19h-150v-373q0 -103 91 -103q32 0 59 13v-21q-25 -12 -59 -12z" />
    <glyph glyph-name="Tcaron" unicode="&#x164;" horiz-adv-x="486" 
d="M346 855l-94 -97h-17l-94 97h19l83 -74l84 74h19zM232 0v680h-210v20h441v-20h-209v-680h-22z" />
    <glyph glyph-name="tcaron" unicode="&#x165;" horiz-adv-x="316" 
d="M228 573l13 149h24v-2l-27 -147h-10zM216 -7q-54 0 -83.5 31t-29.5 90v375h-69v19h69v165h22v-165h150v-19h-150v-373q0 -103 91 -103q32 0 59 13v-21q-25 -12 -59 -12z" />
    <glyph glyph-name="Umacron" unicode="&#x16a;" horiz-adv-x="640" 
d="M201 773v20h236v-20h-236zM320 -10q-109 0 -173.5 72.5t-64.5 206.5v431h22v-431q0 -125 59 -192t158 -67q100 0 157.5 66t57.5 192v432h22v-431q0 -135 -64 -207t-174 -72z" />
    <glyph glyph-name="umacron" unicode="&#x16b;" horiz-adv-x="524" 
d="M251 -10q-84 0 -131 55.5t-47 152.5v310h21v-309q0 -87 41 -138t118 -51q70 0 120 56t50 137v305h21v-508h-21v121q-13 -50 -58.5 -90.5t-113.5 -40.5zM146 604v19h224v-19h-224z" />
    <glyph glyph-name="Ubreve" unicode="&#x16c;" horiz-adv-x="640" 
d="M319 751q-49 0 -79 22.5t-36 60.5h17q16 -64 98 -64q80 0 98 64h17q-7 -38 -37 -60.5t-78 -22.5zM320 -10q-109 0 -173.5 72.5t-64.5 206.5v431h22v-431q0 -125 59 -192t158 -67q100 0 157.5 66t57.5 192v432h22v-431q0 -135 -64 -207t-174 -72z" />
    <glyph glyph-name="ubreve" unicode="&#x16d;" horiz-adv-x="524" 
d="M251 -10q-84 0 -131 55.5t-47 152.5v310h21v-309q0 -87 41 -138t118 -51q70 0 120 56t50 137v305h21v-508h-21v121q-13 -50 -58.5 -90.5t-113.5 -40.5zM258 583q-49 0 -78.5 26.5t-35.5 70.5h17q6 -33 30.5 -56t66.5 -23t66.5 23t30.5 56h17q-6 -44 -35.5 -70.5
t-78.5 -26.5z" />
    <glyph glyph-name="Uring" unicode="&#x16e;" horiz-adv-x="640" 
d="M320 -10q-109 0 -173.5 72.5t-64.5 206.5v431h22v-431q0 -125 59 -192t158 -67q100 0 157.5 66t57.5 192v432h22v-431q0 -135 -64 -207t-174 -72zM319 743q-39 0 -65 23.5t-26 58.5t26 58.5t65 23.5t65 -23.5t26 -58.5t-26 -58.5t-65 -23.5zM319 759q31 0 52 18.5
t21 47.5t-21 47.5t-52 18.5t-52.5 -18.5t-21.5 -47.5t21.5 -47.5t52.5 -18.5z" />
    <glyph glyph-name="uring" unicode="&#x16f;" horiz-adv-x="524" 
d="M258 576q-37 0 -62 25t-25 61q0 35 25.5 60t61.5 25t61.5 -25t25.5 -60q0 -36 -25 -61t-62 -25zM258 591q30 0 50 20.5t20 50.5q0 29 -20 49.5t-50 20.5t-50.5 -20.5t-20.5 -49.5q0 -30 20.5 -50.5t50.5 -20.5zM251 -10q-84 0 -131 55.5t-47 152.5v310h21v-309
q0 -87 41 -138t118 -51q70 0 120 56t50 137v305h21v-508h-21v121q-13 -50 -58.5 -90.5t-113.5 -40.5z" />
    <glyph glyph-name="Uhungarumlaut" unicode="&#x170;" horiz-adv-x="640" 
d="M320 -10q-109 0 -173.5 72.5t-64.5 206.5v431h22v-431q0 -125 59 -192t158 -67q100 0 157.5 66t57.5 192v432h22v-431q0 -135 -64 -207t-174 -72zM253 752l86 99l23 -12l-94 -87h-15zM357 752l85 99l23 -12l-93 -87h-15z" />
    <glyph glyph-name="uhungarumlaut" unicode="&#x171;" horiz-adv-x="524" 
d="M251 -10q-84 0 -131 55.5t-47 152.5v310h21v-309q0 -87 41 -138t118 -51q70 0 120 56t50 137v305h21v-508h-21v121q-13 -50 -58.5 -90.5t-113.5 -40.5zM290 583l79 115l24 -11l-91 -104h-12zM198 583l80 115l23 -11l-90 -104h-13z" />
    <glyph glyph-name="Uogonek" unicode="&#x172;" horiz-adv-x="640" 
d="M363 -126v-15l-5 -1q-40 0 -64.5 17.5t-24.5 44.5q0 34 39 70q-105 5 -165.5 76.5t-60.5 202.5v431h22v-431q0 -125 59 -192t158 -67q100 0 157.5 66t57.5 192v432h22v-431q0 -132 -61.5 -204t-168.5 -75q-37 -36 -37 -68q0 -44 72 -48z" />
    <glyph glyph-name="uogonek" unicode="&#x173;" horiz-adv-x="524" 
d="M251 -10q-84 0 -131 55.5t-47 152.5v310h21v-309q0 -87 41 -138t118 -51q70 0 120 56t50 137v305h21v-508h-5q-48 -41 -48 -78q0 -44 72 -48v-15l-5 -1q-40 0 -64.5 17.5t-24.5 44.5q0 42 54 82v119q-13 -50 -58.5 -90.5t-113.5 -40.5z" />
    <glyph glyph-name="Wcircumflex" unicode="&#x174;" horiz-adv-x="884" 
d="M238 -5l-196 705h23l183 -666l185 668h18l186 -668l183 666h22l-196 -705h-19l-185 664l-185 -664h-19zM338 758l94 97h17l94 -97h-19l-84 75l-83 -75h-19z" />
    <glyph glyph-name="wcircumflex" unicode="&#x175;" horiz-adv-x="698" 
d="M249 589l92 116h15l92 -116h-17l-83 91l-82 -91h-17zM192 -4l-152 512h22l138 -474l141 476h16l141 -476l138 474h21l-151 -512h-17l-140 474l-140 -474h-17z" />
    <glyph glyph-name="Ycircumflex" unicode="&#x176;" horiz-adv-x="555" 
d="M267 0v296l-247 404h24l234 -384l233 384h24l-246 -404v-296h-22zM174 753l94 97h17l94 -97h-19l-84 75l-83 -75h-19z" />
    <glyph glyph-name="ycircumflex" unicode="&#x177;" horiz-adv-x="486" 
d="M248 31l182 477h22l-195 -509q-35 -91 -65.5 -121.5t-75.5 -30.5q-40 0 -78 23l10 18q33 -22 68 -22q38 0 64 28t58 110l-202 504h23zM145 585l92 116h15l92 -116h-17l-83 91l-82 -91h-17z" />
    <glyph glyph-name="Ydieresis" unicode="&#x178;" horiz-adv-x="555" 
d="M267 0v296l-247 404h24l234 -384l233 384h24l-246 -404v-296h-22zM320 768v46h34v-46h-34zM200 768v46h34v-46h-34z" />
    <glyph glyph-name="Zacute" unicode="&#x179;" horiz-adv-x="564" 
d="M56 0v14l419 666h-404v20h432v-14l-419 -666h417v-20h-445zM274 757l88 99l22 -12l-94 -87h-16z" />
    <glyph glyph-name="zacute" unicode="&#x17a;" horiz-adv-x="417" 
d="M204 588l80 115l23 -11l-90 -104h-13zM35 0v12l317 477h-306v19h334v-12l-317 -477h318v-19h-346z" />
    <glyph glyph-name="Zdotaccent" unicode="&#x17b;" horiz-adv-x="564" 
d="M268 773v46h35v-46h-35zM56 0v14l419 666h-404v20h432v-14l-419 -666h417v-20h-445z" />
    <glyph glyph-name="zdotaccent" unicode="&#x17c;" horiz-adv-x="417" 
d="M35 0v12l317 477h-306v19h334v-12l-317 -477h318v-19h-346zM198 604v45h33v-45h-33z" />
    <glyph glyph-name="Zcaron" unicode="&#x17d;" horiz-adv-x="564" 
d="M388 855l-94 -97h-17l-94 97h19l83 -74l84 74h19zM56 0v14l419 666h-404v20h432v-14l-419 -666h417v-20h-445z" />
    <glyph glyph-name="zcaron" unicode="&#x17e;" horiz-adv-x="417" 
d="M314 706l-93 -116h-14l-92 116h17l82 -91l83 91h17zM35 0v12l317 477h-306v19h334v-12l-317 -477h318v-19h-346z" />
    <glyph glyph-name="Aringacute" unicode="&#x1fa;" horiz-adv-x="647" 
d="M36 0l266 677q-31 6 -50.5 28t-19.5 52q0 35 26 58t65 23t65 -23t26 -58q0 -30 -19.5 -52t-50.5 -28l267 -677h-23l-83 210h-364l-83 -210h-22zM149 230h348l-174 443zM323 690q32 0 52.5 19t20.5 48q0 28 -20.5 47t-52.5 19q-31 0 -52.5 -19t-21.5 -47q0 -29 21.5 -48
t52.5 -19zM311 867l79 82l22 -12l-84 -70h-17z" />
    <glyph glyph-name="aringacute" unicode="&#x1fb;" horiz-adv-x="487" 
d="M235 800l78 89l22 -11l-86 -78h-14zM207 -10q-70 0 -116 40.5t-46 112.5v2q0 76 52.5 119t139.5 43q82 0 156 -30v60q0 76 -41.5 117t-116.5 41q-67 0 -140 -38l-9 18q75 40 149 40q89 0 134 -47q45 -45 45 -129v-339h-21v110q-17 -49 -65.5 -84.5t-120.5 -35.5zM208 10
q80 0 132.5 51.5t52.5 118.5v76q-73 31 -155 31q-77 0 -124 -37t-47 -104v-2q0 -63 40 -98.5t101 -35.5zM247 591q-37 0 -62 25t-25 61q0 35 25.5 60t61.5 25t61.5 -25t25.5 -60q0 -36 -25 -61t-62 -25zM247 606q30 0 50 20.5t20 50.5q0 29 -20 49.5t-50 20.5t-50.5 -20.5
t-20.5 -49.5q0 -30 20.5 -50.5t50.5 -20.5z" />
    <glyph glyph-name="AEacute" unicode="&#x1fc;" horiz-adv-x="849" 
d="M488 757l88 99l22 -12l-94 -87h-16zM3 0l370 700h417v-20h-371v-318h337v-20h-337v-322h376v-20h-398v210h-260l-111 -210h-23zM148 230h249v450h-12z" />
    <glyph glyph-name="aeacute" unicode="&#x1fd;" horiz-adv-x="835" 
d="M405 588l80 115l23 -11l-90 -104h-13zM214 -10q-76 0 -122.5 40.5t-46.5 112.5v2q0 76 52.5 119t139.5 43q84 0 152 -29q1 5 2 29t2 29q-1 79 -43 119t-118 40q-68 0 -138 -37l-9 19q76 38 148 38q74 0 120 -35.5t56 -104.5q24 66 72.5 104.5t110.5 38.5
q92 0 143.5 -75.5t51.5 -185.5v-10h-377q2 -108 59 -172.5t138 -64.5q91 0 152 71l15 -14q-66 -77 -168 -77q-61 0 -111.5 33.5t-77.5 94.5q-26 -53 -80 -90.5t-123 -37.5zM410 267h355q-2 95 -49 163t-124 68t-127.5 -64.5t-54.5 -166.5zM216 10q63 0 114.5 37t77.5 95
q-19 50 -19 115q-68 30 -151 30q-77 0 -124 -37t-47 -104v-2q0 -63 40.5 -98.5t108.5 -35.5z" />
    <glyph glyph-name="Oslashacute" unicode="&#x1fe;" horiz-adv-x="701" 
d="M609 706h24l-74 -99q79 -101 79 -255v-4q0 -155 -80 -257t-207 -102q-117 0 -196 87l-63 -82h-24l73 98q-78 100 -78 256v4q0 155 80 257t208 102q114 0 195 -87zM351 9q117 0 191 96.5t74 241.5v5q0 141 -70 238l-378 -496q72 -85 183 -85zM85 348q0 -145 70 -238
l378 496q-74 85 -183 85q-117 0 -191 -96.5t-74 -241.5v-5zM338 762l88 99l22 -12l-94 -87h-16z" />
    <glyph glyph-name="oslashacute" unicode="&#x1ff;" horiz-adv-x="539" 
d="M460 513h23l-55 -71q61 -75 61 -186v-4q0 -112 -61.5 -187t-157.5 -75q-87 0 -146 61l-45 -57h-23l55 71q-61 74 -61 186v4q0 112 62 187.5t158 75.5q85 0 145 -62zM72 252q0 -100 53 -169l277 356q-54 59 -133 59q-86 0 -141.5 -70t-55.5 -172v-4zM270 10
q86 0 141.5 69.5t55.5 172.5v4q0 99 -53 168l-277 -356q55 -58 133 -58zM262 589l80 115l23 -11l-90 -104h-13z" />
    <glyph glyph-name="Scommaaccent" unicode="&#x218;" horiz-adv-x="541" 
d="M256 -183l-7 13q24 13 25 48h-15v48h33v-32q0 -35 -8.5 -51.5t-27.5 -25.5zM276 -9q-135 0 -230 102l16 15q91 -97 216 -97q82 0 133 44t51 112v2q0 62 -41 101.5t-152 78.5q-108 37 -152.5 79.5t-44.5 110.5v2q0 70 56.5 119t141.5 49q111 0 198 -75l-15 -17
q-84 72 -184 72q-77 0 -126 -43.5t-49 -103.5v-2q0 -62 40.5 -99.5t146.5 -74.5q115 -40 159 -84t44 -111v-2q0 -77 -57 -127.5t-151 -50.5z" />
    <glyph glyph-name="scommaaccent" unicode="&#x219;" horiz-adv-x="423" 
d="M195 -183l-7 13q24 13 25 48h-15v48h33v-32q0 -35 -8.5 -51.5t-27.5 -25.5zM209 -8q-96 0 -174 68l14 16q73 -64 162 -64q60 0 99.5 31t39.5 78v2q0 45 -33 70.5t-111 58.5q-81 31 -116 60.5t-35 77.5v2q0 52 43 88t112 36q81 0 152 -55l-13 -17q-63 52 -140 52
q-59 0 -95.5 -30t-36.5 -74v-1q0 -40 32 -65.5t107 -55.5q84 -34 120 -64t36 -83v-1q0 -56 -46 -93t-117 -37z" />
    <glyph glyph-name="schwa" unicode="&#x259;" horiz-adv-x="499" 
d="M227 517q92 0 154.5 -71t62.5 -191v-3q0 -117 -58.5 -190t-146.5 -73q-92 0 -143.5 75.5t-51.5 185.5v10h378q-2 108 -58 172.5t-138 64.5q-89 0 -153 -76l-15 13q67 83 169 83zM422 240h-356q2 -96 49 -163.5t125 -67.5q77 0 127.5 64.5t54.5 166.5z" />
    <glyph glyph-name="circumflex" unicode="&#x2c6;" 
d="M152 590l92 116h15l92 -116h-17l-83 91l-82 -91h-17z" />
    <glyph glyph-name="caron" unicode="&#x2c7;" 
d="M352 706l-93 -116h-14l-92 116h17l82 -91l83 91h17z" />
    <glyph glyph-name="breve" unicode="&#x2d8;" 
d="M252 589q-49 0 -78.5 26.5t-35.5 70.5h17q6 -33 30.5 -56t66.5 -23t66.5 23t30.5 56h17q-6 -44 -35.5 -70.5t-78.5 -26.5z" />
    <glyph glyph-name="dotaccent" unicode="&#x2d9;" 
d="M235 604v45h33v-45h-33z" />
    <glyph glyph-name="ring" unicode="&#x2da;" 
d="M252 591q-37 0 -62 25t-25 61q0 35 25.5 60t61.5 25t61.5 -25t25.5 -60q0 -36 -25 -61t-62 -25zM252 606q30 0 50 20.5t20 50.5q0 29 -20 49.5t-50 20.5t-50.5 -20.5t-20.5 -49.5q0 -30 20.5 -50.5t50.5 -20.5z" />
    <glyph glyph-name="ogonek" unicode="&#x2db;" 
d="M311 -126v-15l-5 -1q-40 0 -64.5 17.5t-24.5 44.5q0 43 63 89l9 -7q-50 -43 -50 -80q0 -44 72 -48z" />
    <glyph glyph-name="tilde" unicode="&#x2dc;" 
d="M307 599q-21 0 -60 29q-38 27 -52 27q-33 0 -50 -59l-14 3q17 76 65 76q21 0 62 -31q36 -26 51 -26q31 0 49 60l14 -3q-17 -76 -65 -76z" />
    <glyph glyph-name="hungarumlaut" unicode="&#x2dd;" 
d="M241 588l79 115l24 -11l-91 -104h-12zM149 588l80 115l23 -11l-90 -104h-13z" />
    <glyph glyph-name="commaaccent" unicode="&#x326;" 
d="M234 -180l-7 13q24 13 25 48h-15v48h33v-32q0 -35 -8.5 -51.5t-27.5 -25.5z" />
    <glyph glyph-name="Wgrave" unicode="&#x1e80;" horiz-adv-x="884" 
d="M452 757h-15l-94 87l22 12zM238 -5l-196 705h23l183 -666l185 668h18l186 -668l183 666h22l-196 -705h-19l-185 664l-185 -664h-19z" />
    <glyph glyph-name="wgrave" unicode="&#x1e81;" horiz-adv-x="698" 
d="M192 -4l-152 512h22l138 -474l141 476h16l141 -476l138 474h21l-151 -512h-17l-140 474l-140 -474h-17zM347 588l-91 104l23 11l80 -115h-12z" />
    <glyph glyph-name="Wacute" unicode="&#x1e82;" horiz-adv-x="884" 
d="M430 757l88 99l22 -12l-94 -87h-16zM238 -5l-196 705h23l183 -666l185 668h18l186 -668l183 666h22l-196 -705h-19l-185 664l-185 -664h-19z" />
    <glyph glyph-name="wacute" unicode="&#x1e83;" horiz-adv-x="698" 
d="M338 588l80 115l23 -11l-90 -104h-13zM192 -4l-152 512h22l138 -474l141 476h16l141 -476l138 474h21l-151 -512h-17l-140 474l-140 -474h-17z" />
    <glyph glyph-name="Wdieresis" unicode="&#x1e84;" horiz-adv-x="884" 
d="M484 773v46h34v-46h-34zM364 773v46h34v-46h-34zM238 -5l-196 705h23l183 -666l185 668h18l186 -668l183 666h22l-196 -705h-19l-185 664l-185 -664h-19z" />
    <glyph glyph-name="wdieresis" unicode="&#x1e85;" horiz-adv-x="698" 
d="M388 604v45h33v-45h-33zM277 604v45h32v-45h-32zM192 -4l-152 512h22l138 -474l141 476h16l141 -476l138 474h21l-151 -512h-17l-140 474l-140 -474h-17z" />
    <glyph glyph-name="Ygrave" unicode="&#x1ef2;" horiz-adv-x="555" 
d="M267 0v296l-247 404h24l234 -384l233 384h24l-246 -404v-296h-22zM289 752h-15l-94 87l22 12z" />
    <glyph glyph-name="ygrave" unicode="&#x1ef3;" horiz-adv-x="486" 
d="M248 31l182 477h22l-195 -509q-35 -91 -65.5 -121.5t-75.5 -30.5q-40 0 -78 23l10 18q33 -22 68 -22q38 0 64 28t58 110l-202 504h23zM243 583l-91 104l23 11l80 -115h-12z" />
    <glyph glyph-name="enspace" unicode="&#x2002;" horiz-adv-x="500" 
 />
    <glyph glyph-name="emspace" unicode="&#x2003;" horiz-adv-x="1000" 
 />
    <glyph glyph-name="threeperemspace" unicode="&#x2004;" horiz-adv-x="333" 
 />
    <glyph glyph-name="fourperemspace" unicode="&#x2005;" horiz-adv-x="250" 
 />
    <glyph glyph-name="thinspace" unicode="&#x2009;" horiz-adv-x="122" 
 />
    <glyph glyph-name="hairspace" unicode="&#x200a;" horiz-adv-x="67" 
 />
    <glyph glyph-name="endash" unicode="&#x2013;" horiz-adv-x="491" 
d="M61 287v20h369v-20h-369z" />
    <glyph glyph-name="emdash" unicode="&#x2014;" horiz-adv-x="790" 
d="M61 287v20h668v-20h-668z" />
    <glyph glyph-name="quoteleft" unicode="&#x2018;" horiz-adv-x="142" 
d="M55 577v48q0 35 8.5 52t27.5 26l7 -13q-26 -13 -25 -62h15v-51h-33z" />
    <glyph glyph-name="quoteright" unicode="&#x2019;" horiz-adv-x="142" 
d="M52 575l-7 13q27 12 25 60h-16v52h33v-48q0 -62 -35 -77z" />
    <glyph glyph-name="quotesinglbase" unicode="&#x201a;" horiz-adv-x="142" 
d="M52 -74l-7 13q26 13 25 61h-16v52h33v-49q0 -35 -8.5 -51.5t-26.5 -25.5z" />
    <glyph glyph-name="quotedblleft" unicode="&#x201c;" horiz-adv-x="230" 
d="M142 577v48q0 35 8.5 52t27.5 26l7 -13q-26 -13 -25 -62h16v-51h-34zM55 577v48q0 35 8.5 52t27.5 26l7 -13q-26 -13 -25 -62h15v-51h-33z" />
    <glyph glyph-name="quotedblright" unicode="&#x201d;" horiz-adv-x="230" 
d="M139 575l-7 13q27 12 25 60h-16v52h33v-48q0 -36 -8 -52.5t-27 -24.5zM52 575l-7 13q27 12 25 60h-16v52h33v-48q0 -62 -35 -77z" />
    <glyph glyph-name="quotedblbase" unicode="&#x201e;" horiz-adv-x="230" 
d="M139 -74l-7 13q26 13 25 61h-16v52h33v-49q0 -35 -8 -51.5t-27 -25.5zM52 -74l-7 13q26 13 25 61h-16v52h33v-49q0 -35 -8.5 -51.5t-26.5 -25.5z" />
    <glyph glyph-name="dagger" unicode="&#x2020;" horiz-adv-x="343" 
d="M160 238l5 297l-111 -6v22l111 -6l-5 155h23l-5 -155l111 6v-22l-111 6l5 -297h-23z" />
    <glyph glyph-name="daggerdbl" unicode="&#x2021;" horiz-adv-x="343" 
d="M160 0l5 155l-111 -6v22l111 -6l-5 185l5 185l-111 -6v22l111 -6l-5 155h23l-5 -155l111 6v-22l-111 6l5 -185l-5 -185l111 6v-22l-111 6l5 -155h-23z" />
    <glyph glyph-name="bullet" unicode="&#x2022;" horiz-adv-x="390" 
d="M193 253q-39 0 -65.5 27.5t-26.5 70.5v5q0 43 26.5 70.5t65.5 27.5q40 0 67 -27.5t27 -70.5v-5q0 -43 -27 -70.5t-67 -27.5z" />
    <glyph glyph-name="ellipsis" unicode="&#x2026;" horiz-adv-x="434" 
d="M345 0v52h34v-52h-34zM200 0v52h34v-52h-34zM55 0v52h33v-52h-33z" />
    <glyph glyph-name="perthousand" unicode="&#x2030;" horiz-adv-x="1027" 
d="M183 375q51 0 82.5 43t31.5 111v4q0 67 -32 111.5t-83 44.5q-50 0 -82 -44t-32 -111v-4q0 -66 32.5 -110.5t82.5 -44.5zM183 356q-60 0 -98 49.5t-38 124.5v4q0 73 38 123t98 50t97.5 -50t37.5 -123v-4q0 -75 -37.5 -124.5t-97.5 -49.5zM584 700l-229 -357l-220 -343h-22
l228 354l222 346h21zM515 11q51 0 82.5 44t31.5 111v4q0 67 -32.5 111t-82.5 44t-82 -43.5t-32 -110.5v-4q0 -67 32.5 -111.5t82.5 -44.5zM515 -7q-60 0 -98 49.5t-38 123.5v4q0 74 38 124t98 50t97.5 -50t37.5 -124v-4q0 -74 -37.5 -123.5t-97.5 -49.5zM845 11
q51 0 82.5 43.5t31.5 111.5v4q0 67 -32 111t-83 44t-83 -43.5t-32 -110.5v-4q0 -67 32.5 -111.5t83.5 -44.5zM845 -7q-60 0 -98.5 49.5t-38.5 123.5v4q0 74 38.5 124t98.5 50t97.5 -50t37.5 -124v-4q0 -74 -37.5 -123.5t-97.5 -49.5z" />
    <glyph glyph-name="guilsinglleft" unicode="&#x2039;" horiz-adv-x="260" 
d="M193 47l-156 205v6l156 205l14 -9l-146 -199l146 -198z" />
    <glyph glyph-name="guilsinglright" unicode="&#x203a;" horiz-adv-x="260" 
d="M67 47l-14 10l146 198l-146 199l14 9l155 -205v-6z" />
    <glyph glyph-name="Euro" unicode="&#x20ac;" horiz-adv-x="603" 
d="M547 606l-17 -13q-66 96 -167 96q-82 0 -139 -65t-77 -175h263v-20h-266q-5 -30 -5 -77v-6q0 -37 4 -66h267v-19h-265q16 -116 75.5 -183t144.5 -67q101 0 168 102l16 -12q-75 -110 -184 -110q-93 0 -158 70.5t-83 199.5h-85v19h82q-3 32 -3 66v6q0 35 5 77h-84v20h87
q21 119 84 189.5t153 70.5q111 0 184 -103z" />
    <glyph glyph-name="published" unicode="&#x2117;" horiz-adv-x="731" 
d="M365 -12q-135 0 -227.5 104t-92.5 252v13q0 147 92.5 251t227.5 104t227.5 -104t92.5 -251v-13q0 -148 -92.5 -252t-227.5 -104zM365 5q128 0 215.5 99.5t87.5 239.5v13q0 140 -87 239t-216 99q-128 0 -215 -99.5t-87 -238.5v-13q0 -140 87 -239.5t215 -99.5zM274 165
v372h101q61 0 96 -30t35 -84v-2q0 -55 -36.5 -86.5t-96.5 -31.5h-80v-138h-19zM293 321h80q51 0 82.5 26t31.5 72v2q0 48 -30 73t-82 25h-82v-198z" />
    <glyph glyph-name="servicemark" unicode="&#x2120;" horiz-adv-x="589" 
d="M297 390v310h15l107 -189l108 189h15v-310h-15v280l-107 -187h-2l-106 187v-280h-15zM134 386q-62 0 -105 45l11 11q41 -43 95 -43q34 0 55.5 18.5t21.5 47.5q0 25 -17 41.5t-65 34.5q-49 18 -69 37t-20 50q0 33 26 55t65 22q47 0 89 -33l-9 -13q-41 32 -81 32
q-33 0 -53.5 -18t-20.5 -44t17 -41.5t63 -32.5q51 -19 70.5 -38.5t19.5 -50.5q0 -35 -26 -57.5t-67 -22.5z" />
    <glyph glyph-name="trademark" unicode="&#x2122;" horiz-adv-x="562" 
d="M270 390v310h15l108 -189l107 189h15v-310h-15v280l-107 -187h-2l-106 187v-280h-15zM105 390v295h-90v15h196v-15h-91v-295h-15z" />
    <glyph glyph-name="minus" unicode="&#x2212;" horiz-adv-x="515" 
d="M456 343h-397v18h397v-18z" />
    <glyph glyph-name="Q.alt" horiz-adv-x="704" 
d="M624 -93l-126 127q-65 -45 -147 -45q-128 0 -208 101.5t-80 257.5v4q0 156 80 257.5t208 101.5t207.5 -101.5t79.5 -257.5v-4q0 -97 -32.5 -175.5t-90.5 -126.5l135 -138v-1h-26zM351 9q117 0 191 96.5t74 241.5v5q0 144 -75 241.5t-191 97.5t-190.5 -97t-74.5 -241v-5
q0 -144 75 -241.5t191 -97.5z" />
    <glyph glyph-name="a.alt" horiz-adv-x="557" 
d="M263 -10q-92 0 -151.5 75t-59.5 187v4q0 112 59.5 187t151.5 75q72 0 123 -46t69 -111v147h21v-508h-21v146q-18 -64 -69 -110t-123 -46zM264 10q83 0 137.5 70.5t54.5 171.5v4q0 100 -54.5 171t-137.5 71q-85 0 -137.5 -69t-52.5 -173v-4q0 -103 52.5 -172.5
t137.5 -69.5z" />
    <glyph glyph-name="aacute.alt" horiz-adv-x="557" 
d="M271 589l80 115l23 -11l-90 -104h-13zM263 -10q-92 0 -151.5 75t-59.5 187v4q0 112 59.5 187t151.5 75q72 0 123 -46t69 -111v147h21v-508h-21v146q-18 -64 -69 -110t-123 -46zM264 10q83 0 137.5 70.5t54.5 171.5v4q0 100 -54.5 171t-137.5 71q-85 0 -137.5 -69
t-52.5 -173v-4q0 -103 52.5 -172.5t137.5 -69.5z" />
    <glyph glyph-name="abreve.alt" horiz-adv-x="557" 
d="M263 -10q-92 0 -151.5 75t-59.5 187v4q0 112 59.5 187t151.5 75q72 0 123 -46t69 -111v147h21v-508h-21v146q-18 -64 -69 -110t-123 -46zM264 10q83 0 137.5 70.5t54.5 171.5v4q0 100 -54.5 171t-137.5 71q-85 0 -137.5 -69t-52.5 -173v-4q0 -103 52.5 -172.5
t137.5 -69.5zM282 590q-49 0 -78.5 26.5t-35.5 70.5h17q6 -33 30.5 -56t66.5 -23t66.5 23t30.5 56h17q-6 -44 -35.5 -70.5t-78.5 -26.5z" />
    <glyph glyph-name="acircumflex.alt" horiz-adv-x="557" 
d="M182 591l92 116h15l92 -116h-17l-83 91l-82 -91h-17zM263 -10q-92 0 -151.5 75t-59.5 187v4q0 112 59.5 187t151.5 75q72 0 123 -46t69 -111v147h21v-508h-21v146q-18 -64 -69 -110t-123 -46zM264 10q83 0 137.5 70.5t54.5 171.5v4q0 100 -54.5 171t-137.5 71
q-85 0 -137.5 -69t-52.5 -173v-4q0 -103 52.5 -172.5t137.5 -69.5z" />
    <glyph glyph-name="adieresis.alt" horiz-adv-x="557" 
d="M321 605v45h33v-45h-33zM210 605v45h32v-45h-32zM263 -10q-92 0 -151.5 75t-59.5 187v4q0 112 59.5 187t151.5 75q72 0 123 -46t69 -111v147h21v-508h-21v146q-18 -64 -69 -110t-123 -46zM264 10q83 0 137.5 70.5t54.5 171.5v4q0 100 -54.5 171t-137.5 71
q-85 0 -137.5 -69t-52.5 -173v-4q0 -103 52.5 -172.5t137.5 -69.5z" />
    <glyph glyph-name="agrave.alt" horiz-adv-x="557" 
d="M263 -10q-92 0 -151.5 75t-59.5 187v4q0 112 59.5 187t151.5 75q72 0 123 -46t69 -111v147h21v-508h-21v146q-18 -64 -69 -110t-123 -46zM264 10q83 0 137.5 70.5t54.5 171.5v4q0 100 -54.5 171t-137.5 71q-85 0 -137.5 -69t-52.5 -173v-4q0 -103 52.5 -172.5
t137.5 -69.5zM281 589l-91 104l23 11l80 -115h-12z" />
    <glyph glyph-name="amacron.alt" horiz-adv-x="557" 
d="M263 -10q-92 0 -151.5 75t-59.5 187v4q0 112 59.5 187t151.5 75q72 0 123 -46t69 -111v147h21v-508h-21v146q-18 -64 -69 -110t-123 -46zM264 10q83 0 137.5 70.5t54.5 171.5v4q0 100 -54.5 171t-137.5 71q-85 0 -137.5 -69t-52.5 -173v-4q0 -103 52.5 -172.5
t137.5 -69.5zM170 610v19h224v-19h-224z" />
    <glyph glyph-name="aogonek.alt" horiz-adv-x="557" 
d="M495 -126v-15l-5 -1q-40 0 -64.5 17.5t-24.5 44.5q0 42 54 82v144q-18 -64 -69 -110t-123 -46q-92 0 -151.5 75t-59.5 187v4q0 112 59.5 187t151.5 75q72 0 123 -46t69 -111v147h21v-508h-5q-48 -41 -48 -78q0 -44 72 -48zM264 10q83 0 137.5 70.5t54.5 171.5v4
q0 100 -54.5 171t-137.5 71q-85 0 -137.5 -69t-52.5 -173v-4q0 -103 52.5 -172.5t137.5 -69.5z" />
    <glyph glyph-name="aring.alt" horiz-adv-x="557" 
d="M282 592q-37 0 -62 25t-25 61q0 35 25.5 60t61.5 25t61.5 -25t25.5 -60q0 -36 -25 -61t-62 -25zM282 607q30 0 50 20.5t20 50.5q0 29 -20 49.5t-50 20.5t-50.5 -20.5t-20.5 -49.5q0 -30 20.5 -50.5t50.5 -20.5zM263 -10q-92 0 -151.5 75t-59.5 187v4q0 112 59.5 187
t151.5 75q72 0 123 -46t69 -111v147h21v-508h-21v146q-18 -64 -69 -110t-123 -46zM264 10q83 0 137.5 70.5t54.5 171.5v4q0 100 -54.5 171t-137.5 71q-85 0 -137.5 -69t-52.5 -173v-4q0 -103 52.5 -172.5t137.5 -69.5z" />
    <glyph glyph-name="aring.alt2" horiz-adv-x="487" 
d="M207 -10q-70 0 -116 40.5t-46 112.5v2q0 76 52.5 119t139.5 43q82 0 156 -30v60q0 76 -41.5 117t-116.5 41q-67 0 -140 -38l-9 18q59 31 113 38q-40 23 -40 72q0 35 25.5 60t61.5 25t61.5 -25t25.5 -60q0 -52 -44 -75q48 -10 80 -42q45 -45 45 -129v-339h-21v110
q-17 -49 -65.5 -84.5t-120.5 -35.5zM208 10q80 0 132.5 51.5t52.5 118.5v76q-73 31 -155 31q-77 0 -124 -37t-47 -104v-2q0 -63 40 -98.5t101 -35.5zM246 514q30 0 50 20.5t20 50.5q0 29 -20 49.5t-50 20.5t-50 -20.5t-20 -49.5q0 -30 20.5 -50.5t49.5 -20.5z" />
    <glyph glyph-name="aringacute.alt" horiz-adv-x="557" 
d="M271 800l78 89l22 -11l-86 -78h-14zM282 591q-37 0 -62 25t-25 61q0 35 25.5 60t61.5 25t61.5 -25t25.5 -60q0 -36 -25 -61t-62 -25zM282 606q30 0 50 20.5t20 50.5q0 29 -20 49.5t-50 20.5t-50.5 -20.5t-20.5 -49.5q0 -30 20.5 -50.5t50.5 -20.5zM263 -10
q-92 0 -151.5 75t-59.5 187v4q0 112 59.5 187t151.5 75q72 0 123 -46t69 -111v147h21v-508h-21v146q-18 -64 -69 -110t-123 -46zM264 10q83 0 137.5 70.5t54.5 171.5v4q0 100 -54.5 171t-137.5 71q-85 0 -137.5 -69t-52.5 -173v-4q0 -103 52.5 -172.5t137.5 -69.5z" />
    <glyph glyph-name="aringacute.alt2" horiz-adv-x="487" 
d="M235 709l78 88l22 -11l-86 -77h-14zM207 -10q-70 0 -116 40.5t-46 112.5v2q0 76 52.5 119t139.5 43q82 0 156 -30v60q0 76 -41.5 117t-116.5 41q-67 0 -140 -38l-9 18q59 31 113 38q-40 23 -40 72q0 35 25.5 60t61.5 25t61.5 -25t25.5 -60q0 -52 -44 -75q48 -10 80 -42
q45 -45 45 -129v-339h-21v110q-17 -49 -65.5 -84.5t-120.5 -35.5zM208 10q80 0 132.5 51.5t52.5 118.5v76q-73 31 -155 31q-77 0 -124 -37t-47 -104v-2q0 -63 40 -98.5t101 -35.5zM246 514q30 0 50 20.5t20 50.5q0 29 -20 49.5t-50 20.5t-50 -20.5t-20 -49.5
q0 -30 20.5 -50.5t49.5 -20.5z" />
    <glyph glyph-name="atilde.alt" horiz-adv-x="557" 
d="M263 -10q-92 0 -151.5 75t-59.5 187v4q0 112 59.5 187t151.5 75q72 0 123 -46t69 -111v147h21v-508h-21v146q-18 -64 -69 -110t-123 -46zM264 10q83 0 137.5 70.5t54.5 171.5v4q0 100 -54.5 171t-137.5 71q-85 0 -137.5 -69t-52.5 -173v-4q0 -103 52.5 -172.5
t137.5 -69.5zM337 600q-21 0 -60 29q-38 27 -52 27q-33 0 -50 -59l-14 3q17 76 65 76q21 0 62 -31q36 -26 51 -26q31 0 49 60l14 -3q-17 -76 -65 -76z" />
    <glyph glyph-name="three.alt" horiz-adv-x="474" 
d="M225 -11q-123 0 -202 100l17 14q32 -42 80.5 -68t105.5 -26q77 0 130 48t53 124v1q0 79 -56 122t-149 43h-53v20h53q85 0 138.5 48t53.5 120v1q0 67 -47 111t-123 44q-103 0 -173 -95l-17 13q34 46 83 74t108 28q85 0 138 -50t53 -124v-1q0 -69 -42.5 -116.5
t-106.5 -60.5q71 -12 116.5 -57t45.5 -119v-1q0 -84 -59.5 -138.5t-146.5 -54.5z" />
    <glyph glyph-name="registered.alt" horiz-adv-x="731" 
d="M365 -12q-135 0 -227.5 104t-92.5 252v13q0 147 92.5 251t227.5 104t227.5 -104t92.5 -251v-13q0 -148 -92.5 -252t-227.5 -104zM365 5q128 0 215.5 99.5t87.5 239.5v13q0 140 -87 239t-216 99q-128 0 -215 -99.5t-87 -238.5v-13q0 -140 87 -239.5t215 -99.5zM255 173
v372h117q66 0 100 -37q26 -28 26 -69v-3q0 -43 -25.5 -69.5t-70.5 -34.5l104 -159h-23l-101 156q-7 -1 -23 -1h-84v-155h-20zM275 346h94q51 0 80 24t29 66v2q0 43 -28.5 65.5t-78.5 22.5h-96v-180z" />
    <glyph glyph-name="NUL" horiz-adv-x="0" 
 />
    <glyph glyph-name="hfjslug" horiz-adv-x="698" 
d="M646 -200h-208l-8 14h-163l-8 -14h-207v303q14 0 23 9.5t9 22.5t-9.5 22.5t-22.5 9.5v554h100l30 79h334l29 -79h101v-921zM402 563v-172h15v78h38v14h-38v66h43v14h-58zM186 563v-172h15v79h47v-79h15v172h-15v-79h-47v79h-15zM462 394q10 -4 21 -4q31 0 31 36v137h-16
v-137q0 -22 -16 -22q-8 0 -20 5v-15zM373 465l-13 3q-4 -18 -8 -30h-1l-16 31q23 21 23 42q0 31 -27 31q-12 0 -20 -9t-8 -22t14 -39q-23 -18 -23 -47q0 -16 8 -26.5t21 -10.5q19 0 29 24h1l12 -24l12 6l-17 32q6 14 13 39zM525 323v-46h8v12l8 8l15 -20h10l-20 26l18 20
h-10l-20 -24h-1v24h-8zM490 292l10 -15h9l-12 17q10 4 10 14q0 15 -17 15h-20v-46h8v15h12zM428 276q10 0 17 7t7 17q0 9 -7 16.5t-17 7.5t-17 -7.5t-7 -16.5q0 -10 7 -17t17 -7zM372 301l-13 22h-9l18 -29v-17h8v17l18 29h-9zM195 323v-46h34v7h-26v13h23v7h-23v12h26v7
h-34zM134 323v-46h8v32l25 -32h7v46h-8v-32l-25 32h-7zM243 323l14 -47h8l11 34h1l11 -34h8l14 47h-8l-10 -35h-1l-11 35h-7l-11 -35h-1l-10 35h-8zM329 479q-12 22 -12 32q0 19 14 19q13 0 13 -19q0 -15 -15 -32zM344 423q-8 -21 -20 -21q-16 0 -16 25q0 19 16 35zM489 299
h-11v17h11q10 0 10 -8q0 -9 -10 -9zM428 283q-16 0 -16 17q0 6 4.5 11.5t11.5 5.5t11.5 -5.5t4.5 -11.5q0 -17 -16 -17z" />
    <glyph glyph-name="i.dot" horiz-adv-x="193" 
d="M82 645v57h29v-57h-29zM86 0v508h21v-508h-21z" />
    <glyph glyph-name="caron.alt" 
d="M226 573l13 149h24v-2l-27 -147h-10z" />
    <glyph glyph-name="acute.cap" 
d="M205 757l88 99l22 -12l-94 -87h-16z" />
    <glyph glyph-name="hungarumlaut.cap" 
d="M141 757l86 99l23 -12l-94 -87h-15zM245 757l85 99l23 -12l-93 -87h-15z" />
    <glyph glyph-name="grave.cap" 
d="M298 757h-15l-94 87l22 12z" />
    <glyph glyph-name="circumflex.cap" 
d="M149 758l94 97h17l94 -97h-19l-84 75l-83 -75h-19z" />
    <glyph glyph-name="caron.cap" 
d="M354 855l-94 -97h-17l-94 97h19l83 -74l84 74h19z" />
    <glyph glyph-name="breve.cap" 
d="M252 757q-49 0 -79 22.5t-36 60.5h17q16 -64 98 -64q80 0 98 64h17q-7 -38 -37 -60.5t-78 -22.5z" />
    <glyph glyph-name="tilde.cap" 
d="M310 767q-21 0 -62 26q-42 24 -55 24q-31 0 -49 -53l-14 3q18 69 65 69q22 0 64 -27q39 -22 53 -22q32 0 49 52l14 -3q-16 -69 -65 -69z" />
    <glyph glyph-name="macron.cap" 
d="M134 778v20h236v-20h-236z" />
    <glyph glyph-name="dieresis.cap" 
d="M295 773v46h34v-46h-34zM175 773v46h34v-46h-34z" />
    <glyph glyph-name="dotaccent.cap" 
d="M234 773v46h35v-46h-35z" />
    <glyph glyph-name="ring.cap" 
d="M252 758q-39 0 -65 23.5t-26 58.5t26 58.5t65 23.5t65 -23.5t26 -58.5t-26 -58.5t-65 -23.5zM252 774q31 0 52 18.5t21 47.5t-21 47.5t-52 18.5t-52.5 -18.5t-21.5 -47.5t21.5 -47.5t52.5 -18.5z" />
    </font>
</defs>
</svg>
