<?xml version="1.0" standalone="no"?>
<!DOCTYPE svg PUBLIC "-//W3C//DTD SVG 1.1//EN" "http://www.w3.org/Graphics/SVG/1.1/DTD/svg11.dtd" >
<svg xmlns="http://www.w3.org/2000/svg" xmlns:xlink="http://www.w3.org/1999/xlink" version="1.1">
<metadata>
Created by FontForge 20161003 at Mon Jul 17 05:45:25 2017
 By www-data
Copyright (C) 2001, 2008 Hoefler &#38; Frere-Jones. http://www.typography.com
</metadata>
<defs>
<font id="GothamNarrowMedium" horiz-adv-x="353" >
  <font-face 
    font-family="GothamNarrowMedium"
    font-weight="350"
    font-stretch="condensed"
    units-per-em="1000"
    panose-1="0 0 0 0 0 0 0 0 0 0"
    ascent="800"
    descent="-200"
    x-height="530"
    cap-height="700"
    bbox="-197 -255 1061 985"
    underline-thickness="50"
    underline-position="-150"
    unicode-range="U+0020-FB04"
  />
<missing-glyph horiz-adv-x="500" 
d="M0 -200v1000h500v-1000h-500zM71 750l179 -390l179 390h-358zM50 -76l172 376l-172 376v-752zM450 676l-172 -376l172 -376v752zM250 240l-179 -390h358z" />
    <glyph glyph-name="f_f" unicode="ff" horiz-adv-x="658" 
d="M416 0v433h-57v94h57v41q0 82 41 121q38 38 110 38q45 0 80 -11v-95q-34 9 -55 9q-63 0 -63 -73v-30h117v-94h-116v-433h-114zM88 0v433h-59v94h59v41q0 82 39 121q40 38 111 38q45 0 80 -11v-95q-32 9 -55 9q-63 0 -63 -73v-30h116v-94h-115v-433h-113z" />
    <glyph glyph-name="fi" unicode="fi" horiz-adv-x="582" 
d="M88 0v433h-59v94h59v41q0 82 39 121q40 38 111 38q45 0 80 -11v-95q-32 9 -55 9q-63 0 -63 -73v-30h117v-94h-116v-433h-113zM399 0v530h113v-530h-113zM396 607v111h120v-111h-120z" />
    <glyph glyph-name="fl" unicode="fl" horiz-adv-x="582" 
d="M88 0v433h-59v94h59v41q0 82 39 121q40 38 111 38q45 0 80 -11v-95q-32 9 -55 9q-63 0 -63 -73v-30h117v-94h-116v-433h-113zM399 0v722h113v-722h-113z" />
    <glyph glyph-name="f_f_i" unicode="ffi" horiz-adv-x="910" 
d="M416 0v433h-57v94h57v41q0 82 41 121q38 38 110 38q45 0 80 -11v-95q-34 9 -55 9q-63 0 -63 -73v-30h117v-94h-116v-433h-114zM88 0v433h-59v94h59v41q0 82 39 121q40 38 111 38q45 0 80 -11v-95q-32 9 -55 9q-63 0 -63 -73v-30h116v-94h-115v-433h-113zM728 0v530h113
v-530h-113zM724 607v111h120v-111h-120z" />
    <glyph glyph-name="f_f_l" unicode="ffl" horiz-adv-x="910" 
d="M416 0v433h-57v94h57v41q0 82 41 121q38 38 110 38q45 0 80 -11v-95q-34 9 -55 9q-63 0 -63 -73v-30h117v-94h-116v-433h-114zM88 0v433h-59v94h59v41q0 82 39 121q40 38 111 38q45 0 80 -11v-95q-32 9 -55 9q-63 0 -63 -73v-30h116v-94h-115v-433h-113zM728 0v722h113
v-722h-113z" />
    <glyph glyph-name=".notdef" horiz-adv-x="500" 
d="M0 -200v1000h500v-1000h-500zM71 750l179 -390l179 390h-358zM50 -76l172 376l-172 376v-752zM450 676l-172 -376l172 -376v752zM250 240l-179 -390h358z" />
    <glyph glyph-name=".null" horiz-adv-x="0" 
 />
    <glyph glyph-name="nonmarkingreturn" horiz-adv-x="333" 
 />
    <glyph glyph-name="space" unicode=" " horiz-adv-x="258" 
 />
    <glyph glyph-name="exclam" unicode="!" horiz-adv-x="276" 
d="M107 217l-36 448v35h134v-35l-36 -448h-62zM74 0v133h128v-133h-128z" />
    <glyph glyph-name="quotedbl" unicode="&#x22;" horiz-adv-x="434" 
d="M253 402l16 298h126v-6l-87 -292h-55zM55 402l17 298h126v-6l-87 -292h-56z" />
    <glyph glyph-name="numbersign" unicode="#" horiz-adv-x="605" 
d="M541 262v-99h-103l-24 -163h-94l23 163h-138l-23 -163h-94l23 163h-79v99h94l26 180h-89v99h103l23 159h95l-23 -159h138l23 159h94l-23 -159h79v-99h-94l-26 -180h89zM245 444l-27 -184h141l27 184h-141z" />
    <glyph glyph-name="dollar" unicode="$" horiz-adv-x="554" 
d="M494 624l-60 -86q-59 48 -114 60v-197q100 -38 143.5 -86.5t43.5 -122.5v-2q0 -77 -50.5 -128t-134.5 -62v-100h-80v100q-122 13 -208 95l64 85q70 -65 146 -79v206q-98 38 -141 84t-43 121v1q0 75 50 125.5t132 61.5v62h80v-63q97 -10 172 -75zM396 187q0 30 -16.5 51
t-59.5 41v-179q76 16 76 85v2zM172 519q0 -29 15.5 -49t56.5 -40v171q-35 -7 -53.5 -29t-18.5 -52v-1z" />
    <glyph glyph-name="percent" unicode="%" horiz-adv-x="759" 
d="M189 348q-65 0 -106.5 50t-41.5 126v7q0 76 42 126t107 50t106.5 -50t41.5 -125v-7q0 -76 -41.5 -126.5t-107.5 -50.5zM189 633q-30 0 -47.5 -28.5t-17.5 -73.5v-5q0 -46 18.5 -75t47.5 -29q30 0 47.5 28.5t17.5 74.5v4q0 46 -18.5 75t-47.5 29zM352 369l211 331h89
l-244 -370l-212 -330h-88zM569 -7q-65 0 -106.5 49.5t-41.5 125.5v7q0 77 41.5 127t107.5 50q65 0 106.5 -50t41.5 -126v-7q0 -76 -41.5 -126t-107.5 -50zM570 67q30 0 47.5 28t17.5 74v5q0 46 -18.5 75t-47.5 29q-30 0 -47.5 -28.5t-17.5 -74.5v-4q0 -46 18.5 -75t47.5 -29
z" />
    <glyph glyph-name="ampersand" unicode="&#x26;" horiz-adv-x="615" 
d="M508 -13l-78 89q-83 -86 -190 -86q-90 0 -149 54t-59 141v3q0 128 137 201q-59 83 -59 151v4q0 69 50.5 118t131.5 49q75 0 122.5 -46t47.5 -115v-3q0 -118 -139 -185l108 -129q28 49 58 127l89 -37q-37 -101 -81 -167l96 -110zM266 428q94 45 94 114v2q0 33 -19.5 54
t-50.5 21q-33 0 -53.5 -22.5t-20.5 -55.5v-2q0 -47 50 -111zM253 87q59 0 116 59l-140 169q-81 -45 -81 -122v-3q0 -45 29.5 -74t75.5 -29z" />
    <glyph glyph-name="quotesingle" unicode="'" horiz-adv-x="237" 
d="M55 402l17 298h127v-6l-88 -292h-56z" />
    <glyph glyph-name="parenleft" unicode="(" horiz-adv-x="392" 
d="M311 -138q-255 131 -255 426q0 293 255 426l45 -74q-188 -121 -188 -352t188 -352z" />
    <glyph glyph-name="parenright" unicode=")" horiz-adv-x="392" 
d="M82 -138l-45 74q187 121 187 352t-187 352l45 74q255 -134 255 -426q0 -294 -255 -426z" />
    <glyph glyph-name="asterisk" unicode="*" horiz-adv-x="389" 
d="M160 389l14 120l-93 -71l-35 60l107 47l-107 48l35 60l93 -71l-14 120h69l-14 -120l92 71l36 -60l-107 -48l107 -47l-36 -60l-92 71l14 -120h-69z" />
    <glyph glyph-name="plus" unicode="+" horiz-adv-x="554" 
d="M224 129v171h-169v104h169v171h107v-171h168v-104h-168v-171h-107z" />
    <glyph glyph-name="comma" unicode="," horiz-adv-x="248" 
d="M42 -145l-13 49q90 17 82 96h-51v133h128v-112q0 -78 -36.5 -118t-109.5 -48z" />
    <glyph glyph-name="hyphen" unicode="-" horiz-adv-x="380" 
d="M51 250v112h278v-112h-278z" />
    <glyph glyph-name="period" unicode="." horiz-adv-x="248" 
d="M60 0v133h128v-133h-128z" />
    <glyph glyph-name="slash" unicode="/" horiz-adv-x="453" 
d="M-20 -119l382 908h98l-382 -908h-98z" />
    <glyph glyph-name="zero" unicode="0" horiz-adv-x="627" 
d="M313 -11q-121 0 -192.5 97t-71.5 258v11q0 160 72.5 258t193.5 98q120 0 192 -97.5t72 -257.5v-11q0 -160 -72.5 -258t-193.5 -98zM315 95q66 0 105.5 67t39.5 183v8q0 116 -40.5 184t-106.5 68t-106 -67t-40 -183v-8q0 -116 40.5 -184t107.5 -68z" />
    <glyph glyph-name="one" unicode="1" horiz-adv-x="349" 
d="M152 0v584l-110 -33l-19 100l162 54h82v-705h-115z" />
    <glyph glyph-name="two" unicode="2" horiz-adv-x="535" 
d="M43 0v92l214 229q61 63 84.5 101.5t23.5 80.5q0 46 -29 73t-73 27q-40 0 -72 -21.5t-68 -68.5l-77 71q91 126 227 126q93 0 151.5 -54t58.5 -143v-2q0 -67 -32 -119.5t-114 -134.5l-140 -152h289v-105h-443z" />
    <glyph glyph-name="three" unicode="3" horiz-adv-x="533" 
d="M254 -11q-136 0 -224 96l72 82q66 -73 151 -73q50 0 82.5 30.5t32.5 80.5v3q0 53 -42.5 82.5t-116.5 29.5h-35l-15 73l170 203h-265v104h410v-91l-177 -203q81 -12 133.5 -60.5t52.5 -133.5v-3q0 -98 -64 -159t-165 -61z" />
    <glyph glyph-name="four" unicode="4" horiz-adv-x="593" 
d="M356 0v152h-310l-16 84l333 468h103v-455h87v-97h-87v-152h-110zM158 249h198v281z" />
    <glyph glyph-name="five" unicode="5" horiz-adv-x="540" 
d="M253 -11q-123 0 -216 88l66 86q75 -67 149 -67q56 0 90.5 34t34.5 91v2q0 54 -36 86t-93 32q-52 0 -106 -26l-68 45l19 340h370v-106h-272l-11 -166q50 16 93 16q95 0 157 -55.5t62 -161.5v-2q0 -107 -66.5 -171.5t-172.5 -64.5z" />
    <glyph glyph-name="six" unicode="6" horiz-adv-x="575" 
d="M294 -11q-101 0 -164 63q-81 83 -81 271v7q0 178 71 279.5t200 101.5q96 0 179 -64l-57 -92q-62 50 -125 50q-72 0 -110 -63t-40 -159q59 64 147 64q90 0 151.5 -57.5t61.5 -160.5v-2q0 -105 -66.5 -171.5t-166.5 -66.5zM293 91q55 0 87 36.5t32 93.5v2q0 57 -33 91.5
t-88 34.5q-54 0 -87.5 -35t-33.5 -91v-2q0 -58 33.5 -94t89.5 -36z" />
    <glyph glyph-name="seven" unicode="7" horiz-adv-x="528" 
d="M90 0l269 594h-305v106h431v-87l-269 -613h-126z" />
    <glyph glyph-name="eight" unicode="8" horiz-adv-x="556" 
d="M278 -10q-104 0 -171 55t-67 144v3q0 119 114 171q-94 52 -94 156v4q0 81 62 134t156 53t155.5 -52.5t61.5 -134.5v-4q0 -105 -94 -156q115 -54 115 -169v-4q0 -91 -67 -145.5t-171 -54.5zM278 405q46 0 76.5 29.5t30.5 76.5v2q0 44 -30 72.5t-77 28.5t-77 -28t-30 -73
v-2q0 -46 30.5 -76t76.5 -30zM278 87q56 0 90 30.5t34 79.5v2q0 50 -35 80.5t-89 30.5t-89.5 -30.5t-35.5 -80.5v-2q0 -49 34.5 -79.5t90.5 -30.5z" />
    <glyph glyph-name="nine" unicode="9" horiz-adv-x="574" 
d="M257 95q71 0 110 62t41 154q-57 -65 -146 -65q-94 0 -154 58.5t-60 162.5v3q0 105 65.5 173t166.5 68t165 -64q81 -81 81 -270v-7q0 -180 -72 -280.5t-199 -100.5q-103 0 -190 70l58 92q67 -56 134 -56zM283 344q55 0 88 36t33 94v1q0 60 -33.5 97t-89.5 37
q-55 0 -87 -37.5t-32 -96.5v-2q0 -59 33 -94t88 -35z" />
    <glyph glyph-name="colon" unicode=":" horiz-adv-x="258" 
d="M65 397v133h128v-133h-128zM65 0v133h128v-133h-128z" />
    <glyph glyph-name="semicolon" unicode=";" horiz-adv-x="258" 
d="M65 397v133h128v-133h-128zM47 -145l-13 49q90 17 82 96h-51v133h128v-112q0 -78 -36.5 -118t-109.5 -48z" />
    <glyph glyph-name="less" unicode="&#x3c;" horiz-adv-x="554" 
d="M480 92l-424 209v102l424 209v-115l-309 -144l309 -145v-116z" />
    <glyph glyph-name="equal" unicode="=" horiz-adv-x="554" 
d="M61 412v107h432v-107h-432zM61 185v107h432v-107h-432z" />
    <glyph glyph-name="greater" unicode="&#x3e;" horiz-adv-x="554" 
d="M75 92v115l309 144l-309 145v116l423 -209v-102z" />
    <glyph glyph-name="question" unicode="?" horiz-adv-x="473" 
d="M175 217l-17 166l5 5q161 15 161 118v2q0 42 -29 68t-76 26q-72 0 -136 -66l-66 78q87 94 207 94q97 0 156 -54t59 -142v-2q0 -156 -178 -198l-10 -95h-76zM148 0v133h128v-133h-128z" />
    <glyph glyph-name="at" unicode="@" horiz-adv-x="877" 
d="M439 -154q-169 0 -281.5 116.5t-111.5 293.5q0 121 52 225.5t146 167t208 62.5q160 0 269.5 -110t109.5 -259q0 -123 -53 -198.5t-132 -75.5q-100 0 -131 76q-61 -76 -140 -76q-66 0 -109 46t-43 124q0 109 61.5 189t142.5 80q82 0 121 -75l12 61l92 -15l-44 -252
q-6 -29 -6 -51q0 -30 17 -46.5t48 -16.5q52 0 88 64.5t36 166.5q0 133 -97.5 232t-242.5 99q-157 0 -261.5 -124t-104.5 -294q0 -163 99.5 -268t255.5 -105q116 0 217 60l19 -31q-110 -66 -237 -66zM403 150q41 0 71 32q23 23 38 64t15 81q0 43 -23.5 69t-60.5 26
q-41 0 -73 -32q-23 -23 -37 -64.5t-14 -80.5q0 -46 23 -70.5t61 -24.5z" />
    <glyph glyph-name="A" unicode="A" horiz-adv-x="674" 
d="M24 0l257 704h112l257 -704h-121l-58 165h-272l-58 -165h-117zM235 268h200l-100 281z" />
    <glyph glyph-name="B" unicode="B" horiz-adv-x="622" 
d="M76 0v700h250q119 0 179 -60q47 -47 47 -118v-3q0 -106 -103 -157q133 -47 133 -167v-4q0 -91 -67.5 -141t-181.5 -50h-257zM436 501v2q0 44 -31 68.5t-87 24.5h-128v-194h121q58 0 91.5 25.5t33.5 73.5zM466 205q0 46 -35 72.5t-100 26.5h-141v-200h146q61 0 95.5 26
t34.5 73v2z" />
    <glyph glyph-name="C" unicode="C" horiz-adv-x="617" 
d="M357 -10q-135 0 -221 98.5t-86 257.5v7q0 158 88 257.5t225 99.5q125 0 220 -87l-70 -89q-73 68 -150 68q-83 0 -138 -69t-55 -180v-4q0 -112 54.5 -181.5t138.5 -69.5q79 0 155 73l68 -82q-96 -99 -229 -99z" />
    <glyph glyph-name="D" unicode="D" horiz-adv-x="672" 
d="M76 0v700h214q150 0 241 -95.5t91 -249.5v-8q0 -154 -91.5 -250.5t-240.5 -96.5h-214zM289 595h-97v-490h97q97 0 155 64.5t58 176.5v6q0 112 -58 177.5t-155 65.5z" />
    <glyph glyph-name="E" unicode="E" horiz-adv-x="568" 
d="M76 0v700h441v-105h-326v-190h289v-105h-289v-195h331v-105h-446z" />
    <glyph glyph-name="F" unicode="F" horiz-adv-x="552" 
d="M76 0v700h439v-107h-323v-197h286v-106h-286v-290h-116z" />
    <glyph glyph-name="G" unicode="G" horiz-adv-x="670" 
d="M370 -10q-143 0 -231.5 97t-88.5 258v8q0 155 90 256t231 101q128 0 222 -79l-69 -92q-70 63 -155 63q-86 0 -142.5 -70t-56.5 -178v-6q0 -116 57 -184t148 -68q72 0 124 37v154h-147v102h257v-314q-107 -85 -239 -85z" />
    <glyph glyph-name="H" unicode="H" horiz-adv-x="658" 
d="M76 0v700h116v-294h275v294h116v-700h-116v298h-275v-298h-116z" />
    <glyph glyph-name="I" unicode="I" horiz-adv-x="279" 
d="M82 0v700h116v-700h-116z" />
    <glyph glyph-name="J" unicode="J" horiz-adv-x="475" 
d="M200 -9q-118 0 -185 93l73 80q48 -64 109 -64q43 0 68 29.5t25 88.5v482h118v-486q0 -111 -59 -168q-55 -55 -149 -55z" />
    <glyph glyph-name="K" unicode="K" horiz-adv-x="626" 
d="M76 0v700h116v-344l271 344h140l-244 -301l255 -399h-138l-197 307l-87 -105v-202h-116z" />
    <glyph glyph-name="L" unicode="L" horiz-adv-x="522" 
d="M76 0v700h116v-593h300v-107h-416z" />
    <glyph glyph-name="M" unicode="M" horiz-adv-x="753" 
d="M76 0v700h121l180 -322l179 322h122v-700h-115v495l-186 -324h-3l-185 322v-493h-113z" />
    <glyph glyph-name="N" unicode="N" horiz-adv-x="681" 
d="M76 0v700h108l308 -467v467h113v-700h-98l-317 481v-481h-114z" />
    <glyph glyph-name="O" unicode="O" horiz-adv-x="720" 
d="M359 -11q-136 0 -222.5 99.5t-86.5 255.5v10q0 156 87 256.5t224 100.5q136 0 222.5 -99.5t86.5 -255.5v-10q0 -156 -87 -256.5t-224 -100.5zM361 96q83 0 136 69t53 181v7q0 112 -53.5 181.5t-137.5 69.5q-83 0 -136 -69t-53 -181v-7q0 -112 54 -181.5t137 -69.5z" />
    <glyph glyph-name="P" unicode="P" horiz-adv-x="582" 
d="M76 0v700h224q115 0 183.5 -62.5t68.5 -170.5v-2q0 -112 -72.5 -174t-186.5 -64h-101v-227h-116zM192 332h101q66 0 103.5 36t37.5 95v1q0 63 -37 96.5t-104 33.5h-101v-262z" />
    <glyph glyph-name="Q" unicode="Q" horiz-adv-x="722" 
d="M683 58l-71 -78l-74 69q-79 -60 -178 -60q-137 0 -223.5 99.5t-86.5 255.5v10q0 156 87 256.5t224 100.5q136 0 222.5 -99.5t86.5 -255.5v-10q0 -128 -63 -222zM363 95q55 0 95 28l-104 93l71 78l97 -93q28 61 28 144v9q0 112 -53.5 181t-137.5 69q-83 0 -136 -68.5
t-53 -180.5v-9q0 -114 54 -182.5t139 -68.5z" />
    <glyph glyph-name="R" unicode="R" horiz-adv-x="624" 
d="M76 0v700h253q121 0 187 -66q58 -58 58 -154v-4q0 -78 -39 -129.5t-106 -75.5l165 -271h-134l-149 248q-2 -1 -7 -1h-112v-247h-116zM192 351h125q67 0 103.5 32.5t36.5 88.5v2q0 59 -36 89.5t-102 30.5h-127v-243z" />
    <glyph glyph-name="S" unicode="S" horiz-adv-x="549" 
d="M279 -9q-143 0 -253 101l70 87q92 -83 184 -83q50 0 80 25t30 64v1q0 35 -27 60t-107 54q-107 40 -154.5 85.5t-47.5 125.5v2q0 86 62 141t160 55q126 0 220 -82l-66 -89q-81 66 -157 66q-46 0 -74 -23t-28 -58v-1q0 -38 29 -62.5t116 -58.5q101 -39 145.5 -85.5
t44.5 -120.5v-2q0 -91 -63.5 -146.5t-163.5 -55.5z" />
    <glyph glyph-name="T" unicode="T" horiz-adv-x="549" 
d="M216 0v592h-184v108h484v-108h-184v-592h-116z" />
    <glyph glyph-name="U" unicode="U" horiz-adv-x="655" 
d="M326 -11q-120 0 -189.5 72t-69.5 206v433h116v-432q0 -84 38.5 -128t106.5 -44q67 0 105.5 43t38.5 125v436h115v-429q0 -138 -69.5 -210t-191.5 -72z" />
    <glyph glyph-name="V" unicode="V" horiz-adv-x="640" 
d="M267 -4l-243 704h126l172 -529l172 529h122l-242 -704h-107z" />
    <glyph glyph-name="W" unicode="W" horiz-adv-x="961" 
d="M232 -4l-203 704h123l137 -508l143 510h100l143 -510l137 508h120l-204 -704h-105l-143 494l-143 -494h-105z" />
    <glyph glyph-name="X" unicode="X" horiz-adv-x="625" 
d="M457 700h129l-206 -342l216 -358h-133l-152 267l-152 -267h-129l214 357l-205 343h132l142 -252z" />
    <glyph glyph-name="Y" unicode="Y" horiz-adv-x="613" 
d="M249 0v279l-236 421h133l162 -303l163 303h129l-235 -420v-280h-116z" />
    <glyph glyph-name="Z" unicode="Z" horiz-adv-x="593" 
d="M53 0v86l344 510h-333v104h478v-86l-344 -510h344v-104h-489z" />
    <glyph glyph-name="bracketleft" unicode="[" horiz-adv-x="401" 
d="M81 -130v830h270v-87h-163v-656h163v-87h-270z" />
    <glyph glyph-name="backslash" unicode="\" horiz-adv-x="453" 
d="M375 -119l-382 908h98l382 -908h-98z" />
    <glyph glyph-name="bracketright" unicode="]" horiz-adv-x="401" 
d="M50 -130v87h163v656h-163v87h270v-830h-270z" />
    <glyph glyph-name="asciicircum" unicode="^" horiz-adv-x="482" 
d="M71 499l128 199h83l128 -199h-85l-85 128l-86 -128h-83z" />
    <glyph glyph-name="underscore" unicode="_" horiz-adv-x="556" 
d="M-2 -158v89h560v-89h-560z" />
    <glyph glyph-name="grave" unicode="`" horiz-adv-x="500" 
d="M251 589l-114 110l101 47l96 -157h-83z" />
    <glyph glyph-name="a" unicode="a" horiz-adv-x="512" 
d="M196 -10q-69 0 -115.5 43.5t-46.5 118.5v5q0 83 50.5 126.5t137.5 43.5q59 0 122 -21v22q0 53 -29.5 80.5t-84.5 27.5q-58 0 -128 -32l-32 90q86 42 175 42q104 0 156 -54q53 -53 53 -153v-329h-111v65q-52 -75 -147 -75zM230 75q49 -1 82 28.5t33 74.5v53q-45 19 -98 19
q-49 0 -76 -23.5t-27 -65.5v-2q0 -39 24 -61t62 -23z" />
    <glyph glyph-name="b" unicode="b" horiz-adv-x="580" 
d="M332 -10q-94 0 -155 90v-80h-113v722h113v-277q61 95 155 95q85 0 145.5 -70.5t60.5 -197.5v-14q0 -127 -60 -197.5t-146 -70.5zM301 90q53 0 88 46t35 124v9q0 78 -35.5 124.5t-87.5 46.5q-53 0 -89.5 -47t-36.5 -123v-10q0 -76 36.5 -123t89.5 -47z" />
    <glyph glyph-name="c" unicode="c" horiz-adv-x="481" 
d="M278 -11q-104 0 -171 75.5t-67 193.5v10q0 118 68.5 195t173.5 77q98 0 170 -72l-63 -83q-51 53 -107 53t-92 -48t-36 -123v-5q0 -77 36.5 -124.5t94.5 -47.5q54 0 108 54l61 -75q-71 -80 -176 -80z" />
    <glyph glyph-name="d" unicode="d" horiz-adv-x="580" 
d="M248 -10q-85 0 -145.5 70.5t-60.5 197.5v13q0 128 60 198.5t146 70.5q92 0 155 -90v272h113v-722h-113v85q-61 -95 -155 -95zM279 90q53 0 89.5 47t36.5 123v10q0 76 -36.5 123t-89.5 47t-88 -46.5t-35 -124.5v-8q0 -78 35.5 -124.5t87.5 -46.5z" />
    <glyph glyph-name="e" unicode="e" horiz-adv-x="524" 
d="M282 -11q-104 0 -173 74t-69 196v8q0 119 64 196t162 77q105 0 162.5 -77.5t57.5 -201.5q0 -23 -1 -39h-332q7 -65 44 -101t90 -36q64 0 122 56l59 -70q-77 -82 -186 -82zM152 300h224q-5 65 -33.5 105t-76.5 40q-47 0 -77.5 -39t-36.5 -106z" />
    <glyph glyph-name="f" unicode="f" horiz-adv-x="329" 
d="M88 0v433h-59v94h59v41q0 82 39 121q40 38 111 38q45 0 80 -11v-95q-32 9 -55 9q-63 0 -63 -73v-30h117v-94h-116v-433h-113z" />
    <glyph glyph-name="g" unicode="g" horiz-adv-x="580" 
d="M265 -153q-109 0 -201 50l37 89q74 -45 159 -45q144 0 144 140v51q-66 -93 -160 -93q-84 0 -143 65.5t-59 182.5v4q0 117 59 183t143 66q95 0 159 -89v79h113v-444q0 -116 -60 -176q-62 -63 -191 -63zM278 137q53 0 90 42t37 109v2q0 68 -37 109.5t-90 41.5t-87.5 -41
t-34.5 -110v-1q0 -69 35 -110.5t87 -41.5z" />
    <glyph glyph-name="h" unicode="h" horiz-adv-x="544" 
d="M64 0v722h113v-270q56 88 145 88q76 0 119.5 -50t43.5 -135v-355h-113v323q0 55 -25 85t-70 30t-72.5 -31.5t-27.5 -85.5v-321h-113z" />
    <glyph glyph-name="i" unicode="i" horiz-adv-x="253" 
d="M66 607v111h120v-111h-120zM70 0v530h113v-530h-113z" />
    <glyph glyph-name="j" unicode="j" horiz-adv-x="254" 
d="M67 607v111h121v-111h-121zM41 -154q-27 0 -52 6v90q13 -3 27 -3q55 0 55 63v528h113v-537q0 -147 -143 -147z" />
    <glyph glyph-name="k" unicode="k" horiz-adv-x="509" 
d="M64 0v722h113v-425l181 233h134l-176 -216l181 -314h-131l-128 227l-61 -74v-153h-113z" />
    <glyph glyph-name="l" unicode="l" horiz-adv-x="253" 
d="M70 0v722h113v-722h-113z" />
    <glyph glyph-name="m" unicode="m" horiz-adv-x="834" 
d="M64 0v530h113v-77q57 87 142 87q96 0 137 -85q64 85 155 85q75 0 118.5 -48t43.5 -137v-355h-113v322q0 116 -90 116q-42 0 -68.5 -31t-26.5 -86v-321h-113v323q0 56 -23.5 85.5t-65.5 29.5q-43 0 -69.5 -32t-26.5 -86v-320h-113z" />
    <glyph glyph-name="n" unicode="n" horiz-adv-x="544" 
d="M64 0v530h113v-78q56 88 145 88q76 0 119.5 -50t43.5 -135v-355h-113v323q0 55 -25 85t-70 30t-72.5 -31.5t-27.5 -85.5v-321h-113z" />
    <glyph glyph-name="o" unicode="o" horiz-adv-x="568" 
d="M283 -11q-105 0 -174 76.5t-69 193.5v9q0 117 69.5 194.5t175.5 77.5q105 0 174 -76.5t69 -194.5v-9q0 -117 -69.5 -194t-175.5 -77zM285 88q58 0 94 49t36 124v6q0 75 -37.5 124t-94.5 49q-59 0 -94.5 -48.5t-35.5 -123.5v-6q0 -75 37.5 -124.5t94.5 -49.5z" />
    <glyph glyph-name="p" unicode="p" horiz-adv-x="580" 
d="M64 -151v681h113v-85q61 95 155 95q85 0 145.5 -70.5t60.5 -197.5v-14q0 -127 -60 -197.5t-146 -70.5q-94 0 -155 90v-231h-113zM301 90q53 0 88 46t35 124v9q0 78 -35.5 124.5t-87.5 46.5q-53 0 -89.5 -47t-36.5 -123v-10q0 -76 36.5 -123t89.5 -47z" />
    <glyph glyph-name="q" unicode="q" horiz-adv-x="580" 
d="M403 -151v236q-61 -95 -155 -95q-85 0 -145.5 70.5t-60.5 197.5v13q0 128 60 198.5t146 70.5q92 0 155 -90v80h113v-681h-113zM279 90q53 0 89.5 47t36.5 123v10q0 76 -36.5 123t-89.5 47t-88 -46.5t-35 -124.5v-8q0 -78 35.5 -124.5t87.5 -46.5z" />
    <glyph glyph-name="r" unicode="r" horiz-adv-x="360" 
d="M64 0v530h113v-104q48 118 159 112v-123h-5q-71 0 -112.5 -46.5t-41.5 -134.5v-234h-113z" />
    <glyph glyph-name="s" unicode="s" horiz-adv-x="434" 
d="M217 -10q-108 0 -197 74l53 81q76 -62 146 -62q34 0 54 16.5t20 41.5v1q0 18 -15 33t-32 23.5t-57 25.5q-72 31 -108.5 64.5t-36.5 92.5v2q0 70 49.5 112.5t125.5 42.5q93 0 172 -57l-48 -83q-70 47 -126 47q-31 0 -49 -15t-18 -37v-2q0 -17 15.5 -31.5t31.5 -23
t57 -26.5q72 -32 108 -66.5t36 -91.5v-1q0 -76 -51 -118.5t-130 -42.5z" />
    <glyph glyph-name="t" unicode="t" horiz-adv-x="356" 
d="M223 -8q-137 0 -137 136v305h-58v97h58v143h113v-143h119v-97h-119v-282q0 -58 57 -58q32 0 61 15v-93q-43 -23 -94 -23z" />
    <glyph glyph-name="u" unicode="u" horiz-adv-x="544" 
d="M222 -10q-77 0 -120 49.5t-43 135.5v355h113v-323q0 -55 24.5 -85t69.5 -30t72.5 31.5t27.5 85.5v321h114v-530h-114v77q-56 -87 -144 -87z" />
    <glyph glyph-name="v" unicode="v" horiz-adv-x="520" 
d="M208 -4l-185 534h119l119 -386l120 386h117l-185 -534h-105z" />
    <glyph glyph-name="w" unicode="w" horiz-adv-x="756" 
d="M175 -4l-148 534h116l90 -358l98 359h96l98 -359l91 358h114l-149 -534h-104l-99 354l-100 -354h-103z" />
    <glyph glyph-name="x" unicode="x" horiz-adv-x="508" 
d="M153 530l101 -178l103 178h119l-159 -259l166 -271h-122l-108 189l-109 -189h-119l164 271l-158 259h122z" />
    <glyph glyph-name="y" unicode="y" horiz-adv-x="521" 
d="M265 145l115 385h117l-180 -538q-27 -80 -62.5 -113t-94.5 -33q-56 0 -107 28l33 87q32 -18 61 -18q23 0 37.5 12.5t26.5 43.5l-189 531h120z" />
    <glyph glyph-name="z" unicode="z" horiz-adv-x="476" 
d="M41 0v78l258 358h-249v94h387v-78l-258 -358h257v-94h-395z" />
    <glyph glyph-name="braceleft" unicode="{" horiz-adv-x="430" 
d="M371 -141q-116 17 -163 62t-47 121q0 14 5.5 49.5t5.5 50.5q0 52 -25 76.5t-80 24.5h-24v88h24q55 0 80 25t25 77q0 15 -5.5 50.5t-5.5 49.5q0 75 47 120t163 62l18 -77q-73 -15 -98.5 -41t-25.5 -77q0 -17 6 -51t6 -51q0 -102 -107 -131q107 -28 107 -131q0 -17 -6 -51
t-6 -51q0 -51 25.5 -76.5t98.5 -41.5z" />
    <glyph glyph-name="bar" unicode="|" horiz-adv-x="303" 
d="M106 -119v908h91v-908h-91z" />
    <glyph glyph-name="braceright" unicode="}" horiz-adv-x="430" 
d="M59 -141l-18 77q73 16 98.5 41.5t25.5 76.5q0 17 -6 51t-6 51q0 104 107 131q-107 28 -107 131q0 17 6 51t6 51q0 51 -25.5 77t-98.5 41l18 77q116 -17 163 -62t47 -120q0 -14 -5.5 -49.5t-5.5 -50.5q0 -52 25.5 -77t80.5 -25h23v-88h-23q-56 0 -81 -24.5t-25 -76.5
q0 -15 5.5 -50.5t5.5 -49.5q0 -76 -47 -121t-163 -62z" />
    <glyph glyph-name="asciitilde" unicode="~" horiz-adv-x="450" 
d="M296 243q-33 0 -77 23q-40 19 -55 19q-18 0 -27.5 -11t-20.5 -38l-63 19q27 116 102 116q32 0 76 -22q40 -19 55 -19q33 0 50 49l61 -19q-27 -117 -101 -117z" />
    <glyph glyph-name="uni00A0" unicode="&#xa0;" horiz-adv-x="258" 
 />
    <glyph glyph-name="exclamdown" unicode="&#xa1;" horiz-adv-x="276" 
d="M74 567v133h128v-133h-128zM71 0v35l36 448h62l36 -448v-35h-134z" />
    <glyph glyph-name="cent" unicode="&#xa2;" horiz-adv-x="496" 
d="M368 705l-12 -85q57 -16 104 -63l-62 -82q-30 30 -59 42l-46 -337q55 1 108 53l61 -74q-75 -80 -180 -80l-12 -85h-81l14 98q-72 26 -115.5 94.5t-43.5 162.5v8q0 116 65.5 192t165.5 80l11 76h82zM157 352q0 -107 63 -152l45 325q-49 -8 -78.5 -53.5t-29.5 -115.5v-4z
" />
    <glyph glyph-name="sterling" unicode="&#xa3;" horiz-adv-x="554" 
d="M52 0v74l70 23v186h-70v99h70v102q0 113 58 170q55 55 147 55q118 0 189 -93l-82 -75q-46 59 -103 59q-38 0 -62 -24q-30 -29 -30 -95v-99h205v-99h-205v-181h274v-102h-461z" />
    <glyph glyph-name="yen" unicode="&#xa5;" horiz-adv-x="596" 
d="M80 262v85h132l-196 353h130l153 -297l154 297h127l-197 -353h133v-85h-162v-73h162v-85h-162v-104h-112v104h-162v85h162v73h-162z" />
    <glyph glyph-name="section" unicode="&#xa7;" horiz-adv-x="561" 
d="M412 229q51 -37 51 -95v-2q0 -64 -49 -103t-132 -39q-116 0 -196 75l58 71q64 -55 136 -55q36 0 55 13t19 35v2q0 22 -25.5 38t-94.5 37q-101 29 -144.5 61.5t-43.5 84.5v2q0 43 27.5 73t75.5 44q-51 36 -51 95v2q0 65 49.5 103.5t131.5 38.5q117 0 195 -75l-57 -71
q-64 55 -136 55q-35 0 -54.5 -13t-19.5 -35v-2q0 -22 25 -38.5t95 -36.5q102 -30 145 -62t43 -84v-2q0 -43 -27.5 -73t-75.5 -44zM339 275q30 0 51 16t21 40v2q0 23 -23.5 39.5t-78.5 33.5q-57 19 -87 19t-51 -16t-21 -40v-2q0 -23 23.5 -39.5t78.5 -33.5q57 -19 87 -19z
" />
    <glyph glyph-name="dieresis" unicode="&#xa8;" horiz-adv-x="500" 
d="M281 591v111h112v-111h-112zM107 591v111h112v-111h-112z" />
    <glyph glyph-name="copyright" unicode="&#xa9;" horiz-adv-x="738" 
d="M368 -12q-137 0 -230.5 103t-93.5 253v11q0 150 94 253.5t232 103.5t231 -103t93 -253v-11q0 -150 -94 -253.5t-232 -103.5zM368 24q125 0 207 92.5t82 228.5v12q0 135 -81.5 227t-205.5 92q-125 0 -206.5 -92.5t-81.5 -228.5v-12q0 -136 81 -227.5t205 -91.5zM375 157
q-73 0 -120 53.5t-47 139.5v6q0 86 48 140.5t122 54.5q70 0 121 -48l-42 -53q-38 36 -79 36q-43 0 -71 -35.5t-28 -93.5v-5q0 -59 28 -94.5t72 -35.5q40 0 81 38l40 -48q-51 -55 -125 -55z" />
    <glyph glyph-name="ordfeminine" unicode="&#xaa;" horiz-adv-x="348" 
d="M141 403q-38 0 -64 24t-26 65v3q0 46 28.5 70t76.5 24q31 0 64 -12v11q0 57 -61 57q-32 0 -70 -18l-20 52q50 24 100 24q56 0 86 -30q29 -29 29 -85v-180h-64v34q-29 -39 -79 -39zM48 290v53h243v-53h-243zM160 453q26 0 43.5 15t17.5 39v27q-23 10 -52 10q-54 0 -54 -45
v-4q0 -20 12.5 -31t32.5 -11z" />
    <glyph glyph-name="guillemotleft" unicode="&#xab;" horiz-adv-x="550" 
d="M426 42l-162 218v8l162 218l80 -42l-118 -179l118 -179zM200 42l-161 218v8l161 218l80 -42l-117 -179l118 -179z" />
    <glyph glyph-name="registered" unicode="&#xae;" horiz-adv-x="361" 
d="M180 359q-67 0 -113 50t-46 123v6q0 73 46 123.5t113 50.5q69 0 115 -50t46 -124v-5q0 -73 -46.5 -123.5t-114.5 -50.5zM180 378q60 0 100 45t40 110v5q0 65 -39.5 109.5t-100.5 44.5q-59 0 -98.5 -44.5t-39.5 -109.5v-6q0 -65 39 -109.5t99 -44.5zM116 446v185h71
q32 0 51 -15.5t19 -44.5v-1q0 -40 -36 -55l41 -69h-46l-36 61h-24v-61h-40zM156 540h29q31 0 31 28q0 27 -31 27h-29v-55z" />
    <glyph glyph-name="macron" unicode="&#xaf;" horiz-adv-x="500" 
d="M99 598v81h302v-81h-302z" />
    <glyph glyph-name="degree" unicode="&#xb0;" horiz-adv-x="410" 
d="M205 379q-61 0 -105 46.5t-44 114.5v5q0 68 44 114.5t105 46.5t105 -46.5t44 -114.5v-5q0 -68 -44 -114.5t-105 -46.5zM205 444q34 0 56.5 27.5t22.5 69.5v3q0 42 -22.5 69.5t-56.5 27.5q-35 0 -57.5 -27.5t-22.5 -69.5v-3q0 -42 22.5 -69.5t57.5 -27.5z" />
    <glyph glyph-name="plusminus" unicode="&#xb1;" horiz-adv-x="554" 
d="M495 353h-166v-166h-104l1 166h-167v102h167l-1 166h104v-166h166v-102zM495 9h-435v98h435v-98z" />
    <glyph glyph-name="two.sup" unicode="&#xb2;" 
d="M47 433v59l123 120q33 32 46 51t13 40q0 23 -15.5 36.5t-38.5 13.5q-41 0 -83 -50l-45 43q56 72 133 72q54 0 88 -29.5t34 -78.5q0 -34 -16 -61.5t-55 -64.5l-91 -88h164v-63h-257z" />
    <glyph glyph-name="three.sup" unicode="&#xb3;" 
d="M170 425q-77 0 -132 53l38 52q46 -42 94 -42q26 0 44 15.5t18 40.5q0 27 -22.5 41t-61.5 14h-29l-9 45l100 102h-151v64h238v-54l-104 -104q49 -6 79 -32.5t30 -73.5q0 -54 -36.5 -87.5t-95.5 -33.5z" />
    <glyph glyph-name="acute" unicode="&#xb4;" horiz-adv-x="500" 
d="M163 589l97 157l100 -47l-114 -110h-83z" />
    <glyph glyph-name="paragraph" unicode="&#xb6;" horiz-adv-x="495" 
d="M304 0v241h-13q-114 2 -186 61t-72 167v2q0 109 70.5 169t185.5 60h131v-700h-116z" />
    <glyph glyph-name="periodcentered" unicode="&#xb7;" horiz-adv-x="252" 
d="M62 239v134h128v-134h-128z" />
    <glyph glyph-name="cedilla" unicode="&#xb8;" horiz-adv-x="500" 
d="M240 -152l-99 41l86 128h81z" />
    <glyph glyph-name="one.sup" unicode="&#xb9;" horiz-adv-x="287" 
d="M199 433h-71v307l-72 -30l-14 62l103 42h54v-381z" />
    <glyph glyph-name="ordmasculine" unicode="&#xba;" horiz-adv-x="348" 
d="M174 402q-58 0 -95 42t-37 106v6q0 65 37.5 107t95.5 42q57 0 94.5 -42t37.5 -106v-6q0 -64 -38 -106.5t-95 -42.5zM47 290v53h254v-53h-254zM175 460q30 0 48 25.5t18 64.5v5q0 39 -18.5 65t-48.5 26t-48 -25.5t-18 -64.5v-5q0 -39 18.5 -65t48.5 -26z" />
    <glyph glyph-name="guillemotright" unicode="&#xbb;" horiz-adv-x="550" 
d="M350 42l-80 42l118 179l-118 180l80 43l162 -218v-8zM124 42l-79 42l117 179l-118 180l80 43l162 -218v-8z" />
    <glyph glyph-name="onequarter" unicode="&#xbc;" horiz-adv-x="729" 
d="M199 323h-71v307l-72 -30l-14 62l103 43h54v-382zM112 0l220 364l197 336h66l-221 -364l-196 -336h-66zM647 78v-80h-65v80h-168l-7 63l162 240h78v-246h45v-57h-45zM584 135v167h-2l-113 -167h115z" />
    <glyph glyph-name="onehalf" unicode="&#xbd;" horiz-adv-x="729" 
d="M426 0v59l123 120q33 32 46 51t13 40q0 23 -15.5 36.5t-38.5 13.5q-41 0 -83 -50l-45 43q56 72 133 72q54 0 88 -29.5t34 -78.5q0 -34 -16 -61.5t-55 -64.5l-91 -88h164v-63h-257zM99 0l220 364l197 336h66l-221 -364l-196 -336h-66zM199 323h-71v307l-72 -30l-14 62
l103 43h54v-382z" />
    <glyph glyph-name="threequarters" unicode="&#xbe;" horiz-adv-x="794" 
d="M714 78v-80h-65v80h-168l-7 63l162 240h78v-246h45v-57h-45zM651 135v167h-2l-113 -167h115zM174 0l220 364l197 336h66l-221 -364l-196 -336h-66zM170 315q-75 0 -132 53l38 52q46 -42 94 -42q26 0 44 15.5t18 40.5q0 54 -84 56h-29l-9 44l100 102h-151v64h238v-54
l-104 -104q49 -6 79 -32.5t30 -73.5q0 -54 -36.5 -87.5t-95.5 -33.5z" />
    <glyph glyph-name="questiondown" unicode="&#xbf;" horiz-adv-x="473" 
d="M197 567v133h128v-133h-128zM250 -8q-97 0 -156 53.5t-59 142.5v2q0 156 177 198l11 95h76l17 -166l-5 -5q-161 -15 -161 -118v-2q0 -42 28.5 -68t75.5 -26q74 0 136 66l67 -78q-89 -94 -207 -94z" />
    <glyph glyph-name="Agrave" unicode="&#xc0;" horiz-adv-x="674" 
d="M24 0l257 704h112l257 -704h-121l-58 165h-272l-58 -165h-117zM235 268h200l-100 281zM384 758h-87l-117 92l102 47z" />
    <glyph glyph-name="Aacute" unicode="&#xc1;" horiz-adv-x="674" 
d="M24 0l257 704h112l257 -704h-121l-58 165h-272l-58 -165h-117zM235 268h200l-100 281zM290 758l102 139l102 -47l-117 -92h-87z" />
    <glyph glyph-name="Acircumflex" unicode="&#xc2;" horiz-adv-x="674" 
d="M24 0l257 704h112l257 -704h-121l-58 165h-272l-58 -165h-117zM235 268h200l-100 281zM177 756l107 128h104l107 -128h-93l-67 55l-67 -55h-91z" />
    <glyph glyph-name="Atilde" unicode="&#xc3;" horiz-adv-x="674" 
d="M24 0l257 704h112l257 -704h-121l-58 165h-272l-58 -165h-117zM235 268h200l-100 281zM413 759q-27 0 -80 21q-37 16 -53 16q-17 0 -27.5 -10.5t-19.5 -34.5l-65 19q15 59 38 87t61 28q29 0 81 -22q37 -16 52 -16q17 0 27.5 10.5t19.5 34.5l65 -19q-15 -58 -38 -86
t-61 -28z" />
    <glyph glyph-name="Adieresis" unicode="&#xc4;" horiz-adv-x="674" 
d="M24 0l257 704h112l257 -704h-121l-58 165h-272l-58 -165h-117zM235 268h200l-100 281zM371 760v107h114v-107h-114zM186 760v107h115v-107h-115z" />
    <glyph glyph-name="Aring" unicode="&#xc5;" horiz-adv-x="674" 
d="M24 0l242 666q-38 28 -38 75q0 42 32 70t77 28t77 -28t32 -70q0 -47 -38 -75l242 -666h-121l-58 165h-272l-58 -165h-117zM235 268h200l-100 281zM337 688q25 0 41.5 15t16.5 38t-16.5 38t-41.5 15t-41.5 -15t-16.5 -38t16.5 -38t41.5 -15z" />
    <glyph glyph-name="AE" unicode="&#xc6;" horiz-adv-x="895" 
d="M9 0l330 700h505v-105h-311v-190h274v-105h-274v-195h315v-105h-430v165h-214l-78 -165h-117zM251 268h167v327h-17z" />
    <glyph glyph-name="Ccedilla" unicode="&#xc7;" horiz-adv-x="617" 
d="M318 -152l-99 41l72 108q-109 23 -175 116.5t-66 232.5v7q0 158 88 257.5t225 99.5q125 0 220 -87l-70 -89q-73 68 -150 68q-83 0 -138 -69t-55 -180v-4q0 -112 54.5 -181.5t138.5 -69.5q79 0 155 73l68 -82q-89 -92 -211 -98z" />
    <glyph glyph-name="Egrave" unicode="&#xc8;" horiz-adv-x="568" 
d="M345 751h-87l-117 92l102 47zM76 0v700h441v-105h-326v-190h289v-105h-289v-195h331v-105h-446z" />
    <glyph glyph-name="Eacute" unicode="&#xc9;" horiz-adv-x="568" 
d="M251 751l102 139l102 -47l-117 -92h-87zM76 0v700h441v-105h-326v-190h289v-105h-289v-195h331v-105h-446z" />
    <glyph glyph-name="Ecircumflex" unicode="&#xca;" horiz-adv-x="568" 
d="M76 0v700h441v-105h-326v-190h289v-105h-289v-195h331v-105h-446zM139 752l107 128h104l107 -128h-93l-67 55l-67 -55h-91z" />
    <glyph glyph-name="Edieresis" unicode="&#xcb;" horiz-adv-x="568" 
d="M333 753v107h114v-107h-114zM148 753v107h115v-107h-115zM76 0v700h441v-105h-326v-190h289v-105h-289v-195h331v-105h-446z" />
    <glyph glyph-name="Igrave" unicode="&#xcc;" horiz-adv-x="279" 
d="M82 0v700h116v-700h-116zM187 751h-87l-117 92l102 47z" />
    <glyph glyph-name="Iacute" unicode="&#xcd;" horiz-adv-x="279" 
d="M82 0v700h116v-700h-116zM94 751l102 139l102 -47l-117 -92h-87z" />
    <glyph glyph-name="Icircumflex" unicode="&#xce;" horiz-adv-x="279" 
d="M82 0v700h116v-700h-116zM-19 752l107 128h104l107 -128h-93l-67 55l-67 -55h-91z" />
    <glyph glyph-name="Idieresis" unicode="&#xcf;" horiz-adv-x="279" 
d="M82 0v700h116v-700h-116zM176 753v107h114v-107h-114zM-9 753v107h115v-107h-115z" />
    <glyph glyph-name="Eth" unicode="&#xd0;" horiz-adv-x="695" 
d="M99 0v300h-65v104h65v296h214q149 0 240.5 -95.5t91.5 -249.5v-8q0 -154 -91.5 -250.5t-240.5 -96.5h-214zM356 300h-141v-195h98q96 0 154 65t58 176v6q0 112 -58 177.5t-154 65.5h-98v-191h141v-104z" />
    <glyph glyph-name="Ntilde" unicode="&#xd1;" horiz-adv-x="681" 
d="M417 751q-27 0 -80 21q-37 16 -53 16q-17 0 -27.5 -10.5t-19.5 -34.5l-65 19q15 59 38 87t61 28q29 0 81 -22q37 -16 52 -16q17 0 27.5 10.5t19.5 34.5l65 -19q-15 -58 -38 -86t-61 -28zM76 0v700h108l308 -467v467h113v-700h-98l-317 481v-481h-114z" />
    <glyph glyph-name="Ograve" unicode="&#xd2;" horiz-adv-x="720" 
d="M406 758h-87l-117 92l102 47zM359 -11q-136 0 -222.5 99.5t-86.5 255.5v10q0 156 87 256.5t224 100.5q136 0 222.5 -99.5t86.5 -255.5v-10q0 -156 -87 -256.5t-224 -100.5zM361 96q83 0 136 69t53 181v7q0 112 -53.5 181.5t-137.5 69.5q-83 0 -136 -69t-53 -181v-7
q0 -112 54 -181.5t137 -69.5z" />
    <glyph glyph-name="Oacute" unicode="&#xd3;" horiz-adv-x="720" 
d="M313 758l102 139l102 -47l-117 -92h-87zM359 -11q-136 0 -222.5 99.5t-86.5 255.5v10q0 156 87 256.5t224 100.5q136 0 222.5 -99.5t86.5 -255.5v-10q0 -156 -87 -256.5t-224 -100.5zM361 96q83 0 136 69t53 181v7q0 112 -53.5 181.5t-137.5 69.5q-83 0 -136 -69
t-53 -181v-7q0 -112 54 -181.5t137 -69.5z" />
    <glyph glyph-name="Ocircumflex" unicode="&#xd4;" horiz-adv-x="720" 
d="M359 -11q-136 0 -222.5 99.5t-86.5 255.5v10q0 156 87 256.5t224 100.5q136 0 222.5 -99.5t86.5 -255.5v-10q0 -156 -87 -256.5t-224 -100.5zM361 96q83 0 136 69t53 181v7q0 112 -53.5 181.5t-137.5 69.5q-83 0 -136 -69t-53 -181v-7q0 -112 54 -181.5t137 -69.5z
M200 759l107 128h104l107 -128h-93l-67 55l-67 -55h-91z" />
    <glyph glyph-name="Otilde" unicode="&#xd5;" horiz-adv-x="720" 
d="M436 759q-28 0 -80 21q-37 16 -53 16q-17 0 -27.5 -10.5t-19.5 -34.5l-65 19q15 59 38 87t61 28q29 0 81 -22q37 -16 52 -16q17 0 27.5 10.5t19.5 34.5l65 -19q-15 -58 -38 -86t-61 -28zM359 -11q-136 0 -222.5 99.5t-86.5 255.5v10q0 156 87 256.5t224 100.5
q136 0 222.5 -99.5t86.5 -255.5v-10q0 -156 -87 -256.5t-224 -100.5zM361 96q83 0 136 69t53 181v7q0 112 -53.5 181.5t-137.5 69.5q-83 0 -136 -69t-53 -181v-7q0 -112 54 -181.5t137 -69.5z" />
    <glyph glyph-name="Odieresis" unicode="&#xd6;" horiz-adv-x="720" 
d="M395 760v107h114v-107h-114zM210 760v107h115v-107h-115zM359 -11q-136 0 -222.5 99.5t-86.5 255.5v10q0 156 87 256.5t224 100.5q136 0 222.5 -99.5t86.5 -255.5v-10q0 -156 -87 -256.5t-224 -100.5zM361 96q83 0 136 69t53 181v7q0 112 -53.5 181.5t-137.5 69.5
q-83 0 -136 -69t-53 -181v-7q0 -112 54 -181.5t137 -69.5z" />
    <glyph glyph-name="multiply" unicode="&#xd7;" horiz-adv-x="554" 
d="M417 134l-140 147l-141 -147l-74 70l147 147l-147 147l75 72l141 -147l141 147l73 -70l-146 -147l146 -147z" />
    <glyph glyph-name="Oslash" unicode="&#xd8;" horiz-adv-x="720" 
d="M572 705h103l-80 -108q75 -99 75 -241v-10q0 -156 -87 -256.5t-224 -100.5q-99 0 -173 54l-37 -48h-104l80 108q-75 97 -75 241v10q0 156 87 256.5t224 100.5q98 0 173 -55zM168 347q0 -84 31 -146l271 365q-49 41 -111 41q-85 0 -138 -69.5t-53 -182.5v-8zM361 93
q85 0 138 69.5t53 182.5v8q0 81 -31 146l-271 -366q48 -40 111 -40z" />
    <glyph glyph-name="Ugrave" unicode="&#xd9;" horiz-adv-x="655" 
d="M374 750h-87l-117 92l102 47zM326 -11q-120 0 -189.5 72t-69.5 206v433h116v-432q0 -84 38.5 -128t106.5 -44q67 0 105.5 43t38.5 125v436h115v-429q0 -138 -69.5 -210t-191.5 -72z" />
    <glyph glyph-name="Uacute" unicode="&#xda;" horiz-adv-x="655" 
d="M280 750l102 139l102 -47l-117 -92h-87zM326 -11q-120 0 -189.5 72t-69.5 206v433h116v-432q0 -84 38.5 -128t106.5 -44q67 0 105.5 43t38.5 125v436h115v-429q0 -138 -69.5 -210t-191.5 -72z" />
    <glyph glyph-name="Ucircumflex" unicode="&#xdb;" horiz-adv-x="655" 
d="M326 -11q-120 0 -189.5 72t-69.5 206v433h116v-432q0 -84 38.5 -128t106.5 -44q67 0 105.5 43t38.5 125v436h115v-429q0 -138 -69.5 -210t-191.5 -72zM167 751l107 128h104l107 -128h-93l-67 55l-67 -55h-91z" />
    <glyph glyph-name="Udieresis" unicode="&#xdc;" horiz-adv-x="655" 
d="M362 752v107h114v-107h-114zM177 752v107h115v-107h-115zM326 -11q-120 0 -189.5 72t-69.5 206v433h116v-432q0 -84 38.5 -128t106.5 -44q67 0 105.5 43t38.5 125v436h115v-429q0 -138 -69.5 -210t-191.5 -72z" />
    <glyph glyph-name="Yacute" unicode="&#xdd;" horiz-adv-x="613" 
d="M249 0v279l-236 421h133l162 -303l163 303h129l-235 -420v-280h-116zM259 750l102 139l102 -47l-117 -92h-87z" />
    <glyph glyph-name="Thorn" unicode="&#xde;" horiz-adv-x="585" 
d="M76 0v700h116v-108h108q115 0 183.5 -62.5t68.5 -169.5v-2q0 -113 -73 -176t-186 -63h-101v-119h-116zM192 224h101q66 0 103.5 36t37.5 95v1q0 63 -37 97t-104 34h-101v-263z" />
    <glyph glyph-name="germandbls" unicode="&#xdf;" horiz-adv-x="548" 
d="M261 -2v89q133 8 133 112v2q0 48 -35.5 78t-97.5 39v79q100 48 100 137v2q0 43 -24 68.5t-64 25.5q-44 0 -70 -32.5t-26 -89.5v-508h-113v504q0 103 57.5 163.5t156.5 60.5q90 0 142.5 -51t52.5 -129v-4q0 -111 -103 -170q137 -49 137 -174v-4q0 -94 -65.5 -147
t-180.5 -51z" />
    <glyph glyph-name="agrave" unicode="&#xe0;" horiz-adv-x="512" 
d="M196 -10q-69 0 -115.5 43.5t-46.5 118.5v5q0 83 50.5 126.5t137.5 43.5q59 0 122 -21v22q0 53 -29.5 80.5t-84.5 27.5q-58 0 -128 -32l-32 90q86 42 175 42q104 0 156 -54q53 -53 53 -153v-329h-111v65q-52 -75 -147 -75zM230 75q49 -1 82 28.5t33 74.5v53q-45 19 -98 19
q-49 0 -76 -23.5t-27 -65.5v-2q0 -39 24 -61t62 -23zM219 589l-114 110l101 47l96 -157h-83z" />
    <glyph glyph-name="aacute" unicode="&#xe1;" horiz-adv-x="512" 
d="M196 -10q-69 0 -115.5 43.5t-46.5 118.5v5q0 83 50.5 126.5t137.5 43.5q59 0 122 -21v22q0 53 -29.5 80.5t-84.5 27.5q-58 0 -128 -32l-32 90q86 42 175 42q104 0 156 -54q53 -53 53 -153v-329h-111v65q-52 -75 -147 -75zM230 75q49 -1 82 28.5t33 74.5v53q-45 19 -98 19
q-49 0 -76 -23.5t-27 -65.5v-2q0 -39 24 -61t62 -23zM210 589l97 157l100 -47l-114 -110h-83z" />
    <glyph glyph-name="acircumflex" unicode="&#xe2;" horiz-adv-x="512" 
d="M196 -10q-69 0 -115.5 43.5t-46.5 118.5v5q0 83 50.5 126.5t137.5 43.5q59 0 122 -21v22q0 53 -29.5 80.5t-84.5 27.5q-58 0 -128 -32l-32 90q86 42 175 42q104 0 156 -54q53 -53 53 -153v-329h-111v65q-52 -75 -147 -75zM230 75q49 -1 82 28.5t33 74.5v53q-45 19 -98 19
q-49 0 -76 -23.5t-27 -65.5v-2q0 -39 24 -61t62 -23zM103 589l103 143h100l103 -143h-86l-68 67l-68 -67h-84z" />
    <glyph glyph-name="atilde" unicode="&#xe3;" horiz-adv-x="512" 
d="M196 -10q-69 0 -115.5 43.5t-46.5 118.5v5q0 83 50.5 126.5t137.5 43.5q59 0 122 -21v22q0 53 -29.5 80.5t-84.5 27.5q-58 0 -128 -32l-32 90q86 42 175 42q104 0 156 -54q53 -53 53 -153v-329h-111v65q-52 -75 -147 -75zM230 75q49 -1 82 28.5t33 74.5v53q-45 19 -98 19
q-49 0 -76 -23.5t-27 -65.5v-2q0 -39 24 -61t62 -23zM331 589q-28 0 -76 21q-38 18 -54 18q-17 0 -26.5 -10.5t-19.5 -35.5l-64 18q16 61 38 88.5t60 27.5q30 0 76 -22q38 -18 54 -18q17 0 27 10.5t19 36.5l64 -18q-16 -61 -38 -88.5t-60 -27.5z" />
    <glyph glyph-name="adieresis" unicode="&#xe4;" horiz-adv-x="512" 
d="M196 -10q-69 0 -115.5 43.5t-46.5 118.5v5q0 83 50.5 126.5t137.5 43.5q59 0 122 -21v22q0 53 -29.5 80.5t-84.5 27.5q-58 0 -128 -32l-32 90q86 42 175 42q104 0 156 -54q53 -53 53 -153v-329h-111v65q-52 -75 -147 -75zM230 75q49 -1 82 28.5t33 74.5v53q-45 19 -98 19
q-49 0 -76 -23.5t-27 -65.5v-2q0 -39 24 -61t62 -23zM287 591v111h112v-111h-112zM113 591v111h112v-111h-112z" />
    <glyph glyph-name="aring" unicode="&#xe5;" horiz-adv-x="512" 
d="M196 -10q-69 0 -115.5 43.5t-46.5 118.5v5q0 83 50.5 126.5t137.5 43.5q59 0 122 -21v22q0 53 -29.5 80.5t-84.5 27.5q-58 0 -128 -32l-32 90q86 42 175 42q104 0 156 -54q53 -53 53 -153v-329h-111v65q-52 -75 -147 -75zM230 75q49 -1 82 28.5t33 74.5v53q-45 19 -98 19
q-49 0 -76 -23.5t-27 -65.5v-2q0 -39 24 -61t62 -23zM256 586q-44 0 -75 30.5t-31 73.5t31 73.5t75 30.5t75 -30t31 -74q0 -43 -31 -73.5t-75 -30.5zM256 629q25 0 42 17.5t17 43.5t-17 43.5t-42 17.5t-42 -17.5t-17 -43.5t17 -43.5t42 -17.5z" />
    <glyph glyph-name="ae" unicode="&#xe6;" horiz-adv-x="823" 
d="M207 -10q-75 0 -124 44.5t-49 119.5v3q0 83 50.5 126.5t136.5 43.5q57 0 120 -21v22q0 52 -29 80t-83 28q-59 0 -127 -33l-32 92q87 41 173 41q120 0 165 -80q60 84 159 84q102 0 160 -78t58 -201q0 -7 -2 -39h-332q8 -66 44.5 -101.5t90.5 -35.5q68 0 121 56l60 -70
q-77 -82 -186 -82q-120 0 -185 95q-83 -94 -189 -94zM450 300h224q-4 65 -33 105t-77 40q-47 0 -77.5 -39t-36.5 -106zM231 76q73 0 129 74q-13 41 -16 82q-49 18 -98 18q-48 0 -75 -23.5t-27 -64.5v-3q0 -38 24.5 -60.5t62.5 -22.5z" />
    <glyph glyph-name="ccedilla" unicode="&#xe7;" horiz-adv-x="481" 
d="M241 -152l-99 41l73 109q-79 21 -127 91t-48 169v10q0 118 68.5 195t173.5 77q98 0 170 -72l-63 -83q-51 53 -107 53t-92 -48t-36 -123v-5q0 -77 36.5 -124.5t94.5 -47.5q54 0 108 54l61 -75q-66 -73 -156 -79z" />
    <glyph glyph-name="egrave" unicode="&#xe8;" horiz-adv-x="524" 
d="M282 -11q-104 0 -173 74t-69 196v8q0 119 64 196t162 77q105 0 162.5 -77.5t57.5 -201.5q0 -23 -1 -39h-332q7 -65 44 -101t90 -36q64 0 122 56l59 -70q-77 -82 -186 -82zM152 300h224q-5 65 -33.5 105t-76.5 40q-47 0 -77.5 -39t-36.5 -106zM227 589l-114 110l101 47
l96 -157h-83z" />
    <glyph glyph-name="eacute" unicode="&#xe9;" horiz-adv-x="524" 
d="M218 589l97 157l100 -47l-114 -110h-83zM282 -11q-104 0 -173 74t-69 196v8q0 119 64 196t162 77q105 0 162.5 -77.5t57.5 -201.5q0 -23 -1 -39h-332q7 -65 44 -101t90 -36q64 0 122 56l59 -70q-77 -82 -186 -82zM152 300h224q-5 65 -33.5 105t-76.5 40q-47 0 -77.5 -39
t-36.5 -106z" />
    <glyph glyph-name="ecircumflex" unicode="&#xea;" horiz-adv-x="524" 
d="M111 589l103 143h100l103 -143h-86l-68 67l-68 -67h-84zM282 -11q-104 0 -173 74t-69 196v8q0 119 64 196t162 77q105 0 162.5 -77.5t57.5 -201.5q0 -23 -1 -39h-332q7 -65 44 -101t90 -36q64 0 122 56l59 -70q-77 -82 -186 -82zM152 300h224q-5 65 -33.5 105t-76.5 40
q-47 0 -77.5 -39t-36.5 -106z" />
    <glyph glyph-name="edieresis" unicode="&#xeb;" horiz-adv-x="524" 
d="M295 591v111h112v-111h-112zM121 591v111h112v-111h-112zM282 -11q-104 0 -173 74t-69 196v8q0 119 64 196t162 77q105 0 162.5 -77.5t57.5 -201.5q0 -23 -1 -39h-332q7 -65 44 -101t90 -36q64 0 122 56l59 -70q-77 -82 -186 -82zM152 300h224q-5 65 -33.5 105t-76.5 40
q-47 0 -77.5 -39t-36.5 -106z" />
    <glyph glyph-name="igrave" unicode="&#xec;" horiz-adv-x="253" 
d="M70 0v530h113v-530h-113zM89 589l-114 110l101 47l96 -157h-83z" />
    <glyph glyph-name="iacute" unicode="&#xed;" horiz-adv-x="253" 
d="M81 589l97 157l100 -47l-114 -110h-83zM70 0v530h113v-530h-113z" />
    <glyph glyph-name="icircumflex" unicode="&#xee;" horiz-adv-x="253" 
d="M-26 589l103 143h100l103 -143h-86l-68 67l-68 -67h-84zM70 0v530h113v-530h-113z" />
    <glyph glyph-name="idieresis" unicode="&#xef;" horiz-adv-x="253" 
d="M158 591v111h112v-111h-112zM-16 591v111h112v-111h-112zM70 0v530h113v-530h-113z" />
    <glyph glyph-name="eth" unicode="&#xf0;" horiz-adv-x="568" 
d="M455 660l-71 -24q142 -166 142 -344v-9q0 -132 -67 -213t-178 -81q-103 0 -172 77.5t-69 196.5v10q0 112 61 184t146 72q63 0 121 -46q-30 58 -86 118l-105 -35l-25 65l76 25q-36 34 -75 66h146q22 -20 32 -31l100 34zM284 88q59 0 94.5 48t35.5 124v6q0 75 -37.5 123
t-95.5 48t-93 -48t-35 -123v-5q0 -74 37 -123.5t94 -49.5z" />
    <glyph glyph-name="ntilde" unicode="&#xf1;" horiz-adv-x="544" 
d="M64 0v530h113v-78q56 88 145 88q76 0 119.5 -50t43.5 -135v-355h-113v323q0 55 -25 85t-70 30t-72.5 -31.5t-27.5 -85.5v-321h-113zM349 589q-28 0 -76 21q-38 18 -54 18q-17 0 -26.5 -10.5t-19.5 -35.5l-64 18q16 61 38 88.5t60 27.5q30 0 76 -22q38 -18 54 -18
q17 0 27 10.5t19 36.5l64 -18q-16 -61 -38 -88.5t-60 -27.5z" />
    <glyph glyph-name="ograve" unicode="&#xf2;" horiz-adv-x="568" 
d="M283 -11q-105 0 -174 76.5t-69 193.5v9q0 117 69.5 194.5t175.5 77.5q105 0 174 -76.5t69 -194.5v-9q0 -117 -69.5 -194t-175.5 -77zM285 88q58 0 94 49t36 124v6q0 75 -37.5 124t-94.5 49q-59 0 -94.5 -48.5t-35.5 -123.5v-6q0 -75 37.5 -124.5t94.5 -49.5zM247 589
l-114 110l101 47l96 -157h-83z" />
    <glyph glyph-name="oacute" unicode="&#xf3;" horiz-adv-x="568" 
d="M238 589l97 157l100 -47l-114 -110h-83zM283 -11q-105 0 -174 76.5t-69 193.5v9q0 117 69.5 194.5t175.5 77.5q105 0 174 -76.5t69 -194.5v-9q0 -117 -69.5 -194t-175.5 -77zM285 88q58 0 94 49t36 124v6q0 75 -37.5 124t-94.5 49q-59 0 -94.5 -48.5t-35.5 -123.5v-6
q0 -75 37.5 -124.5t94.5 -49.5z" />
    <glyph glyph-name="ocircumflex" unicode="&#xf4;" horiz-adv-x="568" 
d="M131 589l103 143h100l103 -143h-86l-68 67l-68 -67h-84zM283 -11q-105 0 -174 76.5t-69 193.5v9q0 117 69.5 194.5t175.5 77.5q105 0 174 -76.5t69 -194.5v-9q0 -117 -69.5 -194t-175.5 -77zM285 88q58 0 94 49t36 124v6q0 75 -37.5 124t-94.5 49q-59 0 -94.5 -48.5
t-35.5 -123.5v-6q0 -75 37.5 -124.5t94.5 -49.5z" />
    <glyph glyph-name="otilde" unicode="&#xf5;" horiz-adv-x="568" 
d="M283 -11q-105 0 -174 76.5t-69 193.5v9q0 117 69.5 194.5t175.5 77.5q105 0 174 -76.5t69 -194.5v-9q0 -117 -69.5 -194t-175.5 -77zM285 88q58 0 94 49t36 124v6q0 75 -37.5 124t-94.5 49q-59 0 -94.5 -48.5t-35.5 -123.5v-6q0 -75 37.5 -124.5t94.5 -49.5zM358 589
q-28 0 -76 21q-38 18 -54 18q-17 0 -26.5 -10.5t-19.5 -35.5l-64 18q16 61 38 88.5t60 27.5q30 0 76 -22q38 -18 54 -18q17 0 27 10.5t19 36.5l64 -18q-16 -61 -38 -88.5t-60 -27.5z" />
    <glyph glyph-name="odieresis" unicode="&#xf6;" horiz-adv-x="568" 
d="M315 591v111h112v-111h-112zM141 591v111h112v-111h-112zM283 -11q-105 0 -174 76.5t-69 193.5v9q0 117 69.5 194.5t175.5 77.5q105 0 174 -76.5t69 -194.5v-9q0 -117 -69.5 -194t-175.5 -77zM285 88q58 0 94 49t36 124v6q0 75 -37.5 124t-94.5 49q-59 0 -94.5 -48.5
t-35.5 -123.5v-6q0 -75 37.5 -124.5t94.5 -49.5z" />
    <glyph glyph-name="divide" unicode="&#xf7;" horiz-adv-x="554" 
d="M216 484v120h122v-120h-122zM499 302h-444v100h444v-100zM216 100v120h122v-120h-122z" />
    <glyph glyph-name="oslash" unicode="&#xf8;" horiz-adv-x="568" 
d="M445 535h95l-68 -88q56 -75 56 -178v-9q0 -117 -70 -194t-175 -77q-74 0 -132 39l-28 -34h-95l68 87q-56 75 -56 178v9q0 117 70 194.5t175 77.5q72 0 131 -40zM149 262q0 -50 17 -90l190 245q-34 26 -73 26q-60 0 -97 -49.5t-37 -125.5v-6zM285 86q60 0 96.5 49.5
t36.5 125.5v5q0 50 -17 90l-189 -246q30 -24 73 -24z" />
    <glyph glyph-name="ugrave" unicode="&#xf9;" horiz-adv-x="544" 
d="M222 -10q-77 0 -120 49.5t-43 135.5v355h113v-323q0 -55 24.5 -85t69.5 -30t72.5 31.5t27.5 85.5v321h114v-530h-114v77q-56 -87 -144 -87zM232 589l-114 110l101 47l96 -157h-83z" />
    <glyph glyph-name="uacute" unicode="&#xfa;" horiz-adv-x="544" 
d="M223 589l97 157l100 -47l-114 -110h-83zM222 -10q-77 0 -120 49.5t-43 135.5v355h113v-323q0 -55 24.5 -85t69.5 -30t72.5 31.5t27.5 85.5v321h114v-530h-114v77q-56 -87 -144 -87z" />
    <glyph glyph-name="ucircumflex" unicode="&#xfb;" horiz-adv-x="544" 
d="M116 589l103 143h100l103 -143h-86l-68 67l-68 -67h-84zM222 -10q-77 0 -120 49.5t-43 135.5v355h113v-323q0 -55 24.5 -85t69.5 -30t72.5 31.5t27.5 85.5v321h114v-530h-114v77q-56 -87 -144 -87z" />
    <glyph glyph-name="udieresis" unicode="&#xfc;" horiz-adv-x="544" 
d="M300 591v111h112v-111h-112zM126 591v111h112v-111h-112zM222 -10q-77 0 -120 49.5t-43 135.5v355h113v-323q0 -55 24.5 -85t69.5 -30t72.5 31.5t27.5 85.5v321h114v-530h-114v77q-56 -87 -144 -87z" />
    <glyph glyph-name="yacute" unicode="&#xfd;" horiz-adv-x="521" 
d="M265 145l115 385h117l-180 -538q-27 -80 -62.5 -113t-94.5 -33q-56 0 -107 28l33 87q32 -18 61 -18q23 0 37.5 12.5t26.5 43.5l-189 531h120zM215 589l97 157l100 -47l-114 -110h-83z" />
    <glyph glyph-name="thorn" unicode="&#xfe;" horiz-adv-x="580" 
d="M64 -151v873h113v-277q61 95 155 95q85 0 145.5 -70.5t60.5 -197.5v-14q0 -127 -60 -197.5t-146 -70.5q-94 0 -155 90v-231h-113zM301 90q52 0 87.5 46.5t35.5 123.5v9q0 77 -35.5 124t-87.5 47q-53 0 -89.5 -47t-36.5 -123v-10q0 -76 36.5 -123t89.5 -47z" />
    <glyph glyph-name="ydieresis" unicode="&#xff;" horiz-adv-x="521" 
d="M265 145l115 385h117l-180 -538q-27 -80 -62.5 -113t-94.5 -33q-56 0 -107 28l33 87q32 -18 61 -18q23 0 37.5 12.5t26.5 43.5l-189 531h120zM292 591v111h112v-111h-112zM118 591v111h112v-111h-112z" />
    <glyph glyph-name="Amacron" unicode="&#x100;" horiz-adv-x="674" 
d="M24 0l257 704h112l257 -704h-121l-58 165h-272l-58 -165h-117zM235 268h200l-100 281zM176 768v83h320v-83h-320z" />
    <glyph glyph-name="amacron" unicode="&#x101;" horiz-adv-x="512" 
d="M196 -10q-69 0 -115.5 43.5t-46.5 118.5v5q0 83 50.5 126.5t137.5 43.5q59 0 122 -21v22q0 53 -29.5 80.5t-84.5 27.5q-58 0 -128 -32l-32 90q86 42 175 42q104 0 156 -54q53 -53 53 -153v-329h-111v65q-52 -75 -147 -75zM230 75q49 -1 82 28.5t33 74.5v53q-45 19 -98 19
q-49 0 -76 -23.5t-27 -65.5v-2q0 -39 24 -61t62 -23zM105 598v81h302v-81h-302z" />
    <glyph glyph-name="Abreve" unicode="&#x102;" horiz-adv-x="674" 
d="M24 0l257 704h112l257 -704h-121l-58 165h-272l-58 -165h-117zM235 268h200l-100 281zM336 756q-66 0 -107.5 32.5t-46.5 92.5h79q14 -47 75 -47t75 47h79q-5 -60 -46.5 -92.5t-107.5 -32.5z" />
    <glyph glyph-name="abreve" unicode="&#x103;" horiz-adv-x="512" 
d="M196 -10q-69 0 -115.5 43.5t-46.5 118.5v5q0 83 50.5 126.5t137.5 43.5q59 0 122 -21v22q0 53 -29.5 80.5t-84.5 27.5q-58 0 -128 -32l-32 90q86 42 175 42q104 0 156 -54q53 -53 53 -153v-329h-111v65q-52 -75 -147 -75zM230 75q49 -1 82 28.5t33 74.5v53q-45 19 -98 19
q-49 0 -76 -23.5t-27 -65.5v-2q0 -39 24 -61t62 -23zM256 586q-64 0 -105.5 35.5t-47.5 99.5h76q17 -57 77 -57t77 57h76q-6 -64 -47.5 -99.5t-105.5 -35.5z" />
    <glyph glyph-name="Aogonek" unicode="&#x104;" horiz-adv-x="674" 
d="M655 -98v-58q-12 -2 -32 -2q-56 0 -86.5 21.5t-30.5 56.5q0 39 38 80h-15l-58 165h-272l-58 -165h-117l257 704h112l257 -704h-27q-30 -33 -30 -60q0 -40 62 -38zM235 268h200l-100 281z" />
    <glyph glyph-name="aogonek" unicode="&#x105;" horiz-adv-x="512" 
d="M459 -98v-58q-12 -2 -32 -2q-56 0 -86.5 21.5t-30.5 56.5q0 39 38 80h-5v65q-52 -75 -147 -75q-69 0 -115.5 43.5t-46.5 118.5v5q0 83 50.5 126.5t137.5 43.5q59 0 122 -21v22q0 53 -29.5 80.5t-84.5 27.5q-58 0 -128 -32l-32 90q86 42 175 42q104 0 156 -54
q53 -53 53 -153v-329h-27q-30 -33 -30 -60q0 -40 62 -38zM230 75q49 -1 82 28.5t33 74.5v53q-45 19 -98 19q-49 0 -76 -23.5t-27 -65.5v-2q0 -39 24 -61t62 -23z" />
    <glyph glyph-name="Cacute" unicode="&#x106;" horiz-adv-x="617" 
d="M357 -10q-135 0 -221 98.5t-86 257.5v7q0 158 88 257.5t225 99.5q125 0 220 -87l-70 -89q-73 68 -150 68q-83 0 -138 -69t-55 -180v-4q0 -112 54.5 -181.5t138.5 -69.5q79 0 155 73l68 -82q-96 -99 -229 -99zM300 758l102 139l102 -47l-117 -92h-87z" />
    <glyph glyph-name="cacute" unicode="&#x107;" horiz-adv-x="481" 
d="M225 589l97 157l100 -47l-114 -110h-83zM278 -11q-104 0 -171 75.5t-67 193.5v10q0 118 68.5 195t173.5 77q98 0 170 -72l-63 -83q-51 53 -107 53t-92 -48t-36 -123v-5q0 -77 36.5 -124.5t94.5 -47.5q54 0 108 54l61 -75q-71 -80 -176 -80z" />
    <glyph glyph-name="Cdotaccent" unicode="&#x10a;" horiz-adv-x="617" 
d="M289 760v107h116v-107h-116zM357 -10q-135 0 -221 98.5t-86 257.5v7q0 158 88 257.5t225 99.5q125 0 220 -87l-70 -89q-73 68 -150 68q-83 0 -138 -69t-55 -180v-4q0 -112 54.5 -181.5t138.5 -69.5q79 0 155 73l68 -82q-96 -99 -229 -99z" />
    <glyph glyph-name="cdotaccent" unicode="&#x10b;" horiz-adv-x="481" 
d="M278 -11q-104 0 -171 75.5t-67 193.5v10q0 118 68.5 195t173.5 77q98 0 170 -72l-63 -83q-51 53 -107 53t-92 -48t-36 -123v-5q0 -77 36.5 -124.5t94.5 -47.5q54 0 108 54l61 -75q-71 -80 -176 -80zM213 591v111h116v-111h-116z" />
    <glyph glyph-name="Ccaron" unicode="&#x10c;" horiz-adv-x="617" 
d="M357 -10q-135 0 -221 98.5t-86 257.5v7q0 158 88 257.5t225 99.5q125 0 220 -87l-70 -89q-73 68 -150 68q-83 0 -138 -69t-55 -180v-4q0 -112 54.5 -181.5t138.5 -69.5q79 0 155 73l68 -82q-96 -99 -229 -99zM506 887l-107 -128h-104l-107 128h93l67 -55l67 55h91z" />
    <glyph glyph-name="ccaron" unicode="&#x10d;" horiz-adv-x="481" 
d="M424 732l-103 -143h-100l-103 143h86l68 -66l68 66h84zM278 -11q-104 0 -171 75.5t-67 193.5v10q0 118 68.5 195t173.5 77q98 0 170 -72l-63 -83q-51 53 -107 53t-92 -48t-36 -123v-5q0 -77 36.5 -124.5t94.5 -47.5q54 0 108 54l61 -75q-71 -80 -176 -80z" />
    <glyph glyph-name="Dcaron" unicode="&#x10e;" horiz-adv-x="672" 
d="M76 0v700h214q150 0 241 -95.5t91 -249.5v-8q0 -154 -91.5 -250.5t-240.5 -96.5h-214zM289 595h-97v-490h97q97 0 155 64.5t58 176.5v6q0 112 -58 177.5t-155 65.5zM482 880l-107 -128h-104l-107 128h93l67 -55l67 55h91z" />
    <glyph glyph-name="dcaron" unicode="&#x10f;" horiz-adv-x="580" 
d="M562 579l11 178h86v-3l-50 -175h-47zM248 -10q-85 0 -145.5 70.5t-60.5 197.5v13q0 128 60 198.5t146 70.5q92 0 155 -90v272h113v-722h-113v85q-61 -95 -155 -95zM279 90q53 0 89.5 47t36.5 123v10q0 76 -36.5 123t-89.5 47t-88 -46.5t-35 -124.5v-8q0 -78 35.5 -124.5
t87.5 -46.5z" />
    <glyph glyph-name="Dcroat" unicode="&#x110;" horiz-adv-x="695" 
d="M99 0v300h-65v104h65v296h214q149 0 240.5 -95.5t91.5 -249.5v-8q0 -154 -91.5 -250.5t-240.5 -96.5h-214zM356 300h-141v-195h98q96 0 154 65t58 176v6q0 112 -58 177.5t-154 65.5h-98v-191h141v-104z" />
    <glyph glyph-name="dcroat" unicode="&#x111;" horiz-adv-x="580" 
d="M263 596v73h140v53h113v-53h59v-74h-59v-595h-113v85q-61 -95 -155 -95q-85 0 -145.5 70.5t-60.5 197.5v13q0 127 60 198t146 71q92 0 155 -90v146h-140zM279 90q53 0 89.5 47t36.5 123v10q0 76 -36.5 123t-89.5 47t-88 -46.5t-35 -124.5v-8q0 -78 35.5 -124.5
t87.5 -46.5z" />
    <glyph glyph-name="Emacron" unicode="&#x112;" horiz-adv-x="568" 
d="M138 761v83h320v-83h-320zM76 0v700h441v-105h-326v-190h289v-105h-289v-195h331v-105h-446z" />
    <glyph glyph-name="emacron" unicode="&#x113;" horiz-adv-x="524" 
d="M282 -11q-104 0 -173 74t-69 196v8q0 119 64 196t162 77q105 0 162.5 -77.5t57.5 -201.5q0 -23 -1 -39h-332q7 -65 44 -101t90 -36q64 0 122 56l59 -70q-77 -82 -186 -82zM152 300h224q-5 65 -33.5 105t-76.5 40q-47 0 -77.5 -39t-36.5 -106zM113 598v81h302v-81h-302z
" />
    <glyph glyph-name="Ebreve" unicode="&#x114;" horiz-adv-x="568" 
d="M298 749q-66 0 -107.5 32.5t-46.5 92.5h79q14 -47 75 -47t75 47h79q-5 -60 -46.5 -92.5t-107.5 -32.5zM76 0v700h441v-105h-326v-190h289v-105h-289v-195h331v-105h-446z" />
    <glyph glyph-name="ebreve" unicode="&#x115;" horiz-adv-x="524" 
d="M282 -11q-104 0 -173 74t-69 196v8q0 119 64 196t162 77q105 0 162.5 -77.5t57.5 -201.5q0 -23 -1 -39h-332q7 -65 44 -101t90 -36q64 0 122 56l59 -70q-77 -82 -186 -82zM152 300h224q-5 65 -33.5 105t-76.5 40q-47 0 -77.5 -39t-36.5 -106zM264 586q-64 0 -105.5 35.5
t-47.5 99.5h76q17 -57 77 -57t77 57h76q-6 -64 -47.5 -99.5t-105.5 -35.5z" />
    <glyph glyph-name="Edotaccent" unicode="&#x116;" horiz-adv-x="568" 
d="M240 753v107h116v-107h-116zM76 0v700h441v-105h-326v-190h289v-105h-289v-195h331v-105h-446z" />
    <glyph glyph-name="edotaccent" unicode="&#x117;" horiz-adv-x="524" 
d="M282 -11q-104 0 -173 74t-69 196v8q0 119 64 196t162 77q105 0 162.5 -77.5t57.5 -201.5q0 -23 -1 -39h-332q7 -65 44 -101t90 -36q64 0 122 56l59 -70q-77 -82 -186 -82zM152 300h224q-5 65 -33.5 105t-76.5 40q-47 0 -77.5 -39t-36.5 -106zM206 591v111h116v-111h-116z
" />
    <glyph glyph-name="Eogonek" unicode="&#x118;" horiz-adv-x="568" 
d="M76 0v700h441v-105h-326v-190h289v-105h-289v-195h331v-105h-34q-30 -33 -30 -60q0 -40 62 -38v-58q-12 -2 -32 -2q-56 0 -86.5 21.5t-30.5 56.5q0 39 38 80h-333z" />
    <glyph glyph-name="eogonek" unicode="&#x119;" horiz-adv-x="524" 
d="M152 300h224q-5 65 -33.5 105t-76.5 40q-47 0 -77.5 -39t-36.5 -106zM409 141l59 -70q-23 -25 -44 -43q-52 -49 -52 -85q0 -41 62 -41v-58q-12 -2 -33 -2q-56 0 -86 20.5t-30 55.5t33 74q-15 -3 -36 -3q-104 0 -173 74t-69 196v8q0 119 64 196t162 77q105 0 162.5 -77.5
t57.5 -201.5q0 -3 -0.5 -19t-0.5 -20h-332q7 -65 44 -101t90 -36q64 0 122 56z" />
    <glyph glyph-name="Ecaron" unicode="&#x11a;" horiz-adv-x="568" 
d="M457 880l-107 -128h-104l-107 128h93l67 -55l67 55h91zM76 0v700h441v-105h-326v-190h289v-105h-289v-195h331v-105h-446z" />
    <glyph glyph-name="ecaron" unicode="&#x11b;" horiz-adv-x="524" 
d="M417 732l-103 -143h-100l-103 143h86l68 -66l68 66h84zM282 -11q-104 0 -173 74t-69 196v8q0 119 64 196t162 77q105 0 162.5 -77.5t57.5 -201.5q0 -23 -1 -39h-332q7 -65 44 -101t90 -36q64 0 122 56l59 -70q-77 -82 -186 -82zM152 300h224q-5 65 -33.5 105t-76.5 40
q-47 0 -77.5 -39t-36.5 -106z" />
    <glyph glyph-name="Gbreve" unicode="&#x11e;" horiz-adv-x="670" 
d="M357 756q-66 0 -107.5 32.5t-46.5 92.5h79q14 -47 75 -47t75 47h79q-5 -60 -46.5 -92.5t-107.5 -32.5zM370 -10q-143 0 -231.5 97t-88.5 258v8q0 155 90 256t231 101q128 0 222 -79l-69 -92q-70 63 -155 63q-86 0 -142.5 -70t-56.5 -178v-6q0 -116 57 -184t148 -68
q72 0 124 37v154h-147v102h257v-314q-107 -85 -239 -85z" />
    <glyph glyph-name="gbreve" unicode="&#x11f;" horiz-adv-x="580" 
d="M265 -153q-109 0 -201 50l37 89q74 -45 159 -45q144 0 144 140v51q-66 -93 -160 -93q-84 0 -143 65.5t-59 182.5v4q0 117 59 183t143 66q95 0 159 -89v79h113v-444q0 -116 -60 -176q-62 -63 -191 -63zM278 137q53 0 90 42t37 109v2q0 68 -37 109.5t-90 41.5t-87.5 -41
t-34.5 -110v-1q0 -69 35 -110.5t87 -41.5zM296 586q-64 0 -105.5 35.5t-47.5 99.5h76q17 -57 77 -57t77 57h76q-6 -64 -47.5 -99.5t-105.5 -35.5z" />
    <glyph glyph-name="Gdotaccent" unicode="&#x120;" horiz-adv-x="670" 
d="M299 760v107h116v-107h-116zM370 -10q-143 0 -231.5 97t-88.5 258v8q0 155 90 256t231 101q128 0 222 -79l-69 -92q-70 63 -155 63q-86 0 -142.5 -70t-56.5 -178v-6q0 -116 57 -184t148 -68q72 0 124 37v154h-147v102h257v-314q-107 -85 -239 -85z" />
    <glyph glyph-name="gdotaccent" unicode="&#x121;" horiz-adv-x="580" 
d="M265 -153q-109 0 -201 50l37 89q74 -45 159 -45q144 0 144 140v51q-66 -93 -160 -93q-84 0 -143 65.5t-59 182.5v4q0 117 59 183t143 66q95 0 159 -89v79h113v-444q0 -116 -60 -176q-62 -63 -191 -63zM278 137q53 0 90 42t37 109v2q0 68 -37 109.5t-90 41.5t-87.5 -41
t-34.5 -110v-1q0 -69 35 -110.5t87 -41.5zM238 591v111h116v-111h-116z" />
    <glyph glyph-name="Gcommaaccent" unicode="&#x122;" horiz-adv-x="670" 
d="M297 -255l-7 37q66 10 62 63h-50v95h110v-83q0 -55 -28.5 -81.5t-86.5 -30.5zM370 -10q-143 0 -231.5 97t-88.5 258v8q0 155 90 256t231 101q128 0 222 -79l-69 -92q-70 63 -155 63q-86 0 -142.5 -70t-56.5 -178v-6q0 -116 57 -184t148 -68q72 0 124 37v154h-147v102h257
v-314q-107 -85 -239 -85z" />
    <glyph glyph-name="gcommaaccent" unicode="&#x123;" horiz-adv-x="580" 
d="M354 786l7 -37q-66 -10 -62 -63h50v-95h-110v83q0 55 28.5 81.5t86.5 30.5zM265 -153q-109 0 -201 50l37 89q74 -45 159 -45q144 0 144 140v51q-66 -93 -160 -93q-84 0 -143 65.5t-59 182.5v4q0 117 59 183t143 66q95 0 159 -89v79h113v-444q0 -116 -60 -176
q-62 -63 -191 -63zM278 137q53 0 90 42t37 109v2q0 68 -37 109.5t-90 41.5t-87.5 -41t-34.5 -110v-1q0 -69 35 -110.5t87 -41.5z" />
    <glyph glyph-name="Hbar" unicode="&#x126;" horiz-adv-x="675" 
d="M21 516v87h63v97h116v-98h275v98h116v-97h63v-87h-63v-516h-116v297h-275v-297h-116v516h-63zM200 405h275v113h-275v-113z" />
    <glyph glyph-name="hbar" unicode="&#x127;" horiz-adv-x="544" 
d="M317 596h-140v-144q56 88 144 88q77 0 120.5 -50t43.5 -135v-355h-113v323q0 55 -25 85t-70 30t-72.5 -31.5t-27.5 -85.5v-321h-113v595h-59v74h59v53h113v-53h140v-73z" />
    <glyph glyph-name="Imacron" unicode="&#x12a;" horiz-adv-x="279" 
d="M82 0v700h116v-700h-116zM-20 761v83h320v-83h-320z" />
    <glyph glyph-name="imacron" unicode="&#x12b;" horiz-adv-x="253" 
d="M70 0v530h113v-530h-113zM-24 598v81h302v-81h-302z" />
    <glyph glyph-name="Ibreve" unicode="&#x12c;" horiz-adv-x="279" 
d="M82 0v700h116v-700h-116zM140 749q-66 0 -107.5 32.5t-46.5 92.5h79q14 -47 75 -47t75 47h79q-5 -60 -46.5 -92.5t-107.5 -32.5z" />
    <glyph glyph-name="ibreve" unicode="&#x12d;" horiz-adv-x="253" 
d="M70 0v530h113v-530h-113zM127 586q-64 0 -105.5 35.5t-47.5 99.5h76q17 -57 77 -57t77 57h76q-6 -64 -47.5 -99.5t-105.5 -35.5z" />
    <glyph glyph-name="Iogonek" unicode="&#x12e;" horiz-adv-x="279" 
d="M82 0v700h116v-700h-20q-30 -33 -30 -60q0 -40 62 -38v-58q-12 -2 -32 -2q-56 0 -86.5 21.5t-30.5 56.5q0 39 38 80h-17z" />
    <glyph glyph-name="iogonek" unicode="&#x12f;" horiz-adv-x="253" 
d="M70 0v530h113v-530h-18q-30 -33 -30 -60q0 -40 62 -38v-58q-12 -2 -32 -2q-56 0 -86.5 21.5t-30.5 56.5q0 39 38 80h-16zM66 607v111h120v-111h-120z" />
    <glyph glyph-name="Idotaccent" unicode="&#x130;" horiz-adv-x="279" 
d="M82 0v700h116v-700h-116zM82 753v107h116v-107h-116z" />
    <glyph glyph-name="dotlessi" unicode="&#x131;" horiz-adv-x="253" 
d="M70 0v530h113v-530h-113z" />
    <glyph glyph-name="Kcommaaccent" unicode="&#x136;" horiz-adv-x="626" 
d="M255 -250l-7 37q66 10 62 63h-50v95h110v-83q0 -55 -28.5 -81.5t-86.5 -30.5zM76 0v700h116v-344l271 344h140l-244 -301l255 -399h-138l-197 307l-87 -105v-202h-116z" />
    <glyph glyph-name="kcommaaccent" unicode="&#x137;" horiz-adv-x="509" 
d="M204 -253l-7 37q66 10 62 63h-50v95h110v-83q0 -55 -28.5 -81.5t-86.5 -30.5zM64 0v722h113v-425l181 233h134l-176 -216l181 -314h-131l-128 227l-61 -74v-153h-113z" />
    <glyph glyph-name="Lacute" unicode="&#x139;" horiz-adv-x="522" 
d="M104 751l102 139l102 -47l-117 -92h-87zM76 0v700h116v-593h300v-107h-416z" />
    <glyph glyph-name="lacute" unicode="&#x13a;" horiz-adv-x="253" 
d="M85 762l102 139l102 -47l-117 -92h-87zM70 0v722h113v-722h-113z" />
    <glyph glyph-name="Lcommaaccent" unicode="&#x13b;" horiz-adv-x="522" 
d="M222 -253l-7 37q66 10 62 63h-50v95h110v-83q0 -55 -28.5 -81.5t-86.5 -30.5zM76 0v700h116v-593h300v-107h-416z" />
    <glyph glyph-name="lcommaaccent" unicode="&#x13c;" horiz-adv-x="253" 
d="M67 -253l-7 37q66 10 62 63h-50v95h110v-83q0 -55 -28.5 -81.5t-86.5 -30.5zM70 0v722h113v-722h-113z" />
    <glyph glyph-name="Lcaron" unicode="&#x13d;" horiz-adv-x="522" 
d="M255 522l11 178h86v-3l-50 -175h-47zM76 0v700h116v-593h300v-107h-416z" />
    <glyph glyph-name="lcaron" unicode="&#x13e;" horiz-adv-x="253" 
d="M230 579l11 178h86v-3l-50 -175h-47zM70 0v722h113v-722h-113z" />
    <glyph glyph-name="Ldot" unicode="&#x13f;" horiz-adv-x="522" 
d="M349 316v112h111v-112h-111zM76 0v700h116v-593h300v-107h-416z" />
    <glyph glyph-name="ldot" unicode="&#x140;" horiz-adv-x="332" 
d="M244 316v107h97v-107h-97zM70 0v722h113v-722h-113z" />
    <glyph glyph-name="Lslash" unicode="&#x141;" horiz-adv-x="549" 
d="M349 382l-135 -65v-210h301v-107h-416v262l-65 -32v111l65 31v328h115v-272l135 66v-112z" />
    <glyph glyph-name="lslash" unicode="&#x142;" horiz-adv-x="302" 
d="M275 380l-68 -37v-343h-112v283l-68 -36v110l68 36v329h112v-269l68 37v-110z" />
    <glyph glyph-name="Nacute" unicode="&#x143;" horiz-adv-x="681" 
d="M293 750l102 139l102 -47l-117 -92h-87zM76 0v700h108l308 -467v467h113v-700h-98l-317 481v-481h-114z" />
    <glyph glyph-name="nacute" unicode="&#x144;" horiz-adv-x="544" 
d="M227 589l97 157l100 -47l-114 -110h-83zM64 0v530h113v-78q56 88 145 88q76 0 119.5 -50t43.5 -135v-355h-113v323q0 55 -25 85t-70 30t-72.5 -31.5t-27.5 -85.5v-321h-113z" />
    <glyph glyph-name="Ncommaaccent" unicode="&#x145;" horiz-adv-x="681" 
d="M280 -250l-7 37q66 10 62 63h-50v95h110v-83q0 -55 -28.5 -81.5t-86.5 -30.5zM76 0v700h108l308 -467v467h113v-700h-98l-317 481v-481h-114z" />
    <glyph glyph-name="ncommaaccent" unicode="&#x146;" horiz-adv-x="544" 
d="M213 -253l-7 37q66 10 62 63h-50v95h110v-83q0 -55 -28.5 -81.5t-86.5 -30.5zM64 0v530h113v-78q56 88 145 88q76 0 119.5 -50t43.5 -135v-355h-113v323q0 55 -25 85t-70 30t-72.5 -31.5t-27.5 -85.5v-321h-113z" />
    <glyph glyph-name="Ncaron" unicode="&#x147;" horiz-adv-x="681" 
d="M499 879l-107 -128h-104l-107 128h93l67 -55l67 55h91zM76 0v700h108l308 -467v467h113v-700h-98l-317 481v-481h-114z" />
    <glyph glyph-name="ncaron" unicode="&#x148;" horiz-adv-x="544" 
d="M427 732l-103 -143h-100l-103 143h86l68 -66l68 66h84zM64 0v530h113v-78q56 88 145 88q76 0 119.5 -50t43.5 -135v-355h-113v323q0 55 -25 85t-70 30t-72.5 -31.5t-27.5 -85.5v-321h-113z" />
    <glyph glyph-name="Omacron" unicode="&#x14c;" horiz-adv-x="720" 
d="M199 768v83h320v-83h-320zM359 -11q-136 0 -222.5 99.5t-86.5 255.5v10q0 156 87 256.5t224 100.5q136 0 222.5 -99.5t86.5 -255.5v-10q0 -156 -87 -256.5t-224 -100.5zM361 96q83 0 136 69t53 181v7q0 112 -53.5 181.5t-137.5 69.5q-83 0 -136 -69t-53 -181v-7
q0 -112 54 -181.5t137 -69.5z" />
    <glyph glyph-name="omacron" unicode="&#x14d;" horiz-adv-x="568" 
d="M133 598v81h302v-81h-302zM283 -11q-105 0 -174 76.5t-69 193.5v9q0 117 69.5 194.5t175.5 77.5q105 0 174 -76.5t69 -194.5v-9q0 -117 -69.5 -194t-175.5 -77zM285 88q58 0 94 49t36 124v6q0 75 -37.5 124t-94.5 49q-59 0 -94.5 -48.5t-35.5 -123.5v-6
q0 -75 37.5 -124.5t94.5 -49.5z" />
    <glyph glyph-name="Obreve" unicode="&#x14e;" horiz-adv-x="720" 
d="M359 756q-66 0 -107.5 32.5t-46.5 92.5h79q14 -47 75 -47t75 47h79q-5 -60 -46.5 -92.5t-107.5 -32.5zM359 -11q-136 0 -222.5 99.5t-86.5 255.5v10q0 156 87 256.5t224 100.5q136 0 222.5 -99.5t86.5 -255.5v-10q0 -156 -87 -256.5t-224 -100.5zM361 96q83 0 136 69
t53 181v7q0 112 -53.5 181.5t-137.5 69.5q-83 0 -136 -69t-53 -181v-7q0 -112 54 -181.5t137 -69.5z" />
    <glyph glyph-name="obreve" unicode="&#x14f;" horiz-adv-x="568" 
d="M283 -11q-105 0 -174 76.5t-69 193.5v9q0 117 69.5 194.5t175.5 77.5q105 0 174 -76.5t69 -194.5v-9q0 -117 -69.5 -194t-175.5 -77zM285 88q58 0 94 49t36 124v6q0 75 -37.5 124t-94.5 49q-59 0 -94.5 -48.5t-35.5 -123.5v-6q0 -75 37.5 -124.5t94.5 -49.5zM284 586
q-64 0 -105.5 35.5t-47.5 99.5h76q17 -57 77 -57t77 57h76q-6 -64 -47.5 -99.5t-105.5 -35.5z" />
    <glyph glyph-name="Ohungarumlaut" unicode="&#x150;" horiz-adv-x="720" 
d="M359 -11q-136 0 -222.5 99.5t-86.5 255.5v10q0 156 87 256.5t224 100.5q136 0 222.5 -99.5t86.5 -255.5v-10q0 -156 -87 -256.5t-224 -100.5zM361 96q83 0 136 69t53 181v7q0 112 -53.5 181.5t-137.5 69.5q-83 0 -136 -69t-53 -181v-7q0 -112 54 -181.5t137 -69.5z
M230 758l102 139l97 -47l-115 -92h-84zM385 758l103 139l97 -47l-116 -92h-84z" />
    <glyph glyph-name="ohungarumlaut" unicode="&#x151;" horiz-adv-x="568" 
d="M309 589l96 157l96 -47l-113 -110h-79zM158 589l96 157l96 -47l-112 -110h-80zM283 -11q-105 0 -174 76.5t-69 193.5v9q0 117 69.5 194.5t175.5 77.5q105 0 174 -76.5t69 -194.5v-9q0 -117 -69.5 -194t-175.5 -77zM285 88q58 0 94 49t36 124v6q0 75 -37.5 124t-94.5 49
q-59 0 -94.5 -48.5t-35.5 -123.5v-6q0 -75 37.5 -124.5t94.5 -49.5z" />
    <glyph glyph-name="OE" unicode="&#x152;" horiz-adv-x="936" 
d="M382 0q-149 0 -240.5 95.5t-91.5 249.5v8q0 154 91.5 250.5t240.5 96.5h503v-105h-310v-190h274v-105h-274v-195h315v-105h-508zM382 105h77v490h-77q-96 0 -154 -65t-58 -176v-6q0 -112 58 -177.5t154 -65.5z" />
    <glyph glyph-name="oe" unicode="&#x153;" horiz-adv-x="897" 
d="M279 -11q-101 0 -170 76.5t-69 193.5v9q0 117 69.5 194.5t172.5 77.5q118 0 182 -103q61 103 174 103q104 0 162 -78t58 -201q0 -23 -1 -39h-332q7 -66 43.5 -101.5t90.5 -35.5q68 0 122 56l60 -70q-77 -82 -186 -82q-126 0 -192 105q-30 -49 -77.5 -77t-106.5 -28z
M524 300h224q-5 66 -33.5 105.5t-77.5 39.5q-46 0 -76.5 -39t-36.5 -106zM282 88q58 0 93 49t35 124v6q0 75 -36 124t-93 49q-58 0 -93 -48.5t-35 -123.5v-6q0 -75 36.5 -124.5t92.5 -49.5z" />
    <glyph glyph-name="Racute" unicode="&#x154;" horiz-adv-x="624" 
d="M76 0v700h253q121 0 187 -66q58 -58 58 -154v-4q0 -78 -39 -129.5t-106 -75.5l165 -271h-134l-149 248q-2 -1 -7 -1h-112v-247h-116zM192 351h125q67 0 103.5 32.5t36.5 88.5v2q0 59 -36 89.5t-102 30.5h-127v-243zM256 751l102 139l102 -47l-117 -92h-87z" />
    <glyph glyph-name="racute" unicode="&#x155;" horiz-adv-x="360" 
d="M149 589l97 157l100 -47l-114 -110h-83zM64 0v530h113v-104q48 118 159 112v-123h-5q-71 0 -112.5 -46.5t-41.5 -134.5v-234h-113z" />
    <glyph glyph-name="Rcommaaccent" unicode="&#x156;" horiz-adv-x="624" 
d="M243 -250l-7 37q66 10 62 63h-50v95h110v-83q0 -55 -28.5 -81.5t-86.5 -30.5zM76 0v700h253q121 0 187 -66q58 -58 58 -154v-4q0 -78 -39 -129.5t-106 -75.5l165 -271h-134l-149 248q-2 -1 -7 -1h-112v-247h-116zM192 351h125q67 0 103.5 32.5t36.5 88.5v2q0 59 -36 89.5
t-102 30.5h-127v-243z" />
    <glyph glyph-name="rcommaaccent" unicode="&#x157;" horiz-adv-x="360" 
d="M67 -253l-7 37q66 10 62 63h-50v95h110v-83q0 -55 -28.5 -81.5t-86.5 -30.5zM64 0v530h113v-104q48 118 159 112v-123h-5q-71 0 -112.5 -46.5t-41.5 -134.5v-234h-113z" />
    <glyph glyph-name="Rcaron" unicode="&#x158;" horiz-adv-x="624" 
d="M462 880l-107 -128h-104l-107 128h93l67 -55l67 55h91zM76 0v700h253q121 0 187 -66q58 -58 58 -154v-4q0 -78 -39 -129.5t-106 -75.5l165 -271h-134l-149 248q-2 -1 -7 -1h-112v-247h-116zM192 351h125q67 0 103.5 32.5t36.5 88.5v2q0 59 -36 89.5t-102 30.5h-127v-243z
" />
    <glyph glyph-name="rcaron" unicode="&#x159;" horiz-adv-x="360" 
d="M347 732l-103 -143h-100l-103 143h86l68 -66l68 66h84zM64 0v530h113v-104q48 118 159 112v-123h-5q-71 0 -112.5 -46.5t-41.5 -134.5v-234h-113z" />
    <glyph glyph-name="Sacute" unicode="&#x15a;" horiz-adv-x="549" 
d="M279 -9q-143 0 -253 101l70 87q92 -83 184 -83q50 0 80 25t30 64v1q0 35 -27 60t-107 54q-107 40 -154.5 85.5t-47.5 125.5v2q0 86 62 141t160 55q126 0 220 -82l-66 -89q-81 66 -157 66q-46 0 -74 -23t-28 -58v-1q0 -38 29 -62.5t116 -58.5q101 -39 145.5 -85.5
t44.5 -120.5v-2q0 -91 -63.5 -146.5t-163.5 -55.5zM232 758l102 139l102 -47l-117 -92h-87z" />
    <glyph glyph-name="sacute" unicode="&#x15b;" horiz-adv-x="434" 
d="M174 589l97 157l100 -47l-114 -110h-83zM217 -10q-108 0 -197 74l53 81q76 -62 146 -62q34 0 54 16.5t20 41.5v1q0 18 -15 33t-32 23.5t-57 25.5q-72 31 -108.5 64.5t-36.5 92.5v2q0 70 49.5 112.5t125.5 42.5q93 0 172 -57l-48 -83q-70 47 -126 47q-31 0 -49 -15
t-18 -37v-2q0 -17 15.5 -31.5t31.5 -23t57 -26.5q72 -32 108 -66.5t36 -91.5v-1q0 -76 -51 -118.5t-130 -42.5z" />
    <glyph glyph-name="Scedilla" unicode="&#x15e;" horiz-adv-x="549" 
d="M264 -152l-99 41l70 105q-118 13 -209 98l70 87q92 -83 184 -83q50 0 80 25t30 64v1q0 35 -27 60t-107 54q-107 40 -154.5 85.5t-47.5 125.5v2q0 86 62 141t160 55q126 0 220 -82l-66 -89q-81 66 -157 66q-46 0 -74 -23t-28 -58v-1q0 -38 29 -62.5t116 -58.5
q101 -39 145.5 -85.5t44.5 -120.5v-2q0 -81 -50.5 -134.5t-132.5 -64.5z" />
    <glyph glyph-name="scedilla" unicode="&#x15f;" horiz-adv-x="434" 
d="M198 -152l-99 41l70 105q-82 13 -149 70l53 81q76 -62 146 -62q34 0 54 16.5t20 41.5v1q0 18 -15 33t-32 23.5t-57 25.5q-72 31 -108.5 64.5t-36.5 92.5v2q0 70 49.5 112.5t125.5 42.5q93 0 172 -57l-48 -83q-70 47 -126 47q-31 0 -49 -15t-18 -37v-2q0 -17 15.5 -31.5
t31.5 -23t57 -26.5q72 -32 108 -66.5t36 -91.5v-1q0 -65 -39 -106.5t-103 -51.5z" />
    <glyph glyph-name="Scaron" unicode="&#x160;" horiz-adv-x="549" 
d="M279 -9q-143 0 -253 101l70 87q92 -83 184 -83q50 0 80 25t30 64v1q0 35 -27 60t-107 54q-107 40 -154.5 85.5t-47.5 125.5v2q0 86 62 141t160 55q126 0 220 -82l-66 -89q-81 66 -157 66q-46 0 -74 -23t-28 -58v-1q0 -38 29 -62.5t116 -58.5q101 -39 145.5 -85.5
t44.5 -120.5v-2q0 -91 -63.5 -146.5t-163.5 -55.5zM438 887l-107 -128h-104l-107 128h93l67 -55l67 55h91z" />
    <glyph glyph-name="scaron" unicode="&#x161;" horiz-adv-x="434" 
d="M374 732l-103 -143h-100l-103 143h86l68 -66l68 66h84zM217 -10q-108 0 -197 74l53 81q76 -62 146 -62q34 0 54 16.5t20 41.5v1q0 18 -15 33t-32 23.5t-57 25.5q-72 31 -108.5 64.5t-36.5 92.5v2q0 70 49.5 112.5t125.5 42.5q93 0 172 -57l-48 -83q-70 47 -126 47
q-31 0 -49 -15t-18 -37v-2q0 -17 15.5 -31.5t31.5 -23t57 -26.5q72 -32 108 -66.5t36 -91.5v-1q0 -76 -51 -118.5t-130 -42.5z" />
    <glyph glyph-name="Tcommaaccent" unicode="&#x162;" horiz-adv-x="549" 
d="M214 -253l-7 37q66 10 62 63h-50v95h110v-83q0 -55 -28.5 -81.5t-86.5 -30.5zM216 0v592h-184v108h484v-108h-184v-592h-116z" />
    <glyph glyph-name="tcommaaccent" unicode="&#x163;" horiz-adv-x="356" 
d="M135 -253l-7 37q66 10 62 63h-50v95h110v-83q0 -55 -28.5 -81.5t-86.5 -30.5zM223 -8q-137 0 -137 136v305h-58v97h58v143h113v-143h119v-97h-119v-282q0 -58 57 -58q32 0 61 15v-93q-43 -23 -94 -23z" />
    <glyph glyph-name="Tcaron" unicode="&#x164;" horiz-adv-x="549" 
d="M433 880l-107 -128h-104l-107 128h93l67 -55l67 55h91zM216 0v592h-184v108h484v-108h-184v-592h-116z" />
    <glyph glyph-name="tcaron" unicode="&#x165;" horiz-adv-x="356" 
d="M260 579l11 178h86v-3l-50 -175h-47zM223 -8q-137 0 -137 136v305h-58v97h58v143h113v-143h119v-97h-119v-282q0 -58 57 -58q32 0 61 15v-93q-43 -23 -94 -23z" />
    <glyph glyph-name="Umacron" unicode="&#x16a;" horiz-adv-x="655" 
d="M166 760v83h320v-83h-320zM326 -11q-120 0 -189.5 72t-69.5 206v433h116v-432q0 -84 38.5 -128t106.5 -44q67 0 105.5 43t38.5 125v436h115v-429q0 -138 -69.5 -210t-191.5 -72z" />
    <glyph glyph-name="umacron" unicode="&#x16b;" horiz-adv-x="544" 
d="M222 -10q-77 0 -120 49.5t-43 135.5v355h113v-323q0 -55 24.5 -85t69.5 -30t72.5 31.5t27.5 85.5v321h114v-530h-114v77q-56 -87 -144 -87zM118 598v81h302v-81h-302z" />
    <glyph glyph-name="Ubreve" unicode="&#x16c;" horiz-adv-x="655" 
d="M326 742q-66 0 -107.5 32.5t-46.5 92.5h79q14 -47 75 -47t75 47h79q-5 -60 -46.5 -92.5t-107.5 -32.5zM326 -11q-120 0 -189.5 72t-69.5 206v433h116v-432q0 -84 38.5 -128t106.5 -44q67 0 105.5 43t38.5 125v436h115v-429q0 -138 -69.5 -210t-191.5 -72z" />
    <glyph glyph-name="ubreve" unicode="&#x16d;" horiz-adv-x="544" 
d="M222 -10q-77 0 -120 49.5t-43 135.5v355h113v-323q0 -55 24.5 -85t69.5 -30t72.5 31.5t27.5 85.5v321h114v-530h-114v77q-56 -87 -144 -87zM269 586q-64 0 -105.5 35.5t-47.5 99.5h76q17 -57 77 -57t77 57h76q-6 -64 -47.5 -99.5t-105.5 -35.5z" />
    <glyph glyph-name="Uring" unicode="&#x16e;" horiz-adv-x="655" 
d="M326 -11q-120 0 -189.5 72t-69.5 206v433h116v-432q0 -84 38.5 -128t106.5 -44q67 0 105.5 43t38.5 125v436h115v-429q0 -138 -69.5 -210t-191.5 -72zM326 731q-45 0 -76.5 28t-31.5 70t31.5 70t76.5 28t76.5 -28t31.5 -70t-31.5 -70t-76.5 -28zM326 776q25 0 41.5 15
t16.5 38t-16.5 38t-41.5 15t-41.5 -15t-16.5 -38t16.5 -38t41.5 -15z" />
    <glyph glyph-name="uring" unicode="&#x16f;" horiz-adv-x="544" 
d="M269 575q-44 0 -75 30.5t-31 73.5t31 73.5t75 30.5t75 -30t31 -74q0 -43 -31 -73.5t-75 -30.5zM269 618q25 0 42 17.5t17 43.5t-17 43.5t-42 17.5t-42 -17.5t-17 -43.5t17 -43.5t42 -17.5zM222 -10q-77 0 -120 49.5t-43 135.5v355h113v-323q0 -55 24.5 -85t69.5 -30
t72.5 31.5t27.5 85.5v321h114v-530h-114v77q-56 -87 -144 -87z" />
    <glyph glyph-name="Uhungarumlaut" unicode="&#x170;" horiz-adv-x="655" 
d="M326 -11q-120 0 -189.5 72t-69.5 206v433h116v-432q0 -84 38.5 -128t106.5 -44q67 0 105.5 43t38.5 125v436h115v-429q0 -138 -69.5 -210t-191.5 -72zM197 750l102 139l97 -47l-115 -92h-84zM352 750l103 139l97 -47l-116 -92h-84z" />
    <glyph glyph-name="uhungarumlaut" unicode="&#x171;" horiz-adv-x="544" 
d="M222 -10q-77 0 -120 49.5t-43 135.5v355h113v-323q0 -55 24.5 -85t69.5 -30t72.5 31.5t27.5 85.5v321h114v-530h-114v77q-56 -87 -144 -87zM294 589l96 157l96 -47l-113 -110h-79zM143 589l96 157l96 -47l-112 -110h-80z" />
    <glyph glyph-name="Uogonek" unicode="&#x172;" horiz-adv-x="655" 
d="M398 -98v-58q-12 -2 -32 -2q-56 0 -86.5 21.5t-30.5 56.5q0 34 31 72q-100 13 -156.5 83.5t-56.5 191.5v433h116v-432q0 -84 38.5 -128t106.5 -44q67 0 105.5 43t38.5 125v436h115v-429q0 -128 -61 -200t-168 -80q-22 -27 -22 -51q0 -40 62 -38z" />
    <glyph glyph-name="uogonek" unicode="&#x173;" horiz-adv-x="544" 
d="M222 -10q-77 0 -120 49.5t-43 135.5v355h113v-323q0 -55 24.5 -85t69.5 -30t72.5 31.5t27.5 85.5v321h114v-530h-24q-30 -33 -30 -60q0 -40 62 -38v-58q-12 -2 -32 -2q-56 0 -86.5 21.5t-30.5 56.5q0 39 38 80h-11v77q-56 -87 -144 -87z" />
    <glyph glyph-name="Wcircumflex" unicode="&#x174;" horiz-adv-x="961" 
d="M232 -4l-203 704h123l137 -508l143 510h100l143 -510l137 508h120l-204 -704h-105l-143 494l-143 -494h-105zM321 752l107 128h104l107 -128h-93l-67 55l-67 -55h-91z" />
    <glyph glyph-name="wcircumflex" unicode="&#x175;" horiz-adv-x="756" 
d="M224 589l103 143h100l103 -143h-86l-68 67l-68 -67h-84zM175 -4l-148 534h116l90 -358l98 359h96l98 -359l91 358h114l-149 -534h-104l-99 354l-100 -354h-103z" />
    <glyph glyph-name="Ycircumflex" unicode="&#x176;" horiz-adv-x="613" 
d="M249 0v279l-236 421h133l162 -303l163 303h129l-235 -420v-280h-116zM147 751l107 128h104l107 -128h-93l-67 55l-67 -55h-91z" />
    <glyph glyph-name="ycircumflex" unicode="&#x177;" horiz-adv-x="521" 
d="M265 145l115 385h117l-180 -538q-27 -80 -62.5 -113t-94.5 -33q-56 0 -107 28l33 87q32 -18 61 -18q23 0 37.5 12.5t26.5 43.5l-189 531h120zM108 589l103 143h100l103 -143h-86l-68 67l-68 -67h-84z" />
    <glyph glyph-name="Ydieresis" unicode="&#x178;" horiz-adv-x="613" 
d="M249 0v279l-236 421h133l162 -303l163 303h129l-235 -420v-280h-116zM341 752v107h114v-107h-114zM156 752v107h115v-107h-115z" />
    <glyph glyph-name="Zacute" unicode="&#x179;" horiz-adv-x="593" 
d="M53 0v86l344 510h-333v104h478v-86l-344 -510h344v-104h-489zM255 751l102 139l102 -47l-117 -92h-87z" />
    <glyph glyph-name="zacute" unicode="&#x17a;" horiz-adv-x="476" 
d="M195 589l97 157l100 -47l-114 -110h-83zM41 0v78l258 358h-249v94h387v-78l-258 -358h257v-94h-395z" />
    <glyph glyph-name="Zdotaccent" unicode="&#x17b;" horiz-adv-x="593" 
d="M244 753v107h116v-107h-116zM53 0v86l344 510h-333v104h478v-86l-344 -510h344v-104h-489z" />
    <glyph glyph-name="zdotaccent" unicode="&#x17c;" horiz-adv-x="476" 
d="M41 0v78l258 358h-249v94h387v-78l-258 -358h257v-94h-395zM183 591v111h116v-111h-116z" />
    <glyph glyph-name="Zcaron" unicode="&#x17d;" horiz-adv-x="593" 
d="M461 880l-107 -128h-104l-107 128h93l67 -55l67 55h91zM53 0v86l344 510h-333v104h478v-86l-344 -510h344v-104h-489z" />
    <glyph glyph-name="zcaron" unicode="&#x17e;" horiz-adv-x="476" 
d="M394 732l-103 -143h-100l-103 143h86l68 -66l68 66h84zM41 0v78l258 358h-249v94h387v-78l-258 -358h257v-94h-395z" />
    <glyph glyph-name="florin" unicode="&#x192;" horiz-adv-x="468" 
d="M86 -5q-29 0 -54 5v96q16 -4 37 -4q55 0 65 65l30 203h-70v94h84l15 101q24 150 162 150q51 0 84 -11v-97q-36 9 -61 9q-63 0 -74 -74l-11 -78h115v-94h-129l-33 -219q-12 -78 -50.5 -112t-109.5 -34z" />
    <glyph glyph-name="Aringacute" unicode="&#x1fa;" horiz-adv-x="674" 
d="M24 0l242 666q-38 28 -38 75q0 42 32 70t77 28t77 -28t32 -70q0 -47 -38 -75l242 -666h-121l-58 165h-272l-58 -165h-117zM235 268h200l-100 281zM288 865l104 120l101 -47l-116 -73h-89zM337 688q25 0 41.5 15t16.5 38t-16.5 38t-41.5 15t-41.5 -15t-16.5 -38t16.5 -38
t41.5 -15z" />
    <glyph glyph-name="aringacute" unicode="&#x1fb;" horiz-adv-x="512" 
d="M211 824l99 129l98 -46l-113 -83h-84zM196 -10q-69 0 -115.5 43.5t-46.5 118.5v5q0 83 50.5 126.5t137.5 43.5q59 0 122 -21v22q0 53 -29.5 80.5t-84.5 27.5q-58 0 -128 -32l-32 90q86 42 175 42q104 0 156 -54q53 -53 53 -153v-329h-111v65q-52 -75 -147 -75zM230 75
q49 -1 82 28.5t33 74.5v53q-45 19 -98 19q-49 0 -76 -23.5t-27 -65.5v-2q0 -39 24 -61t62 -23zM256 586q-44 0 -75 30.5t-31 73.5t31 73.5t75 30.5t75 -30t31 -74q0 -43 -31 -73.5t-75 -30.5zM256 629q25 0 42 17.5t17 43.5t-17 43.5t-42 17.5t-42 -17.5t-17 -43.5t17 -43.5
t42 -17.5z" />
    <glyph glyph-name="AEacute" unicode="&#x1fc;" horiz-adv-x="895" 
d="M479 751l102 139l102 -47l-117 -92h-87zM9 0l330 700h505v-105h-311v-190h274v-105h-274v-195h315v-105h-430v165h-214l-78 -165h-117zM251 268h167v327h-17z" />
    <glyph glyph-name="aeacute" unicode="&#x1fd;" horiz-adv-x="823" 
d="M363 589l97 157l100 -47l-114 -110h-83zM207 -10q-75 0 -124 44.5t-49 119.5v3q0 83 50.5 126.5t136.5 43.5q57 0 120 -21v22q0 52 -29 80t-83 28q-59 0 -127 -33l-32 92q87 41 173 41q120 0 165 -80q60 84 159 84q102 0 160 -78t58 -201q0 -7 -2 -39h-332
q8 -66 44.5 -101.5t90.5 -35.5q68 0 121 56l60 -70q-77 -82 -186 -82q-120 0 -185 95q-83 -94 -189 -94zM450 300h224q-4 65 -33 105t-77 40q-47 0 -77.5 -39t-36.5 -106zM231 76q73 0 129 74q-13 41 -16 82q-49 18 -98 18q-48 0 -75 -23.5t-27 -64.5v-3q0 -38 24.5 -60.5
t62.5 -22.5z" />
    <glyph glyph-name="Oslashacute" unicode="&#x1fe;" horiz-adv-x="720" 
d="M572 705h103l-80 -108q75 -99 75 -241v-10q0 -156 -87 -256.5t-224 -100.5q-99 0 -173 54l-37 -48h-104l80 108q-75 97 -75 241v10q0 156 87 256.5t224 100.5q98 0 173 -55zM168 347q0 -84 31 -146l271 365q-49 41 -111 41q-85 0 -138 -69.5t-53 -182.5v-8zM361 93
q85 0 138 69.5t53 182.5v8q0 81 -31 146l-271 -366q48 -40 111 -40zM313 758l102 139l102 -47l-117 -92h-87z" />
    <glyph glyph-name="oslashacute" unicode="&#x1ff;" horiz-adv-x="568" 
d="M445 535h95l-68 -88q56 -75 56 -178v-9q0 -117 -70 -194t-175 -77q-74 0 -132 39l-28 -34h-95l68 87q-56 75 -56 178v9q0 117 70 194.5t175 77.5q72 0 131 -40zM149 262q0 -50 17 -90l190 245q-34 26 -73 26q-60 0 -97 -49.5t-37 -125.5v-6zM285 86q60 0 96.5 49.5
t36.5 125.5v5q0 50 -17 90l-189 -246q30 -24 73 -24zM237 589l97 157l100 -47l-114 -110h-83z" />
    <glyph glyph-name="Scommaaccent" unicode="&#x218;" horiz-adv-x="549" 
d="M216 -255l-7 37q66 10 62 63h-50v95h110v-83q0 -55 -28.5 -81.5t-86.5 -30.5zM279 -9q-143 0 -253 101l70 87q92 -83 184 -83q50 0 80 25t30 64v1q0 35 -27 60t-107 54q-107 40 -154.5 85.5t-47.5 125.5v2q0 86 62 141t160 55q126 0 220 -82l-66 -89q-81 66 -157 66
q-46 0 -74 -23t-28 -58v-1q0 -38 29 -62.5t116 -58.5q101 -39 145.5 -85.5t44.5 -120.5v-2q0 -91 -63.5 -146.5t-163.5 -55.5z" />
    <glyph glyph-name="scommaaccent" unicode="&#x219;" horiz-adv-x="434" 
d="M158 -253l-7 37q66 10 62 63h-50v95h110v-83q0 -55 -28.5 -81.5t-86.5 -30.5zM217 -10q-108 0 -197 74l53 81q76 -62 146 -62q34 0 54 16.5t20 41.5v1q0 18 -15 33t-32 23.5t-57 25.5q-72 31 -108.5 64.5t-36.5 92.5v2q0 70 49.5 112.5t125.5 42.5q93 0 172 -57l-48 -83
q-70 47 -126 47q-31 0 -49 -15t-18 -37v-2q0 -17 15.5 -31.5t31.5 -23t57 -26.5q72 -32 108 -66.5t36 -91.5v-1q0 -76 -51 -118.5t-130 -42.5z" />
    <glyph glyph-name="schwa" unicode="&#x259;" horiz-adv-x="524" 
d="M242 540q104 0 173 -74t69 -196v-8q0 -119 -64 -196t-162 -77q-105 0 -162.5 77.5t-57.5 201.5q0 23 1 39h332q-7 65 -44 101t-90 36q-64 0 -122 -56l-59 70q77 82 186 82zM372 229h-224q5 -65 33.5 -105t76.5 -40q47 0 77.5 39t36.5 106z" />
    <glyph glyph-name="circumflex" unicode="&#x2c6;" horiz-adv-x="500" 
d="M97 589l103 143h100l103 -143h-86l-68 67l-68 -67h-84z" />
    <glyph glyph-name="caron" unicode="&#x2c7;" horiz-adv-x="500" 
d="M403 732l-103 -143h-100l-103 143h86l68 -66l68 66h84z" />
    <glyph glyph-name="breve" unicode="&#x2d8;" horiz-adv-x="500" 
d="M250 586q-64 0 -105.5 35.5t-47.5 99.5h76q17 -57 77 -57t77 57h76q-6 -64 -47.5 -99.5t-105.5 -35.5z" />
    <glyph glyph-name="dotaccent" unicode="&#x2d9;" horiz-adv-x="500" 
d="M192 591v111h116v-111h-116z" />
    <glyph glyph-name="ring" unicode="&#x2da;" horiz-adv-x="500" 
d="M250 586q-44 0 -75 30.5t-31 73.5t31 73.5t75 30.5t75 -30t31 -74q0 -43 -31 -73.5t-75 -30.5zM250 629q25 0 42 17.5t17 43.5t-17 43.5t-42 17.5t-42 -17.5t-17 -43.5t17 -43.5t42 -17.5z" />
    <glyph glyph-name="ogonek" unicode="&#x2db;" horiz-adv-x="500" 
d="M333 -98v-58q-12 -2 -32 -2q-56 0 -86.5 21.5t-30.5 56.5q0 40 49 91l76 -3q-38 -39 -38 -68q0 -40 62 -38z" />
    <glyph glyph-name="tilde" unicode="&#x2dc;" horiz-adv-x="500" 
d="M321 589q-28 0 -76 21q-38 18 -54 18q-17 0 -26.5 -10.5t-19.5 -35.5l-64 18q16 61 38 88.5t60 27.5q30 0 76 -22q38 -18 54 -18q17 0 27 10.5t19 36.5l64 -18q-16 -61 -38 -88.5t-60 -27.5z" />
    <glyph glyph-name="hungarumlaut" unicode="&#x2dd;" horiz-adv-x="500" 
d="M231 589l96 157l96 -47l-113 -110h-79zM80 589l96 157l96 -47l-112 -110h-80z" />
    <glyph glyph-name="commaaccent" unicode="&#x326;" horiz-adv-x="500" 
d="M191 -253l-7 37q66 10 62 63h-50v95h110v-83q0 -55 -28.5 -81.5t-86.5 -30.5z" />
    <glyph glyph-name="baht" unicode="&#xe3f;" horiz-adv-x="567" 
d="M288 782h77l-11 -87q74 -14 117 -58.5t43 -114.5v-2q0 -115 -111 -159q128 -48 128 -166v-3q0 -91 -66 -141.5t-177 -50.5h-14l-13 -119h-77l13 119h-132v700h213zM422 204q0 47 -30.5 74t-85.5 30l-25 -209h12q61 0 95 27t34 77v1zM172 397h74l24 204h-98v-204zM407 502
q0 72 -70 93l-22 -196q92 15 92 103zM172 99h41l25 210h-66v-210z" />
    <glyph glyph-name="Wgrave" unicode="&#x1e80;" horiz-adv-x="961" 
d="M527 751h-87l-117 92l102 47zM232 -4l-203 704h123l137 -508l143 510h100l143 -510l137 508h120l-204 -704h-105l-143 494l-143 -494h-105z" />
    <glyph glyph-name="wgrave" unicode="&#x1e81;" horiz-adv-x="756" 
d="M175 -4l-148 534h116l90 -358l98 359h96l98 -359l91 358h114l-149 -534h-104l-99 354l-100 -354h-103zM339 589l-114 110l101 47l96 -157h-83z" />
    <glyph glyph-name="Wacute" unicode="&#x1e82;" horiz-adv-x="961" 
d="M433 751l102 139l102 -47l-117 -92h-87zM232 -4l-203 704h123l137 -508l143 510h100l143 -510l137 508h120l-204 -704h-105l-143 494l-143 -494h-105z" />
    <glyph glyph-name="wacute" unicode="&#x1e83;" horiz-adv-x="756" 
d="M332 589l97 157l100 -47l-114 -110h-83zM175 -4l-148 534h116l90 -358l98 359h96l98 -359l91 358h114l-149 -534h-104l-99 354l-100 -354h-103z" />
    <glyph glyph-name="Wdieresis" unicode="&#x1e84;" horiz-adv-x="961" 
d="M515 753v107h114v-107h-114zM330 753v107h115v-107h-115zM232 -4l-203 704h123l137 -508l143 510h100l143 -510l137 508h120l-204 -704h-105l-143 494l-143 -494h-105z" />
    <glyph glyph-name="wdieresis" unicode="&#x1e85;" horiz-adv-x="756" 
d="M408 591v111h112v-111h-112zM234 591v111h112v-111h-112zM175 -4l-148 534h116l90 -358l98 359h96l98 -359l91 358h114l-149 -534h-104l-99 354l-100 -354h-103z" />
    <glyph glyph-name="Ygrave" unicode="&#x1ef2;" horiz-adv-x="613" 
d="M249 0v279l-236 421h133l162 -303l163 303h129l-235 -420v-280h-116zM353 750h-87l-117 92l102 47z" />
    <glyph glyph-name="ygrave" unicode="&#x1ef3;" horiz-adv-x="521" 
d="M265 145l115 385h117l-180 -538q-27 -80 -62.5 -113t-94.5 -33q-56 0 -107 28l33 87q32 -18 61 -18q23 0 37.5 12.5t26.5 43.5l-189 531h120zM223 589l-114 110l101 47l96 -157h-83z" />
    <glyph glyph-name="enspace" unicode="&#x2002;" horiz-adv-x="500" 
 />
    <glyph glyph-name="emspace" unicode="&#x2003;" horiz-adv-x="1000" 
 />
    <glyph glyph-name="threeperemspace" unicode="&#x2004;" horiz-adv-x="333" 
 />
    <glyph glyph-name="fourperemspace" unicode="&#x2005;" horiz-adv-x="250" 
 />
    <glyph glyph-name="figurespace" unicode="&#x2007;" horiz-adv-x="530" 
 />
    <glyph glyph-name="thinspace" unicode="&#x2009;" horiz-adv-x="130" 
 />
    <glyph glyph-name="hairspace" unicode="&#x200a;" horiz-adv-x="73" 
 />
    <glyph glyph-name="endash" unicode="&#x2013;" horiz-adv-x="501" 
d="M51 252v108h399v-108h-399z" />
    <glyph glyph-name="emdash" unicode="&#x2014;" horiz-adv-x="822" 
d="M51 252v108h720v-108h-720z" />
    <glyph glyph-name="quoteleft" unicode="&#x2018;" horiz-adv-x="249" 
d="M56 426v112q0 78 36.5 118t109.5 48l12 -48q-89 -19 -81 -97h51v-133h-128z" />
    <glyph glyph-name="quoteright" unicode="&#x2019;" horiz-adv-x="249" 
d="M47 422l-12 49q89 19 81 96h-51v133h128v-112q0 -78 -36.5 -118t-109.5 -48z" />
    <glyph glyph-name="quotesinglbase" unicode="&#x201a;" horiz-adv-x="254" 
d="M44 -145l-13 49q91 17 85 96h-52v133h128v-112q0 -78 -36.5 -118t-111.5 -48z" />
    <glyph glyph-name="quotedblleft" unicode="&#x201c;" horiz-adv-x="463" 
d="M270 426v112q0 78 36.5 118t110.5 48l12 -48q-90 -19 -82 -97h51v-133h-128zM56 426v112q0 78 36.5 118t109.5 48l12 -48q-89 -19 -81 -97h51v-133h-128z" />
    <glyph glyph-name="quotedblright" unicode="&#x201d;" horiz-adv-x="463" 
d="M261 422l-12 49q88 19 82 96h-52v133h128v-112q0 -78 -36.5 -118t-109.5 -48zM47 422l-12 49q89 19 81 96h-51v133h128v-112q0 -78 -36.5 -118t-109.5 -48z" />
    <glyph glyph-name="quotedblbase" unicode="&#x201e;" horiz-adv-x="470" 
d="M259 -145l-12 49q91 17 85 96h-51v133h127v-112q0 -78 -36.5 -118t-112.5 -48zM44 -145l-13 49q91 17 85 96h-52v133h128v-112q0 -78 -36.5 -118t-111.5 -48z" />
    <glyph glyph-name="dagger" unicode="&#x2020;" horiz-adv-x="358" 
d="M144 238l9 276l-108 -10v71l107 -10l-12 135h78l-12 -135l107 10v-71l-108 10l10 -276h-71z" />
    <glyph glyph-name="daggerdbl" unicode="&#x2021;" horiz-adv-x="378" 
d="M150 0l12 135l-108 -10v71l108 -10l-9 164l9 164l-108 -10v71l108 -10l-12 135h78l-12 -135l107 10v-71l-108 10l10 -164l-10 -164l108 10v-71l-107 10l12 -135h-78z" />
    <glyph glyph-name="bullet" unicode="&#x2022;" horiz-adv-x="446" 
d="M223 212q-55 0 -92.5 39t-37.5 98v7q0 59 37.5 98t92.5 39q54 0 92 -39t38 -98v-7q0 -59 -37.5 -98t-92.5 -39z" />
    <glyph glyph-name="ellipsis" unicode="&#x2026;" horiz-adv-x="751" 
d="M563 0v131h126v-131h-126zM313 0v131h125v-131h-125zM62 0v131h126v-131h-126z" />
    <glyph glyph-name="perthousand" unicode="&#x2030;" horiz-adv-x="1102" 
d="M190 422q30 0 47.5 28.5t17.5 74.5v4q0 46 -18.5 75t-47.5 29q-30 0 -47.5 -28.5t-17.5 -73.5v-5q0 -46 18.5 -75t47.5 -29zM189 348q-65 0 -106.5 50t-41.5 126v7q0 76 42 126t107 50t106.5 -50t41.5 -125v-7q0 -76 -41.5 -126.5t-107.5 -50.5zM652 700l-244 -370
l-212 -330h-88l244 369l211 331h89zM570 67q30 0 47.5 28t17.5 74v5q0 46 -18.5 75t-47.5 29q-30 0 -47.5 -28.5t-17.5 -74.5v-4q0 -46 18.5 -75t47.5 -29zM569 -7q-65 0 -106.5 49.5t-41.5 125.5v7q0 77 41.5 127t107.5 50q65 0 106.5 -50t41.5 -126v-7q0 -76 -41.5 -126
t-107.5 -50zM913 67q30 0 47 28t17 74v5q0 46 -18.5 75t-47.5 29q-30 0 -47.5 -28.5t-17.5 -74.5v-4q0 -46 19 -75t48 -29zM911 -7q-65 0 -106 49.5t-41 125.5v7q0 77 41.5 127t107.5 50q65 0 106.5 -50t41.5 -126v-7q0 -76 -42 -126t-108 -50z" />
    <glyph glyph-name="guilsinglleft" unicode="&#x2039;" horiz-adv-x="325" 
d="M200 42l-161 218v8l161 218l80 -42l-117 -179l118 -179z" />
    <glyph glyph-name="guilsinglright" unicode="&#x203a;" horiz-adv-x="325" 
d="M124 42l-79 42l117 179l-118 180l80 43l162 -218v-8z" />
    <glyph glyph-name="fraction" unicode="&#x2044;" horiz-adv-x="88" 
d="M-197 0l220 364l197 336h66l-221 -364l-196 -336h-66z" />
    <glyph glyph-name="zero.sup" unicode="&#x2070;" 
d="M176 425q-64 0 -101.5 51t-37.5 141v7q0 90 38 142t102 52q63 0 101 -51.5t38 -141.5v-6q0 -90 -38.5 -142t-101.5 -52zM176 753q-32 0 -50 -32.5t-18 -95.5v-7q0 -63 18.5 -95.5t50.5 -32.5q30 0 48.5 33t18.5 95v7q0 63 -18.5 95.5t-49.5 32.5z" />
    <glyph glyph-name="four.sup" unicode="&#x2074;" 
d="M276 511v-80h-65v80h-168l-7 63l162 240h78v-246h45v-57h-45zM213 568v167h-2l-113 -167h115z" />
    <glyph glyph-name="five.sup" unicode="&#x2075;" 
d="M169 425q-71 0 -130 51l38 53q46 -40 92 -40q31 0 49 17.5t18 45.5q0 27 -18.5 42.5t-49.5 15.5q-32 0 -64 -15l-44 25l15 190h214v-65h-157l-6 -84q22 9 57 9q54 0 89 -30t35 -85q0 -60 -38 -95t-100 -35z" />
    <glyph glyph-name="six.sup" unicode="&#x2076;" 
d="M178 425q-56 0 -90 34q-46 44 -46 147v5q0 99 40 153t112 54q56 0 101 -34l-32 -56q-32 27 -71 27q-34 0 -56 -28t-24 -79q31 29 79 29q49 0 82.5 -31t33.5 -89q0 -59 -36.5 -95.5t-92.5 -36.5zM177 485q28 0 45.5 19t17.5 50t-17 48.5t-46 17.5q-28 0 -46 -17.5
t-18 -48.5t18 -50t46 -19z" />
    <glyph glyph-name="seven.sup" unicode="&#x2077;" 
d="M153 431h-77l148 313h-170v66h249v-53z" />
    <glyph glyph-name="eight.sup" unicode="&#x2078;" 
d="M177 425q-60 0 -97.5 30.5t-37.5 80.5q0 64 61 93q-51 29 -51 85q0 46 35 75t90 29q54 0 89 -29t35 -75q0 -56 -51 -85q61 -29 61 -92q0 -51 -37.5 -81.5t-96.5 -30.5zM177 762q-26 0 -43 -14.5t-17 -38.5q0 -25 17 -40t43 -15t42.5 15t16.5 40q0 24 -16.5 38.5
t-42.5 14.5zM177 599q-30 0 -49 -16.5t-19 -43.5q0 -26 18.5 -42.5t49.5 -16.5q30 0 48.5 16t18.5 43t-19 43.5t-48 16.5z" />
    <glyph glyph-name="nine.sup" unicode="&#x2079;" 
d="M176 818q55 0 89 -34q47 -45 47 -147v-5q0 -99 -40.5 -153t-112.5 -54q-61 0 -106 37l31 56q35 -30 77 -30q34 0 56 27t23 75q-31 -29 -78 -29q-49 0 -82.5 31.5t-33.5 91.5t37 97t93 37zM176 619q29 0 46.5 18t17.5 51q0 32 -18 50.5t-46 18.5t-45.5 -19t-17.5 -51
t17 -50t46 -18z" />
    <glyph glyph-name="zero.inf" unicode="&#x2080;" 
d="M176 -140q-64 0 -101.5 51t-37.5 141v7q0 91 38 142.5t102 51.5q63 0 101 -51.5t38 -141.5v-6q0 -90 -38.5 -142t-101.5 -52zM176 188q-32 0 -50 -32.5t-18 -95.5v-7q0 -63 18.5 -95.5t50.5 -32.5q30 0 48.5 33t18.5 95v7q0 63 -18.5 95.5t-49.5 32.5z" />
    <glyph glyph-name="one.inf" unicode="&#x2081;" horiz-adv-x="287" 
d="M199 -132h-71v307l-72 -30l-14 62l103 42h54v-381z" />
    <glyph glyph-name="two.inf" unicode="&#x2082;" 
d="M47 -132v59l123 120q33 32 46 51t13 40q0 23 -15.5 36.5t-38.5 13.5q-41 0 -83 -50l-45 43q56 72 133 72q54 0 88 -29.5t34 -78.5q0 -34 -16 -61.5t-55 -64.5l-91 -88h164v-63h-257z" />
    <glyph glyph-name="three.inf" unicode="&#x2083;" 
d="M170 -140q-77 0 -132 53l38 52q46 -42 94 -42q26 0 44 15.5t18 40.5q0 27 -22.5 41t-61.5 14h-29l-9 45l100 102h-151v64h238v-54l-104 -104q49 -6 79 -32.5t30 -73.5q0 -54 -36.5 -87.5t-95.5 -33.5z" />
    <glyph glyph-name="four.inf" unicode="&#x2084;" 
d="M276 -54v-80h-65v80h-168l-7 63l162 240h78v-246h45v-57h-45zM213 3v167h-2l-113 -167h115z" />
    <glyph glyph-name="five.inf" unicode="&#x2085;" 
d="M169 -140q-71 0 -130 51l38 53q46 -40 92 -40q31 0 49 17.5t18 45.5q0 27 -18.5 42.5t-49.5 15.5q-32 0 -64 -15l-44 25l15 190h214v-65h-157l-6 -84q22 9 57 9q54 0 89 -30t35 -85q0 -60 -38 -95t-100 -35z" />
    <glyph glyph-name="six.inf" unicode="&#x2086;" 
d="M178 -140q-56 0 -90 34q-46 44 -46 147v5q0 99 40 153t112 54q56 0 101 -34l-32 -56q-32 27 -71 27q-34 0 -56 -28t-24 -79q31 29 79 29q49 0 82.5 -31t33.5 -89q0 -59 -36.5 -95.5t-92.5 -36.5zM177 -80q28 0 45.5 19t17.5 50t-17 48.5t-46 17.5q-28 0 -46 -17.5
t-18 -48.5t18 -50t46 -19z" />
    <glyph glyph-name="seven.inf" unicode="&#x2087;" 
d="M153 -134h-77l148 313h-170v66h249v-53z" />
    <glyph glyph-name="eight.inf" unicode="&#x2088;" 
d="M177 -140q-60 0 -97.5 30.5t-37.5 80.5q0 64 61 93q-51 29 -51 85q0 46 35 75t90 29q54 0 89 -29t35 -75q0 -56 -51 -85q61 -29 61 -92q0 -51 -37.5 -81.5t-96.5 -30.5zM177 197q-26 0 -43 -14.5t-17 -38.5q0 -25 17 -40t43 -15t42.5 15t16.5 40q0 24 -16.5 38.5
t-42.5 14.5zM177 34q-30 0 -49 -16.5t-19 -43.5q0 -26 18.5 -42.5t49.5 -16.5q30 0 48.5 16t18.5 43t-19 43.5t-48 16.5z" />
    <glyph glyph-name="nine.inf" unicode="&#x2089;" 
d="M176 253q55 0 89 -34q47 -45 47 -147v-5q0 -99 -40.5 -153t-112.5 -54q-61 0 -106 37l31 56q35 -30 77 -30q34 0 56 27t23 75q-31 -29 -78 -29q-49 0 -82.5 31.5t-33.5 91.5t37 97t93 37zM176 54q29 0 46.5 18t17.5 51q0 32 -18 50.5t-46 18.5t-45.5 -19t-17.5 -51
t17 -50t46 -18z" />
    <glyph glyph-name="colonmonetary" unicode="&#x20a1;" horiz-adv-x="533" 
d="M406 779h54l-14 -103q31 -14 60 -37l-48 -94l-29 22l-60 -465q40 12 84 51l54 -79q-73 -64 -148 -74l-15 -118h-54l15 116q-39 2 -70 13l-16 -129h-54l19 152q-66 39 -104.5 119t-38.5 191v12q0 142 63 231.5t166 109.5l11 82h54l-10 -77q36 0 70 -8zM246 116
q32 -17 74 -19l64 495q-27 11 -59 11q-11 0 -16 -1zM150 342q0 -126 53 -190l56 437q-51 -24 -80 -84t-29 -151v-12z" />
    <glyph glyph-name="naira" unicode="&#x20a6;" horiz-adv-x="739" 
d="M712 209h-94v-209h-117l-114 210h-156v-210h-110v209h-94v79h94v128h-94v79h94v205h125l111 -206h151v206h110v-205h94v-79h-94v-128h94v-79zM229 506v-220h120l-117 220h-3zM507 208h3v210h-115z" />
    <glyph glyph-name="rupee" unicode="&#x20a8;" horiz-adv-x="955" 
d="M65 0v700h206q108 0 170 -58t62 -162v-5q0 -148 -127 -201l146 -274h-125l-129 249h-94v-249h-109zM748 -10q-105 0 -191 70l51 79q73 -59 141 -59q32 0 52.5 16.5t20.5 42.5v2q0 23 -19.5 40.5t-77.5 43.5q-76 34 -110 69t-34 90v2q0 69 48 110.5t122 41.5q90 0 164 -54
l-46 -82q-68 46 -119 46q-31 0 -50 -15.5t-19 -38.5v-2q0 -23 20 -40.5t79 -44.5q77 -36 109.5 -70t32.5 -89v-2q0 -72 -49 -114t-125 -42zM174 346h94q57 0 91.5 33.5t34.5 93.5v2q0 62 -34.5 93t-94.5 31h-91v-253z" />
    <glyph glyph-name="won" unicode="&#x20a9;" horiz-adv-x="980" 
d="M911 700l-49 -210h92v-81h-111l-27 -117l138 1v-82h-157l-49 -213h-130l-51 213h-155l-51 -213h-129l-50 213h-157v81h139l-27 117h-112v81h93l-49 210h123l42 -210h143l51 212h127l49 -212h145l42 210h120zM488 538l-58 -248h120l-58 248h-4zM680 154h5l50 258h-114z
M299 154h4l58 258h-114z" />
    <glyph glyph-name="sheqel" unicode="&#x20aa;" horiz-adv-x="570" 
d="M210 139l-25 191h63l20 -147q6 -43 27 -63.5t60 -20.5h74v429h86v-528h-162q-64 0 -98.5 34t-44.5 105zM311 344q0 85 -78 85h-91v-429h-87v528h194q59 0 91.5 -34t32.5 -99v-194h-62v143z" />
    <glyph glyph-name="Euro" unicode="&#x20ac;" horiz-adv-x="616" 
d="M581 609l-79 -74q-52 70 -122 70q-47 0 -83 -33.5t-54 -94.5h187v-82h-202q-1 -13 -1 -41v-7q0 -25 1 -37h202v-82h-188q18 -65 55 -99t87 -34q68 0 123 74l75 -70q-83 -110 -200 -110q-99 0 -167 63.5t-93 175.5h-81v82h70q-1 11 -1 35v8q0 28 1 42h-70v82h83
q27 108 94.5 171t162.5 63q67 0 113.5 -26t86.5 -76z" />
    <glyph glyph-name="peso" unicode="&#x20b1;" horiz-adv-x="658" 
d="M115 0v420h-93v77h93v203h195q104 0 171 -55t78 -148h91v-77h-92q-12 -96 -82.5 -149.5t-173.5 -55.5h-71v-215h-116zM302 315q57 0 94 29t47 79h-214v-108h73zM229 599v-105h214q-10 51 -46.5 78t-94.5 27h-73z" />
    <glyph glyph-name="published" unicode="&#x2117;" horiz-adv-x="738" 
d="M368 -12q-137 0 -230.5 103t-93.5 253v11q0 150 94 253.5t232 103.5t231 -103t93 -253v-11q0 -150 -94 -253.5t-232 -103.5zM368 24q125 0 207 92.5t82 228.5v12q0 135 -81.5 227t-205.5 92q-125 0 -206.5 -92.5t-81.5 -228.5v-12q0 -136 81 -227.5t205 -91.5zM257 166
v381h125q64 0 101 -33.5t37 -93.5v-2q0 -62 -40 -95.5t-102 -34.5h-52v-122h-69zM326 349h52q34 0 53.5 18.5t19.5 49.5v1q0 67 -73 67h-52v-136z" />
    <glyph glyph-name="servicemark" unicode="&#x2120;" horiz-adv-x="623" 
d="M309 390v310h62l77 -138l76 138h61v-310h-56v217l-80 -145h-4l-80 145v-217h-56zM143 385q-66 0 -119 45l30 42q45 -38 91 -38q22 0 35.5 10t13.5 27q0 15 -12.5 25.5t-48.5 23.5q-49 18 -72 38t-23 56q0 41 29 66t75 25q61 0 104 -37l-29 -43q-41 30 -76 30
q-22 0 -34.5 -10t-12.5 -25q0 -16 12.5 -25.5t49.5 -23.5q49 -19 72 -40t23 -56q0 -41 -30.5 -65.5t-77.5 -24.5z" />
    <glyph glyph-name="trademark" unicode="&#x2122;" horiz-adv-x="609" 
d="M295 390v310h61l77 -138l77 138h60v-310h-55v217l-80 -145h-5l-80 145v-217h-55zM101 390v257h-79v53h216v-53h-79v-257h-58z" />
    <glyph glyph-name="onethird" unicode="&#x2153;" horiz-adv-x="729" 
d="M553 -8q-77 0 -132 53l38 52q46 -42 94 -42q26 0 44 15.5t18 40.5q0 27 -22.5 41t-61.5 14h-29l-9 45l100 102h-151v64h238v-54l-104 -104q49 -6 79 -32.5t30 -73.5q0 -54 -36.5 -87.5t-95.5 -33.5zM199 323h-71v307l-72 -30l-14 62l103 43h54v-382zM91 0l220 364
l197 336h66l-221 -364l-196 -336h-66z" />
    <glyph glyph-name="twothirds" unicode="&#x2154;" horiz-adv-x="794" 
d="M621 -8q-77 0 -132 53l38 52q46 -42 94 -42q26 0 44 15.5t18 40.5q0 27 -22.5 41t-61.5 14h-29l-9 45l100 102h-151v64h238v-54l-104 -104q49 -6 79 -32.5t30 -73.5q0 -54 -36.5 -87.5t-95.5 -33.5zM40 323v59l123 120q33 32 46 51t13 40q0 23 -15.5 36.5t-38.5 13.5
q-41 0 -83 -50l-45 43q56 72 133 72q54 0 88 -29.5t34 -78.5q0 -34 -16 -61.5t-55 -64.5l-91 -88h164v-63h-257zM156 0l220 364l197 336h66l-221 -364l-196 -336h-66z" />
    <glyph glyph-name="onefifth" unicode="&#x2155;" horiz-adv-x="729" 
d="M550 -8q-71 0 -130 51l38 53q46 -40 92 -40q31 0 49 17.5t18 45.5q0 27 -18.5 42.5t-49.5 15.5q-32 0 -64 -15l-44 25l15 190h214v-65h-157l-6 -84q23 9 57 9q54 0 89 -30t35 -85q0 -60 -38 -95t-100 -35zM199 323h-71v307l-72 -30l-14 62l103 43h54v-382zM94 0l220 364
l197 336h66l-221 -364l-196 -336h-66z" />
    <glyph glyph-name="twofifths" unicode="&#x2156;" horiz-adv-x="794" 
d="M620 -8q-71 0 -130 51l38 53q46 -40 92 -40q31 0 49 17.5t18 45.5q0 27 -18.5 42.5t-49.5 15.5q-32 0 -64 -15l-44 25l15 190h214v-65h-157l-6 -84q23 9 57 9q54 0 89 -30t35 -85q0 -60 -38 -95t-100 -35zM165 0l220 364l197 336h66l-221 -364l-196 -336h-66zM40 323v59
l123 120q33 32 46 51t13 40q0 23 -15.5 36.5t-38.5 13.5q-41 0 -83 -50l-45 43q56 72 133 72q54 0 88 -29.5t34 -78.5q0 -34 -16 -61.5t-55 -64.5l-91 -88h164v-63h-257z" />
    <glyph glyph-name="threefifths" unicode="&#x2157;" horiz-adv-x="794" 
d="M620 -8q-71 0 -130 51l38 53q46 -40 92 -40q31 0 49 17.5t18 45.5q0 27 -18.5 42.5t-49.5 15.5q-32 0 -64 -15l-44 25l15 190h214v-65h-157l-6 -84q23 9 57 9q54 0 89 -30t35 -85q0 -60 -38 -95t-100 -35zM152 0l220 364l197 336h66l-221 -364l-196 -336h-66zM165 315
q-75 0 -132 53l38 52q46 -42 94 -42q26 0 44 15.5t18 40.5q0 54 -84 56h-29l-9 44l100 102h-151v64h238v-54l-104 -104q49 -6 79 -32.5t30 -73.5q0 -54 -36.5 -87.5t-95.5 -33.5z" />
    <glyph glyph-name="fourfifths" unicode="&#x2158;" horiz-adv-x="794" 
d="M268 401v-79h-65v79h-168l-7 63l162 240h78v-246h45v-57h-45zM205 458v167h-2l-113 -167h115zM620 -8q-71 0 -130 51l38 53q46 -40 92 -40q31 0 49 17.5t18 45.5q0 27 -18.5 42.5t-49.5 15.5q-32 0 -64 -15l-44 25l15 190h214v-65h-157l-6 -84q23 9 57 9q54 0 89 -30
t35 -85q0 -60 -38 -95t-100 -35zM163 0l220 364l197 336h66l-221 -364l-196 -336h-66z" />
    <glyph glyph-name="onesixth" unicode="&#x2159;" horiz-adv-x="729" 
d="M556 -8q-56 0 -90 34q-46 44 -46 147v5q0 99 40 153t112 54q56 0 101 -34l-32 -56q-32 27 -71 27q-34 0 -56 -28t-24 -79q31 29 79 29q49 0 82.5 -31t33.5 -89q0 -59 -36.5 -95.5t-92.5 -36.5zM100 0l220 364l197 336h66l-221 -364l-196 -336h-66zM199 323h-71v307
l-72 -30l-14 62l103 43h54v-382zM555 52q28 0 45.5 19t17.5 50t-17 48.5t-46 17.5q-28 0 -46 -17.5t-18 -48.5t18 -50t46 -19z" />
    <glyph glyph-name="fivesixths" unicode="&#x215a;" horiz-adv-x="794" 
d="M625 -8q-56 0 -90 34q-46 44 -46 147v5q0 99 40 153t112 54q56 0 101 -34l-32 -56q-32 27 -71 27q-34 0 -56 -28t-24 -79q31 29 79 29q49 0 82.5 -31t33.5 -89q0 -59 -36.5 -95.5t-92.5 -36.5zM164 315q-69 0 -130 51l38 53q46 -40 92 -40q31 0 49 17.5t18 45.5
q0 27 -18.5 42.5t-49.5 15.5q-32 0 -64 -15l-44 25l15 190h214v-65h-157l-6 -84q22 9 57 9q54 0 89 -30t35 -85q0 -60 -38 -95t-100 -35zM155 0l220 364l197 336h66l-221 -364l-196 -336h-66zM624 52q28 0 45.5 19t17.5 50t-17 48.5t-46 17.5q-28 0 -46 -17.5t-18 -48.5
t18 -50t46 -19z" />
    <glyph glyph-name="oneeighth" unicode="&#x215b;" horiz-adv-x="729" 
d="M555 -8q-60 0 -97.5 30.5t-37.5 80.5q0 64 61 93q-51 29 -51 85q0 46 35 75t90 29q54 0 89 -29t35 -75q0 -56 -51 -85q61 -29 61 -92q0 -51 -37.5 -81.5t-96.5 -30.5zM555 329q-26 0 -43 -14.5t-17 -38.5q0 -25 17 -40t43 -15t42.5 15t16.5 40q0 24 -16.5 38.5
t-42.5 14.5zM555 166q-30 0 -49 -16.5t-19 -43.5q0 -26 18.5 -42.5t49.5 -16.5q30 0 48.5 16t18.5 43t-19 43.5t-48 16.5zM199 323h-71v307l-72 -30l-14 62l103 43h54v-382zM96 0l220 364l197 336h66l-221 -364l-196 -336h-66z" />
    <glyph glyph-name="threeeighths" unicode="&#x215c;" horiz-adv-x="794" 
d="M625 -8q-60 0 -97.5 30.5t-37.5 80.5q0 64 61 93q-51 29 -51 85q0 46 35 75t90 29q54 0 89 -29t35 -75q0 -56 -51 -85q61 -29 61 -92q0 -51 -37.5 -81.5t-96.5 -30.5zM625 329q-26 0 -43 -14.5t-17 -38.5q0 -25 17 -40t43 -15t42.5 15t16.5 40q0 24 -16.5 38.5
t-42.5 14.5zM625 166q-30 0 -49 -16.5t-19 -43.5q0 -26 18.5 -42.5t49.5 -16.5q30 0 48.5 16t18.5 43t-19 43.5t-48 16.5zM155 0l220 364l197 336h66l-221 -364l-196 -336h-66zM165 315q-75 0 -132 53l38 52q46 -42 94 -42q26 0 44 15.5t18 40.5q0 54 -84 56h-29l-9 44
l100 102h-151v64h238v-54l-104 -104q49 -6 79 -32.5t30 -73.5q0 -54 -36.5 -87.5t-95.5 -33.5z" />
    <glyph glyph-name="fiveeighths" unicode="&#x215d;" horiz-adv-x="794" 
d="M625 -8q-60 0 -97.5 30.5t-37.5 80.5q0 64 61 93q-51 29 -51 85q0 46 35 75t90 29q54 0 89 -29t35 -75q0 -56 -51 -85q61 -29 61 -92q0 -51 -37.5 -81.5t-96.5 -30.5zM625 329q-26 0 -43 -14.5t-17 -38.5q0 -25 17 -40t43 -15t42.5 15t16.5 40q0 24 -16.5 38.5
t-42.5 14.5zM625 166q-30 0 -49 -16.5t-19 -43.5q0 -26 18.5 -42.5t49.5 -16.5q30 0 48.5 16t18.5 43t-19 43.5t-48 16.5zM155 0l220 364l197 336h66l-221 -364l-196 -336h-66zM164 315q-69 0 -130 51l38 53q46 -40 92 -40q31 0 49 17.5t18 45.5q0 27 -18.5 42.5t-49.5 15.5
q-32 0 -64 -15l-44 25l15 190h214v-65h-157l-6 -84q22 9 57 9q54 0 89 -30t35 -85q0 -60 -38 -95t-100 -35z" />
    <glyph glyph-name="seveneighths" unicode="&#x215e;" horiz-adv-x="794" 
d="M618 -8q-60 0 -97.5 30.5t-37.5 80.5q0 64 61 93q-51 29 -51 85q0 46 35 75t90 29q54 0 89 -29t35 -75q0 -56 -51 -85q61 -29 61 -92q0 -51 -37.5 -81.5t-96.5 -30.5zM618 329q-26 0 -43 -14.5t-17 -38.5q0 -25 17 -40t43 -15t42.5 15t16.5 40q0 24 -16.5 38.5
t-42.5 14.5zM618 166q-30 0 -49 -16.5t-19 -43.5q0 -26 18.5 -42.5t49.5 -16.5q30 0 48.5 16t18.5 43t-19 43.5t-48 16.5zM156 322h-77l148 312h-170v66h249v-53zM124 0l220 364l197 336h66l-221 -364l-196 -336h-66z" />
    <glyph glyph-name="minus" unicode="&#x2212;" horiz-adv-x="554" 
d="M499 298h-444v108h444v-108z" />
    <glyph glyph-name="Q.alt" horiz-adv-x="720" 
d="M558 -96l-97 102q-48 -17 -102 -17q-136 0 -222.5 99.5t-86.5 255.5v10q0 156 87 256.5t224 100.5q136 0 222.5 -99.5t86.5 -255.5v-10q0 -173 -103 -273l152 -166v-3h-161zM361 96q83 0 136 69t53 181v7q0 112 -53.5 181.5t-137.5 69.5q-83 0 -136 -69t-53 -181v-7
q0 -112 54 -181.5t137 -69.5z" />
    <glyph glyph-name="a.alt" horiz-adv-x="580" 
d="M248 -10q-85 0 -145.5 70.5t-60.5 197.5v13q0 128 60 198.5t146 70.5q92 0 155 -90v80h113v-530h-113v85q-61 -95 -155 -95zM279 90q53 0 89.5 47t36.5 123v10q0 76 -36.5 123t-89.5 47t-88 -46.5t-35 -124.5v-8q0 -78 35.5 -124.5t87.5 -46.5z" />
    <glyph glyph-name="aacute.alt" horiz-adv-x="580" 
d="M250 589l97 157l100 -47l-114 -110h-83zM248 -10q-85 0 -145.5 70.5t-60.5 197.5v13q0 128 60 198.5t146 70.5q92 0 155 -90v80h113v-530h-113v85q-61 -95 -155 -95zM279 90q53 0 89.5 47t36.5 123v10q0 76 -36.5 123t-89.5 47t-88 -46.5t-35 -124.5v-8
q0 -78 35.5 -124.5t87.5 -46.5z" />
    <glyph glyph-name="abreve.alt" horiz-adv-x="580" 
d="M248 -10q-85 0 -145.5 70.5t-60.5 197.5v13q0 128 60 198.5t146 70.5q92 0 155 -90v80h113v-530h-113v85q-61 -95 -155 -95zM279 90q53 0 89.5 47t36.5 123v10q0 76 -36.5 123t-89.5 47t-88 -46.5t-35 -124.5v-8q0 -78 35.5 -124.5t87.5 -46.5zM296 586
q-64 0 -105.5 35.5t-47.5 99.5h76q17 -57 77 -57t77 57h76q-6 -64 -47.5 -99.5t-105.5 -35.5z" />
    <glyph glyph-name="acircumflex.alt" horiz-adv-x="580" 
d="M143 589l103 143h100l103 -143h-86l-68 67l-68 -67h-84zM248 -10q-85 0 -145.5 70.5t-60.5 197.5v13q0 128 60 198.5t146 70.5q92 0 155 -90v80h113v-530h-113v85q-61 -95 -155 -95zM279 90q53 0 89.5 47t36.5 123v10q0 76 -36.5 123t-89.5 47t-88 -46.5t-35 -124.5v-8
q0 -78 35.5 -124.5t87.5 -46.5z" />
    <glyph glyph-name="adieresis.alt" horiz-adv-x="580" 
d="M327 591v111h112v-111h-112zM153 591v111h112v-111h-112zM248 -10q-85 0 -145.5 70.5t-60.5 197.5v13q0 128 60 198.5t146 70.5q92 0 155 -90v80h113v-530h-113v85q-61 -95 -155 -95zM279 90q53 0 89.5 47t36.5 123v10q0 76 -36.5 123t-89.5 47t-88 -46.5t-35 -124.5v-8
q0 -78 35.5 -124.5t87.5 -46.5z" />
    <glyph glyph-name="agrave.alt" horiz-adv-x="580" 
d="M248 -10q-85 0 -145.5 70.5t-60.5 197.5v13q0 128 60 198.5t146 70.5q92 0 155 -90v80h113v-530h-113v85q-61 -95 -155 -95zM279 90q53 0 89.5 47t36.5 123v10q0 76 -36.5 123t-89.5 47t-88 -46.5t-35 -124.5v-8q0 -78 35.5 -124.5t87.5 -46.5zM258 589l-114 110l101 47
l96 -157h-83z" />
    <glyph glyph-name="amacron.alt" horiz-adv-x="580" 
d="M248 -10q-85 0 -145.5 70.5t-60.5 197.5v13q0 128 60 198.5t146 70.5q92 0 155 -90v80h113v-530h-113v85q-61 -95 -155 -95zM279 90q53 0 89.5 47t36.5 123v10q0 76 -36.5 123t-89.5 47t-88 -46.5t-35 -124.5v-8q0 -78 35.5 -124.5t87.5 -46.5zM145 598v81h302v-81h-302z
" />
    <glyph glyph-name="aogonek.alt" horiz-adv-x="580" 
d="M524 -98v-58q-12 -2 -32 -2q-56 0 -86.5 21.5t-30.5 56.5q0 39 38 80h-10v85q-61 -95 -155 -95q-85 0 -145.5 70.5t-60.5 197.5v13q0 128 60 198.5t146 70.5q92 0 155 -90v80h113v-530h-24q-30 -33 -30 -60q0 -40 62 -38zM279 90q53 0 89.5 47t36.5 123v10
q0 76 -36.5 123t-89.5 47t-88 -46.5t-35 -124.5v-8q0 -78 35.5 -124.5t87.5 -46.5z" />
    <glyph glyph-name="aring.alt" horiz-adv-x="580" 
d="M296 586q-44 0 -75 30.5t-31 73.5t31 73.5t75 30.5t75 -30t31 -74q0 -43 -31 -73.5t-75 -30.5zM296 629q25 0 42 17.5t17 43.5t-17 43.5t-42 17.5t-42 -17.5t-17 -43.5t17 -43.5t42 -17.5zM248 -10q-85 0 -145.5 70.5t-60.5 197.5v13q0 128 60 198.5t146 70.5
q92 0 155 -90v80h113v-530h-113v85q-61 -95 -155 -95zM279 90q53 0 89.5 47t36.5 123v10q0 76 -36.5 123t-89.5 47t-88 -46.5t-35 -124.5v-8q0 -78 35.5 -124.5t87.5 -46.5z" />
    <glyph glyph-name="aring.alt2" horiz-adv-x="512" 
d="M196 -10q-69 0 -116 43.5t-47 118.5v6q0 82 51.5 125.5t138.5 43.5q60 0 121 -22v23q0 53 -29.5 80.5t-84.5 27.5q-59 0 -127 -32l-33 90q56 27 106 36q-26 29 -26 68q0 43 31 73.5t75 30.5t75.5 -30.5t31.5 -73.5q0 -44 -32 -74q45 -16 70 -41q53 -53 53 -154v-329h-111
v65q-53 -75 -147 -75zM230 75q49 0 82 29t33 74v54q-47 18 -98 18q-49 0 -76 -23.5t-27 -65.5v-3q0 -38 24 -60t62 -23zM256 537q25 0 42.5 18t17.5 43t-17.5 43t-42.5 18q-24 0 -41.5 -18t-17.5 -43t17.5 -43t41.5 -18z" />
    <glyph glyph-name="aringacute.alt" horiz-adv-x="580" 
d="M251 824l98 129l99 -46l-113 -83h-84zM296 586q-44 0 -75 30.5t-31 73.5t31 73.5t75 30.5t75 -30t31 -74q0 -43 -31 -73.5t-75 -30.5zM296 629q25 0 42 17.5t17 43.5t-17 43.5t-42 17.5t-42 -17.5t-17 -43.5t17 -43.5t42 -17.5zM248 -10q-85 0 -145.5 70.5t-60.5 197.5
v13q0 128 60 198.5t146 70.5q92 0 155 -90v80h113v-530h-113v85q-61 -95 -155 -95zM279 90q53 0 89.5 47t36.5 123v10q0 76 -36.5 123t-89.5 47t-88 -46.5t-35 -124.5v-8q0 -78 35.5 -124.5t87.5 -46.5z" />
    <glyph glyph-name="aringacute.alt2" horiz-adv-x="512" 
d="M211 733l99 129l98 -46l-113 -83h-84zM196 -10q-69 0 -116 43.5t-47 118.5v6q0 82 51.5 125.5t138.5 43.5q60 0 121 -22v23q0 53 -29.5 80.5t-84.5 27.5q-59 0 -127 -32l-33 90q56 27 106 36q-26 29 -26 68q0 43 31 73.5t75 30.5t75.5 -30.5t31.5 -73.5q0 -44 -32 -74
q45 -16 70 -41q53 -53 53 -154v-329h-111v65q-53 -75 -147 -75zM230 75q49 0 82 29t33 74v54q-47 18 -98 18q-49 0 -76 -23.5t-27 -65.5v-3q0 -38 24 -60t62 -23zM256 537q25 0 42.5 18t17.5 43t-17.5 43t-42.5 18q-24 0 -41.5 -18t-17.5 -43t17.5 -43t41.5 -18z" />
    <glyph glyph-name="atilde.alt" horiz-adv-x="580" 
d="M248 -10q-85 0 -145.5 70.5t-60.5 197.5v13q0 128 60 198.5t146 70.5q92 0 155 -90v80h113v-530h-113v85q-61 -95 -155 -95zM279 90q53 0 89.5 47t36.5 123v10q0 76 -36.5 123t-89.5 47t-88 -46.5t-35 -124.5v-8q0 -78 35.5 -124.5t87.5 -46.5zM370 589q-28 0 -76 21
q-38 18 -54 18q-17 0 -26.5 -10.5t-19.5 -35.5l-64 18q16 61 38 88.5t60 27.5q30 0 76 -22q38 -18 54 -18q17 0 27 10.5t19 36.5l64 -18q-16 -61 -38 -88.5t-60 -27.5z" />
    <glyph glyph-name="three.alt" horiz-adv-x="527" 
d="M254 -11q-135 0 -226 96l70 81q68 -72 155 -72q53 0 85.5 29.5t32.5 77.5v1q0 49 -38.5 76.5t-111.5 27.5h-52v99h53q63 0 99 29t36 77v1q0 43 -30 68.5t-79 25.5q-72 0 -136 -71l-71 73q88 103 214 103q96 0 156.5 -50.5t60.5 -131.5v-2q0 -116 -108 -164
q122 -45 122 -164v-2q0 -91 -64 -149.5t-168 -58.5z" />
    <glyph glyph-name="registered.alt" horiz-adv-x="738" 
d="M368 -12q-137 0 -230.5 103t-93.5 253v11q0 150 94 253.5t232 103.5t231 -103t93 -253v-11q0 -150 -94 -253.5t-232 -103.5zM368 24q125 0 207 92.5t82 228.5v12q0 135 -81.5 227t-205.5 92q-125 0 -206.5 -92.5t-81.5 -228.5v-12q0 -136 81 -227.5t205 -91.5zM241 169
v381h139q68 0 106 -38q31 -31 31 -82v-3q0 -84 -77 -111l89 -147h-79l-79 133h-62v-133h-68zM309 362h68q33 0 52 16.5t19 46.5v1q0 62 -72 62h-67v-126z" />
    <glyph glyph-name="R_p" horiz-adv-x="1050" 
d="M65 0v700h206q108 0 170 -58t62 -162v-5q0 -148 -127 -201l146 -274h-125l-129 249h-94v-249h-109zM594 -151v682h106v-82q55 92 138 92q75 0 127 -68.5t52 -196.5v-21q0 -127 -51.5 -196t-127.5 -69q-82 0 -138 88v-229h-106zM805 86q45 0 74.5 46t29.5 124v18
q0 79 -29.5 125t-74.5 46t-76 -46.5t-31 -123.5v-20q0 -76 31.5 -122.5t75.5 -46.5zM174 346h94q57 0 91.5 33.5t34.5 93.5v2q0 62 -34.5 93t-94.5 31h-91v-253z" />
    <glyph glyph-name="onehalf.alt" horiz-adv-x="794" 
d="M308 323h-252v61h96v247l-85 -33l-14 61l116 46h53v-321h86v-61zM495 0v59l123 120q33 32 46 51t13 40q0 23 -15.5 36.5t-38.5 13.5q-41 0 -83 -50l-45 43q56 72 133 72q54 0 88 -29.5t34 -78.5q0 -34 -16 -61.5t-55 -64.5l-91 -88h164v-63h-257zM172 0l220 364l197 336
h66l-221 -364l-196 -336h-66z" />
    <glyph glyph-name="onethird.alt" horiz-adv-x="794" 
d="M308 323h-252v61h96v247l-85 -33l-14 61l116 46h53v-321h86v-61zM619 -8q-77 0 -132 53l38 52q46 -42 94 -42q26 0 44 15.5t18 40.5q0 27 -22.5 41t-61.5 14h-29l-9 45l100 102h-151v64h238v-54l-104 -104q49 -6 79 -32.5t30 -73.5q0 -54 -36.5 -87.5t-95.5 -33.5zM164 0
l220 364l197 336h66l-221 -364l-196 -336h-66z" />
    <glyph glyph-name="onequarter.alt" horiz-adv-x="794" 
d="M310 323h-252v61h96v247l-85 -33l-14 61l116 46h53v-321h86v-61zM179 0l220 364l197 336h66l-221 -364l-196 -336h-66zM714 78v-80h-65v80h-168l-7 63l162 240h78v-246h45v-57h-45zM651 135v167h-2l-113 -167h115z" />
    <glyph glyph-name="onefifth.alt" horiz-adv-x="794" 
d="M308 323h-252v61h96v247l-85 -33l-14 61l116 46h53v-321h86v-61zM619 -8q-71 0 -130 51l38 53q46 -40 92 -40q31 0 49 17.5t18 45.5q0 27 -18.5 42.5t-49.5 15.5q-32 0 -64 -15l-44 25l15 190h214v-65h-157l-6 -84q22 9 57 9q54 0 89 -30t35 -85q0 -60 -38 -95t-100 -35z
M169 0l220 364l197 336h66l-221 -364l-196 -336h-66z" />
    <glyph glyph-name="onesixth.alt" horiz-adv-x="794" 
d="M627 -8q-56 0 -90 34q-46 44 -46 147v5q0 99 40 153t112 54q56 0 101 -34l-32 -56q-32 27 -71 27q-34 0 -56 -28t-24 -79q31 29 79 29q49 0 82.5 -31t33.5 -89q0 -59 -36.5 -95.5t-92.5 -36.5zM308 323h-252v61h96v247l-85 -33l-14 61l116 46h53v-321h86v-61zM170 0
l220 364l197 336h66l-221 -364l-196 -336h-66zM626 52q28 0 45.5 19t17.5 50t-17 48.5t-46 17.5q-28 0 -46 -17.5t-18 -48.5t18 -50t46 -19z" />
    <glyph glyph-name="oneeighth.alt" horiz-adv-x="794" 
d="M307 323h-252v61h96v247l-85 -33l-14 61l116 46h53v-321h86v-61zM627 -8q-60 0 -97.5 30.5t-37.5 80.5q0 64 61 93q-51 29 -51 85q0 46 35 75t90 29q54 0 89 -29t35 -75q0 -56 -51 -85q61 -29 61 -92q0 -51 -37.5 -81.5t-96.5 -30.5zM627 329q-26 0 -43 -14.5t-17 -38.5
q0 -25 17 -40t43 -15t42.5 15t16.5 40q0 24 -16.5 38.5t-42.5 14.5zM627 166q-30 0 -49 -16.5t-19 -43.5q0 -26 18.5 -42.5t49.5 -16.5q30 0 48.5 16t18.5 43t-19 43.5t-48 16.5zM169 0l220 364l197 336h66l-221 -364l-196 -336h-66z" />
    <glyph glyph-name="one.sup_alt" 
d="M313 433h-252v61h96v247l-85 -34l-14 62l116 46h53v-321h86v-61z" />
    <glyph glyph-name="one.inf_alt" 
d="M313 -132h-252v61h96v247l-85 -34l-14 62l116 46h53v-321h86v-61z" />
    <glyph glyph-name="zero.tab" horiz-adv-x="530" 
d="M264 -11q-106 0 -166 91.5t-60 259.5v18q0 169 60.5 261t166.5 92q105 0 165.5 -91.5t60.5 -259.5v-18q0 -169 -61 -261t-166 -92zM264 610q-114 0 -114 -251v-17q0 -252 115 -252q114 0 114 251v17q0 128 -30.5 190t-84.5 62z" />
    <glyph glyph-name="one.tab" horiz-adv-x="530" 
d="M497 0h-432v96h170v487l-152 -61l-21 101l205 82h80v-609h150v-96z" />
    <glyph glyph-name="two.tab" horiz-adv-x="530" 
d="M479 0h-436v92l210 232q59 63 82 103t23 79q0 46 -28.5 72t-70.5 26t-75 -23t-67 -69l-75 69q47 66 100 97.5t126 31.5q93 0 150 -53t57 -140v-3q0 -61 -27 -109t-91 -120l-162 -180h284v-105z" />
    <glyph glyph-name="three.tab" horiz-adv-x="530" 
d="M249 -11q-130 0 -219 92l66 85q72 -72 152 -72q50 0 83.5 30.5t33.5 81.5v2q0 53 -40 81.5t-114 28.5h-41l-16 73l177 205h-270v104h409v-94l-183 -204q84 -10 138.5 -57t54.5 -132v-3q0 -98 -65 -159.5t-166 -61.5z" />
    <glyph glyph-name="three.tab_alt" horiz-adv-x="530" 
d="M253 -11q-132 0 -222 96l67 79q67 -72 155 -72q54 0 86.5 30t32.5 79q0 50 -40 78.5t-112 28.5h-50v96h54q63 0 100.5 30t37.5 79q0 43 -30 69t-80 26q-78 -1 -141 -73l-69 72q89 104 218 104q96 0 156 -50t60 -135q0 -114 -112 -164q121 -45 121 -168q0 -91 -64.5 -148
t-167.5 -57z" />
    <glyph glyph-name="four.tab" horiz-adv-x="530" 
d="M324 0v149h-284l-15 101l273 454h131v-462h78v-93h-78v-149h-105zM325 241v323h-2l-198 -323h200z" />
    <glyph glyph-name="five.tab" horiz-adv-x="530" 
d="M247 -11q-121 0 -212 84l61 87q76 -68 151 -68q56 0 90.5 34.5t34.5 92.5v2q0 55 -34 86t-92 31q-55 0 -111 -29l-67 44l22 347h365v-104h-272l-12 -176q49 18 98 18q93 0 154.5 -54t61.5 -159v-2q0 -105 -67 -169.5t-171 -64.5z" />
    <glyph glyph-name="six.tab" horiz-adv-x="530" 
d="M295 450q84 0 140.5 -56t56.5 -160v-7q0 -105 -62 -171.5t-157 -66.5q-92 0 -151 57q-40 41 -59.5 104.5t-19.5 171.5v10q0 184 66.5 281.5t191.5 97.5q92 0 166 -57l-52 -92q-55 45 -116 45q-70 0 -106.5 -61.5t-38.5 -156.5q54 61 141 61zM270 87q52 0 82 37.5t30 98.5
v1q0 61 -30 96.5t-81 35.5q-53 0 -83.5 -36.5t-30.5 -96.5v-1q0 -60 31 -97.5t82 -37.5z" />
    <glyph glyph-name="seven.tab" horiz-adv-x="530" 
d="M358 593h-303v107h428v-88l-262 -612h-125z" />
    <glyph glyph-name="eight.tab" horiz-adv-x="530" 
d="M265 -10q-99 0 -162.5 55t-63.5 144v4q0 118 109 170q-91 52 -91 156v3q0 82 59 135t149 53t148.5 -53t58.5 -135v-3q0 -105 -91 -156q109 -54 109 -168v-4q0 -91 -63 -146t-162 -55zM265 84q53 0 84 31t31 82v3q0 51 -32.5 82t-82.5 31t-82.5 -31t-32.5 -82v-3
q0 -51 31 -82t84 -31zM265 403q44 0 72 30t28 78v2q0 46 -28 75t-72 29q-45 0 -73 -28.5t-28 -75.5v-2q0 -47 28.5 -77.5t72.5 -30.5z" />
    <glyph glyph-name="nine.tab" horiz-adv-x="530" 
d="M235 243q-84 0 -140.5 57t-56.5 163v6q0 107 62 174.5t157 67.5q94 0 151 -57q40 -40 59.5 -104t19.5 -172v-10q0 -184 -66.5 -281.5t-191.5 -97.5q-95 0 -175 61l51 92q65 -49 126 -49q68 0 104.5 60.5t39.5 150.5q-51 -61 -140 -61zM260 613q-52 0 -82 -38.5
t-30 -100.5v-1q0 -63 30 -99t81 -36q52 0 83 37t31 98v2q0 62 -31 100t-82 38z" />
    <glyph glyph-name="period.tab" horiz-adv-x="265" 
d="M67 0v140h131v-140h-131z" />
    <glyph glyph-name="comma.tab" horiz-adv-x="265" 
d="M51 -144l-12 48q87 17 81 96h-53v140h131v-119q0 -150 -147 -165z" />
    <glyph glyph-name="colon.tab" horiz-adv-x="265" 
d="M68 391v138h129v-138h-129zM68 0v138h129v-138h-129z" />
    <glyph glyph-name="semicolon.tab" horiz-adv-x="265" 
d="M68 391v138h129v-138h-129zM51 -144l-12 48q87 17 81 96h-52v138h129v-117q0 -78 -36.5 -117.5t-109.5 -47.5z" />
    <glyph glyph-name="twodotleader.tab" horiz-adv-x="530" 
d="M334 0v134h125v-134h-125zM70 0v134h125v-134h-125z" />
    <glyph glyph-name="periodcentered.tab" horiz-adv-x="265" 
d="M67 236v140h131v-140h-131z" />
    <glyph glyph-name="slash.tab" horiz-adv-x="530" 
d="M519 789l-423 -908h-99l424 908h98z" />
    <glyph glyph-name="bar.tab" horiz-adv-x="265" 
d="M87 -119v908h91v-908h-91z" />
    <glyph glyph-name="underscore.tab" horiz-adv-x="530" 
d="M-2 -158v89h533v-89h-533z" />
    <glyph glyph-name="dollar.tab" horiz-adv-x="530" 
d="M356 779l-9 -84q77 -18 132 -63l-52 -86q-46 35 -94 51l-22 -202q92 -38 134.5 -84.5t42.5 -116.5q0 -87 -60 -141t-155 -56l-12 -113h-79l13 120q-93 20 -165 83l55 85q61 -53 124 -71l24 209q-93 37 -134 83t-41 117q0 86 59 139t153 54l8 76h78zM382 187
q0 32 -17.5 54.5t-62.5 42.5l-22 -191q49 3 75.5 28.5t26.5 65.5zM164 519q0 -31 17 -53t60 -43l21 185q-46 -1 -72 -25.5t-26 -63.5z" />
    <glyph glyph-name="sterling.tab" horiz-adv-x="530" 
d="M116 382v102q0 112 60 172q55 53 144 53q107 0 176 -83l-72 -78q-47 54 -101 54q-37 0 -63 -24q-29 -29 -29 -94v-102h195v-97h-195v-184h260v-101h-443v72l68 23v190h-67v97h67z" />
    <glyph glyph-name="Euro.tab" horiz-adv-x="530" 
d="M28 396v78h74q23 111 85.5 173.5t153.5 62.5q96 0 165 -74l-61 -81q-49 54 -102 54q-46 0 -79.5 -35t-49.5 -100h166v-78h-176q-1 -13 -1 -40v-11v-36h177v-79h-168q15 -67 49 -103t80 -36q55 0 105 57l62 -76q-74 -82 -173 -82q-90 0 -152 63t-83 177h-72v79h63v35v11
q0 27 1 41h-64z" />
    <glyph glyph-name="yen.tab" horiz-adv-x="530" 
d="M70 182h141v81h-141v79h120l-180 358h123l133 -293l134 293h119l-181 -358h121v-79h-140v-81h140v-79h-140v-103h-108v103h-141v79z" />
    <glyph glyph-name="cent.tab" horiz-adv-x="530" 
d="M385 705l-13 -89q61 -16 111 -68l-59 -76q-33 35 -68 48l-48 -341q62 2 118 60l58 -70q-78 -85 -187 -86l-13 -89h-81l14 100q-74 24 -119 90.5t-45 161.5v8q0 117 66.5 192.5t171.5 78.5l12 80h82zM159 347q0 -112 75 -153l47 333q-55 -7 -88.5 -53t-33.5 -121v-6z" />
    <glyph glyph-name="numbersign.tab" horiz-adv-x="530" 
d="M25 260h83l21 183h-76v96h88l19 161h85l-20 -161h123l19 161h85l-19 -161h71v-96h-83l-22 -183h78v-95h-89l-20 -165h-85l20 165h-122l-19 -165h-85l19 165h-71v95zM213 445l-23 -187h126l22 187h-125z" />
    <glyph glyph-name="paragraph.tab" horiz-adv-x="530" 
d="M329 0v241h-30q-114 2 -185.5 61t-71.5 168t71 169.5t189 60.5h144v-700h-117z" />
    <glyph glyph-name="section.tab" horiz-adv-x="530" 
d="M264 -9q-106 0 -183 68l53 74q60 -53 129 -53q32 0 48.5 13.5t16.5 34.5v1q0 23 -24 40t-87 39q-99 34 -138 65t-39 83v1q0 42 28.5 72.5t78.5 42.5q-52 42 -52 99v1q0 60 47.5 98.5t123.5 38.5q106 0 183 -68l-53 -74q-62 53 -129 53q-32 0 -49 -13.5t-17 -34.5v-1
q0 -23 24 -40t88 -39q99 -34 138 -65t39 -83v-1q0 -42 -28.5 -72.5t-79.5 -42.5q52 -41 52 -99v-1q0 -60 -47 -98.5t-123 -38.5zM206 425q-29 1 -48.5 -14.5t-19.5 -39.5v-1q0 -24 21.5 -40t73.5 -34q67 -21 91 -21q29 -1 48.5 14.5t19.5 39.5v1q0 24 -21.5 40t-73.5 34
q-67 21 -91 21z" />
    <glyph glyph-name="degree.tab" horiz-adv-x="530" 
d="M264 305q-77 0 -131 57.5t-54 142.5v3q0 84 55 142t132 58q76 0 130 -58t54 -142v-3q0 -85 -54.5 -142.5t-131.5 -57.5zM265 375q49 0 79.5 36.5t30.5 93.5v3q0 57 -31 93.5t-80 36.5q-48 0 -78.5 -36.5t-30.5 -93.5v-3q0 -57 31 -93.5t79 -36.5z" />
    <glyph glyph-name="percent.tab" horiz-adv-x="530" 
d="M394 356q52 0 82 -47t30 -127v-13q0 -81 -30 -128t-82 -47t-82.5 47t-30.5 127v14q0 79 30.5 126.5t82.5 47.5zM136 706q52 0 82 -47t30 -127v-13q0 -80 -30 -127.5t-82 -47.5t-82.5 47t-30.5 127v13q0 81 30.5 128t82.5 47zM399 700h63l-179 -360l-153 -340h-62l178 360
zM136 641q-45 0 -45 -107v-18q0 -107 45 -107t45 107v18q0 107 -45 107zM393 291q-45 0 -45 -107v-18q0 -107 45 -107t45 107v18q0 107 -45 107z" />
    <glyph glyph-name="quotedbl.tab" horiz-adv-x="530" 
d="M303 401l34 299h127v-6l-106 -293h-55zM91 401l34 299h127v-6l-106 -293h-55z" />
    <glyph glyph-name="quotesingle.tab" horiz-adv-x="265" 
d="M65 401l34 299h127v-6l-105 -293h-56z" />
    <glyph glyph-name="plus.tab" horiz-adv-x="530" 
d="M479 302h-163v-168h-103l1 168h-164v100h164l-1 168h103v-168h163v-100z" />
    <glyph glyph-name="minus.tab" horiz-adv-x="530" 
d="M479 298h-428v108h428v-108z" />
    <glyph glyph-name="divide.tab" horiz-adv-x="530" 
d="M204 484v120h121v-120h-121zM479 302h-428v100h428v-100zM204 101v119h121v-119h-121z" />
    <glyph glyph-name="equal.tab" horiz-adv-x="530" 
d="M467 412h-404v103h404v-103zM467 189h-404v103h404v-103z" />
    <glyph glyph-name="multiply.tab" horiz-adv-x="530" 
d="M400 140l-136 141l-136 -141l-73 69l142 142l-142 143l74 70l137 -141l136 141l72 -69l-141 -142l141 -143z" />
    <glyph glyph-name="less.tab" horiz-adv-x="530" 
d="M458 94l-403 207v102l403 207v-114l-292 -143l292 -144v-115z" />
    <glyph glyph-name="greater.tab" horiz-adv-x="530" 
d="M474 301l-403 -207v114l293 143l-293 144v115l403 -207v-102z" />
    <glyph glyph-name="plusminus.tab" horiz-adv-x="530" 
d="M479 355h-163v-163h-103l1 163h-164v100h164l-1 164h103v-164h163v-100zM479 8h-428v98h428v-98z" />
    <glyph glyph-name="space.tab" horiz-adv-x="265" 
 />
    <glyph glyph-name="NUL" horiz-adv-x="0" 
 />
    <glyph glyph-name="hfjslug" horiz-adv-x="694" 
d="M644 -200h-208l-8 14h-163l-8 -14h-207v303q14 0 23 9.5t9 22.5t-9.5 22.5t-22.5 9.5v554h100l30 79h334l29 -79h101v-921zM400 563v-172h15v78h38v14h-38v66h43v14h-58zM184 563v-172h15v79h47v-79h15v172h-15v-79h-47v79h-15zM460 394q10 -4 21 -4q31 0 31 36v137h-16
v-137q0 -22 -16 -22q-8 0 -20 5v-15zM371 465l-13 3q-4 -18 -8 -30h-1l-16 31q23 21 23 42q0 31 -27 31q-12 0 -20 -9t-8 -22t14 -39q-23 -18 -23 -47q0 -16 8 -26.5t21 -10.5q19 0 29 24h1l12 -24l12 6l-17 32q6 14 13 39zM523 323v-46h8v12l8 8l15 -20h10l-20 26l18 20
h-10l-20 -24h-1v24h-8zM488 292l10 -15h9l-12 17q10 4 10 14q0 15 -17 15h-20v-46h8v15h12zM426 276q10 0 17 7t7 17q0 9 -7 16.5t-17 7.5t-17 -7.5t-7 -16.5q0 -10 7 -17t17 -7zM370 301l-13 22h-9l18 -29v-17h8v17l18 29h-9zM193 323v-46h34v7h-26v13h23v7h-23v12h26v7
h-34zM132 323v-46h8v32l25 -32h7v46h-8v-32l-25 32h-7zM241 323l14 -47h8l11 34h1l11 -34h8l14 47h-8l-10 -35h-1l-11 35h-7l-11 -35h-1l-10 35h-8zM327 479q-12 22 -12 32q0 19 14 19q13 0 13 -19q0 -15 -15 -32zM342 423q-8 -21 -20 -21q-16 0 -16 25q0 19 16 35zM487 299
h-11v17h11q10 0 10 -8q0 -9 -10 -9zM426 283q-16 0 -16 17q0 6 4.5 11.5t11.5 5.5t11.5 -5.5t4.5 -11.5q0 -17 -16 -17z" />
    <glyph glyph-name="i.dot" horiz-adv-x="253" 
d="M66 607v111h120v-111h-120zM70 0v530h113v-530h-113z" />
    <glyph glyph-name="zero.num" 
d="M176 315q-64 0 -101.5 51t-37.5 142v6q0 90 38 142t102 52q63 0 101 -51.5t38 -140.5v-7q0 -90 -38.5 -142t-101.5 -52zM176 643q-32 0 -50 -32.5t-18 -95.5v-7q0 -63 18.5 -95.5t50.5 -32.5q30 0 48.5 33t18.5 95v7q0 63 -18.5 95.5t-49.5 32.5z" />
    <glyph glyph-name="one.num" horiz-adv-x="287" 
d="M199 323h-71v307l-72 -30l-14 62l103 43h54v-382z" />
    <glyph glyph-name="one.num_alt" 
d="M313 323h-252v61h96v247l-85 -33l-14 61l116 46h53v-321h86v-61z" />
    <glyph glyph-name="two.num" 
d="M47 323v59l123 120q33 32 46 51t13 40q0 23 -15.5 36.5t-38.5 13.5q-41 0 -83 -50l-45 43q56 72 133 72q54 0 88 -29.5t34 -78.5q0 -34 -16 -61.5t-55 -64.5l-91 -88h164v-63h-257z" />
    <glyph glyph-name="three.num" 
d="M170 315q-75 0 -132 53l38 52q46 -42 94 -42q26 0 44 15.5t18 40.5q0 54 -84 56h-29l-9 44l100 102h-151v64h238v-54l-104 -104q49 -6 79 -32.5t30 -73.5q0 -54 -36.5 -87.5t-95.5 -33.5z" />
    <glyph glyph-name="four.num" 
d="M276 401v-79h-65v79h-168l-7 63l162 240h78v-246h45v-57h-45zM213 458v167h-2l-113 -167h115z" />
    <glyph glyph-name="five.num" 
d="M169 315q-69 0 -130 51l38 53q46 -40 92 -40q31 0 49 17.5t18 45.5q0 27 -18.5 42.5t-49.5 15.5q-32 0 -64 -15l-44 25l15 190h214v-65h-157l-6 -84q22 9 57 9q54 0 89 -30t35 -85q0 -60 -38 -95t-100 -35z" />
    <glyph glyph-name="six.num" 
d="M178 315q-56 0 -90 34q-46 44 -46 147v5q0 99 40 153t112 54q56 0 101 -34l-32 -56q-32 27 -71 27q-34 0 -56 -28t-24 -78q32 29 79 29q49 0 82.5 -31.5t33.5 -89.5q0 -59 -36.5 -95.5t-92.5 -36.5zM177 376q28 0 45.5 18.5t17.5 49.5t-17 48.5t-46 17.5q-28 0 -46 -17.5
t-18 -48.5t18 -49.5t46 -18.5z" />
    <glyph glyph-name="seven.num" 
d="M153 322h-77l148 312h-170v66h249v-53z" />
    <glyph glyph-name="eight.num" 
d="M177 315q-60 0 -97.5 30.5t-37.5 80.5q0 64 61 93q-51 29 -51 86q0 45 35 74t90 29q54 0 89 -29t35 -74q0 -57 -51 -86q61 -29 61 -92q0 -51 -37.5 -81.5t-96.5 -30.5zM177 653q-27 0 -43.5 -15t-16.5 -39q0 -25 17 -40t43 -15t42.5 15t16.5 40q0 24 -16.5 39t-42.5 15z
M177 489q-30 0 -49 -16.5t-19 -43.5t18.5 -43t49.5 -16q30 0 48.5 16t18.5 43t-19 43.5t-48 16.5z" />
    <glyph glyph-name="nine.num" 
d="M176 708q55 0 89 -34q47 -45 47 -147v-5q0 -99 -40.5 -153t-112.5 -54q-61 0 -106 37l31 56q37 -30 77 -30q34 0 56 27.5t23 75.5q-29 -29 -78 -29t-82.5 31.5t-33.5 90.5q0 60 37 97t93 37zM176 509q29 0 46.5 18t17.5 51q0 32 -18 51t-46 19t-45.5 -19t-17.5 -52
q0 -32 17 -50t46 -18z" />
    <glyph glyph-name="zero.den" 
d="M176 -8q-64 0 -101.5 51t-37.5 141v7q0 91 38 142.5t102 51.5q63 0 101 -51.5t38 -141.5v-6q0 -90 -38.5 -142t-101.5 -52zM176 320q-32 0 -50 -32.5t-18 -95.5v-7q0 -63 18.5 -95.5t50.5 -32.5q30 0 48.5 33t18.5 95v7q0 63 -18.5 95.5t-49.5 32.5z" />
    <glyph glyph-name="one.den" horiz-adv-x="287" 
d="M199 0h-71v307l-72 -30l-14 62l103 42h54v-381z" />
    <glyph glyph-name="one.den_alt" 
d="M313 0h-252v61h96v247l-85 -34l-14 62l116 46h53v-321h86v-61z" />
    <glyph glyph-name="two.den" 
d="M47 0v59l123 120q33 32 46 51t13 40q0 23 -15.5 36.5t-38.5 13.5q-41 0 -83 -50l-45 43q56 72 133 72q54 0 88 -29.5t34 -78.5q0 -34 -16 -61.5t-55 -64.5l-91 -88h164v-63h-257z" />
    <glyph glyph-name="three.den" 
d="M170 -8q-77 0 -132 53l38 52q46 -42 94 -42q26 0 44 15.5t18 40.5q0 27 -22.5 41t-61.5 14h-29l-9 45l100 102h-151v64h238v-54l-104 -104q49 -6 79 -32.5t30 -73.5q0 -54 -36.5 -87.5t-95.5 -33.5z" />
    <glyph glyph-name="four.den" 
d="M276 78v-80h-65v80h-168l-7 63l162 240h78v-246h45v-57h-45zM213 135v167h-2l-113 -167h115z" />
    <glyph glyph-name="five.den" 
d="M169 -8q-71 0 -130 51l38 53q46 -40 92 -40q31 0 49 17.5t18 45.5q0 27 -18.5 42.5t-49.5 15.5q-32 0 -64 -15l-44 25l15 190h214v-65h-157l-6 -84q22 9 57 9q54 0 89 -30t35 -85q0 -60 -38 -95t-100 -35z" />
    <glyph glyph-name="six.den" 
d="M178 -8q-56 0 -90 34q-46 44 -46 147v5q0 99 40 153t112 54q56 0 101 -34l-32 -56q-32 27 -71 27q-34 0 -56 -28t-24 -79q31 29 79 29q49 0 82.5 -31t33.5 -89q0 -59 -36.5 -95.5t-92.5 -36.5zM177 52q28 0 45.5 19t17.5 50t-17 48.5t-46 17.5q-28 0 -46 -17.5t-18 -48.5
t18 -50t46 -19z" />
    <glyph glyph-name="seven.den" 
d="M153 -2h-77l148 313h-170v66h249v-53z" />
    <glyph glyph-name="eight.den" 
d="M177 -8q-60 0 -97.5 30.5t-37.5 80.5q0 64 61 93q-51 29 -51 85q0 46 35 75t90 29q54 0 89 -29t35 -75q0 -56 -51 -85q61 -29 61 -92q0 -51 -37.5 -81.5t-96.5 -30.5zM177 329q-26 0 -43 -14.5t-17 -38.5q0 -25 17 -40t43 -15t42.5 15t16.5 40q0 24 -16.5 38.5
t-42.5 14.5zM177 166q-30 0 -49 -16.5t-19 -43.5q0 -26 18.5 -42.5t49.5 -16.5q30 0 48.5 16t18.5 43t-19 43.5t-48 16.5z" />
    <glyph glyph-name="nine.den" 
d="M176 385q55 0 89 -34q47 -45 47 -147v-5q0 -99 -40.5 -153t-112.5 -54q-61 0 -106 37l31 56q35 -30 77 -30q34 0 56 27t23 75q-31 -29 -78 -29q-49 0 -82.5 31.5t-33.5 91.5t37 97t93 37zM176 186q29 0 46.5 18t17.5 51q0 32 -18 50.5t-46 18.5t-45.5 -19t-17.5 -51
t17 -50t46 -18z" />
    <glyph glyph-name="caron.alt" horiz-adv-x="500" 
d="M197 579l11 178h86v-3l-50 -175h-47z" />
    <glyph glyph-name="acute.cap" horiz-adv-x="500" 
d="M160 751l102 139l102 -47l-117 -92h-87z" />
    <glyph glyph-name="hungarumlaut.cap" horiz-adv-x="500" 
d="M73 751l102 139l97 -47l-115 -92h-84zM228 751l103 139l97 -47l-116 -92h-84z" />
    <glyph glyph-name="grave.cap" horiz-adv-x="500" 
d="M337 751h-87l-117 92l102 47z" />
    <glyph glyph-name="circumflex.cap" horiz-adv-x="500" 
d="M91 752l107 128h104l107 -128h-93l-67 55l-67 -55h-91z" />
    <glyph glyph-name="caron.cap" horiz-adv-x="500" 
d="M409 880l-107 -128h-104l-107 128h93l67 -55l67 55h91z" />
    <glyph glyph-name="breve.cap" horiz-adv-x="500" 
d="M250 749q-66 0 -107.5 32.5t-46.5 92.5h79q14 -47 75 -47t75 47h79q-5 -60 -46.5 -92.5t-107.5 -32.5z" />
    <glyph glyph-name="tilde.cap" horiz-adv-x="500" 
d="M323 752q-27 0 -80 21q-37 16 -53 16q-17 0 -27.5 -10.5t-19.5 -34.5l-65 19q15 59 38 87t61 28q29 0 81 -22q37 -16 52 -16q17 0 27.5 10.5t19.5 34.5l65 -19q-15 -58 -38 -86t-61 -28z" />
    <glyph glyph-name="macron.cap" horiz-adv-x="500" 
d="M90 761v83h320v-83h-320z" />
    <glyph glyph-name="dieresis.cap" horiz-adv-x="500" 
d="M285 753v107h114v-107h-114zM100 753v107h115v-107h-115z" />
    <glyph glyph-name="dotaccent.cap" horiz-adv-x="500" 
d="M192 753v107h116v-107h-116z" />
    <glyph glyph-name="ring.cap" horiz-adv-x="500" 
d="M250 749q-45 0 -76.5 28t-31.5 70t31.5 70t76.5 28t76.5 -28t31.5 -70t-31.5 -70t-76.5 -28zM250 794q25 0 41.5 15t16.5 38t-16.5 38t-41.5 15t-41.5 -15t-16.5 -38t16.5 -38t41.5 -15z" />
    </font>
</defs>
</svg>
