<?xml version="1.0" standalone="no"?>
<!DOCTYPE svg PUBLIC "-//W3C//DTD SVG 1.1//EN" "http://www.w3.org/Graphics/SVG/1.1/DTD/svg11.dtd" >
<svg xmlns="http://www.w3.org/2000/svg" xmlns:xlink="http://www.w3.org/1999/xlink" version="1.1">
<metadata>
Created by FontForge 20161003 at Mon Jul 17 05:45:16 2017
 By www-data
Copyright (C) 2005, 2008 Hoefler &#38; Frere-Jones. http://www.typography.com
</metadata>
<defs>
<font id="GothamNarrowLightItalic" horiz-adv-x="530" >
  <font-face 
    font-family="GothamNarrowLightItalic"
    font-weight="300"
    font-style="italic"
    font-stretch="condensed"
    units-per-em="1000"
    panose-1="0 0 0 0 0 0 0 0 0 0"
    ascent="800"
    descent="-200"
    x-height="515"
    cap-height="700"
    bbox="-272 -212 1024 964"
    underline-thickness="50"
    underline-position="-150"
    slope="-14"
    unicode-range="U+0020-FB04"
  />
<missing-glyph horiz-adv-x="500" 
d="M0 -200v1000h500v-1000h-500zM50 -76l172 376l-172 376v-752zM71 -150h358l-179 390zM250 360l179 390h-358zM450 -76v752l-172 -376z" />
    <glyph glyph-name="f_f" unicode="ff" horiz-adv-x="626" 
d="M44 0l115 472h-67l11 43h66l18 69q17 70 53 104q37 35 93 35q47 0 83 -19l-11 -42q-41 18 -73 18q-75 0 -100 -103l-16 -62h152l-11 -43h-151l-115 -472h-47zM357 0l115 472h-67l11 43h66l18 69q17 70 53 104q37 35 93 35q47 0 83 -19l-11 -42q-40 18 -73 18
q-75 0 -100 -103l-16 -62h152l-11 -43h-151l-115 -472h-47z" />
    <glyph glyph-name="fi" unicode="fi" horiz-adv-x="533" 
d="M44 0l115 472h-67l11 43h66l18 69q17 70 53 104q37 35 93 35q47 0 83 -19l-11 -42q-41 18 -73 18q-75 0 -100 -103l-16 -62h152l-11 -43h-151l-115 -472h-47zM336 0l126 515h46l-125 -515h-47zM488 641l17 68h56l-17 -68h-56z" />
    <glyph glyph-name="fl" unicode="fl" horiz-adv-x="533" 
d="M44 0l115 472h-67l11 43h66l18 69q17 70 53 104q37 35 93 35q47 0 83 -19l-11 -42q-41 18 -73 18q-75 0 -100 -103l-16 -62h152l-11 -43h-151l-115 -472h-47zM336 0l177 722h46l-176 -722h-47z" />
    <glyph glyph-name="f_f_i" unicode="ffi" horiz-adv-x="846" 
d="M44 0l115 472h-67l11 43h66l18 69q17 70 53 104q37 35 93 35q47 0 83 -19l-11 -42q-41 18 -73 18q-75 0 -100 -103l-16 -62h152l-11 -43h-151l-115 -472h-47zM357 0l115 472h-67l11 43h66l18 69q17 70 53 104q37 35 93 35q47 0 83 -19l-11 -42q-40 18 -73 18
q-75 0 -100 -103l-16 -62h152l-11 -43h-151l-115 -472h-47zM650 0l126 515h46l-125 -515h-47zM802 641l17 68h56l-17 -68h-56z" />
    <glyph glyph-name="f_f_l" unicode="ffl" horiz-adv-x="846" 
d="M44 0l115 472h-67l11 43h66l18 69q17 70 53 104q37 35 93 35q47 0 83 -19l-11 -42q-41 18 -73 18q-75 0 -100 -103l-16 -62h152l-11 -43h-151l-115 -472h-47zM357 0l115 472h-67l11 43h66l18 69q17 70 53 104q37 35 93 35q47 0 83 -19l-11 -42q-40 18 -73 18
q-75 0 -100 -103l-16 -62h152l-11 -43h-151l-115 -472h-47zM650 0l177 722h46l-176 -722h-47z" />
    <glyph glyph-name=".notdef" horiz-adv-x="500" 
d="M0 -200v1000h500v-1000h-500zM50 -76l172 376l-172 376v-752zM71 -150h358l-179 390zM250 360l179 390h-358zM450 -76v752l-172 -376z" />
    <glyph glyph-name=".null" horiz-adv-x="0" 
 />
    <glyph glyph-name="nonmarkingreturn" horiz-adv-x="333" 
 />
    <glyph glyph-name="space" unicode=" " horiz-adv-x="238" 
 />
    <glyph glyph-name="exclam" unicode="!" horiz-adv-x="233" 
d="M85 183l95 447l17 70h56l-17 -70l-125 -447h-26zM22 0l20 84h64l-20 -84h-64z" />
    <glyph glyph-name="quotedbl" unicode="&#x22;" horiz-adv-x="355" 
d="M95 450l78 250h59v-6l-111 -244h-26zM252 450l78 250h59v-6l-111 -244h-26z" />
    <glyph glyph-name="numbersign" unicode="#" horiz-adv-x="589" 
d="M78 0l56 186h-106l10 45h109l73 240h-114l11 45h116l56 184h45l-56 -184h177l56 184h44l-55 -184h105l-10 -45h-109l-73 -240h114l-10 -45h-117l-56 -186h-45l57 186h-178l-56 -186h-44zM192 231h177l73 240h-178z" />
    <glyph glyph-name="dollar" unicode="$" horiz-adv-x="533" 
d="M371 761h45l-17 -67q87 -18 153 -83l-34 -35q-59 59 -133 75l-68 -277q78 -39 113 -81t35 -99q0 -84 -62.5 -140t-163.5 -56q-3 0 -8 0.5t-8 0.5l-23 -97h-45l25 101q-117 20 -188 107l36 33q68 -80 167 -96l72 296q-82 40 -116 81t-34 94q0 77 60.5 130t151.5 53
q5 0 13.5 -0.5t12.5 -0.5zM415 193q0 39 -24.5 70.5t-85.5 62.5l-70 -283h12q77 0 122.5 43.5t45.5 106.5zM167 521q0 -38 25.5 -69t87.5 -62l65 266q-6 1 -19 1q-71 0 -115 -39.5t-44 -96.5z" />
    <glyph glyph-name="percent" unicode="%" horiz-adv-x="722" 
d="M52 0l317 361l294 339h53l-316 -361l-294 -339h-54zM208 354q-53 0 -87 39t-34 101q0 103 65 166q47 47 106 47q53 0 87.5 -39t34.5 -101q0 -99 -65 -166q-47 -47 -107 -47zM212 396q36 0 69 31q52 54 52 138q0 47 -20.5 73.5t-57.5 26.5q-38 0 -69 -31q-53 -53 -53 -137
q0 -47 21 -74t58 -27zM510 -7q-53 0 -87 39t-34 101q0 100 64 166q49 47 107 47q53 0 87 -39t34 -101q0 -102 -64 -166q-47 -47 -107 -47zM514 35q36 0 69 31q52 54 52 137q0 47 -21 74t-58 27t-68 -31q-53 -53 -53 -138q0 -47 21 -73.5t58 -26.5z" />
    <glyph glyph-name="ampersand" unicode="&#x26;" horiz-adv-x="604" 
d="M527 331l39 -21q-56 -105 -111 -175l76 -124l-39 -23l-68 112q-53 -56 -103.5 -82.5t-116.5 -26.5q-78 0 -128.5 46t-50.5 122q0 167 217 242q-44 83 -44 142q0 71 48 119.5t118 48.5q67 0 106.5 -38.5t39.5 -97.5q0 -130 -203 -197l123 -209q49 63 97 162zM209 35
q98 0 191 99l-136 231q-94 -30 -141 -82t-47 -117q0 -59 35.5 -95t97.5 -36zM247 544q0 -58 40 -131q175 53 175 160q0 42 -27.5 68.5t-73.5 26.5q-48 0 -81 -37t-33 -87z" />
    <glyph glyph-name="quotesingle" unicode="'" horiz-adv-x="195" 
d="M95 450l78 250h59v-6l-111 -244h-26z" />
    <glyph glyph-name="parenleft" unicode="(" horiz-adv-x="370" 
d="M231 -138q-154 148 -154 341q0 225 156 381q83 83 202 133l15 -33q-110 -52 -179 -121q-73 -73 -109 -167t-36 -191q0 -100 34.5 -175t96.5 -141z" />
    <glyph glyph-name="parenright" unicode=")" horiz-adv-x="370" 
d="M154 718q154 -149 154 -341q0 -225 -156 -381q-83 -83 -202 -133l-15 33q110 52 179 121q73 73 109 167t36 191q0 100 -34.5 175t-96.5 141z" />
    <glyph glyph-name="asterisk" unicode="*" horiz-adv-x="383" 
d="M245 414l-39 9l38 118l-112 -43l-12 39l120 26l-95 79l29 29l80 -91l21 122l39 -9l-38 -118l112 43l12 -39l-120 -26l95 -79l-30 -29l-79 91z" />
    <glyph glyph-name="plus" unicode="+" horiz-adv-x="534" 
d="M215 142l47 187h-188l11 46h188l46 187h48l-48 -187h188l-11 -46h-188l-46 -187h-47z" />
    <glyph glyph-name="comma" unicode="," horiz-adv-x="206" 
d="M-33 -105l-8 25q67 25 76 80h-27l21 84h64l-18 -73q-13 -51 -36 -76t-72 -40z" />
    <glyph glyph-name="hyphen" unicode="-" horiz-adv-x="366" 
d="M64 271l13 51h243l-12 -51h-244z" />
    <glyph glyph-name="period" unicode="." horiz-adv-x="206" 
d="M8 0l21 84h64l-20 -84h-65z" />
    <glyph glyph-name="slash" unicode="/" horiz-adv-x="426" 
d="M-106 -119l613 908h50l-614 -908h-49z" />
    <glyph glyph-name="zero" unicode="0" horiz-adv-x="606" 
d="M385 711q95 0 146.5 -65.5t51.5 -177.5q0 -108 -39.5 -221.5t-105.5 -179.5q-78 -78 -173 -78q-94 0 -145.5 65t-51.5 177q0 109 39.5 222.5t105.5 179.5q76 78 172 78zM267 34q69 0 132 61q59 60 96 166.5t37 206.5q0 91 -38.5 144.5t-109.5 53.5q-69 0 -132 -61
q-59 -60 -96 -166.5t-37 -206.5q0 -91 38 -144.5t110 -53.5z" />
    <glyph glyph-name="one" unicode="1" horiz-adv-x="294" 
d="M78 0l158 644l-126 -44l1 49l149 55h40l-172 -704h-50z" />
    <glyph glyph-name="two" unicode="2" horiz-adv-x="509" 
d="M-20 0l8 36l345 319q62 60 90 103.5t28 90.5q0 51 -35 82.5t-96 31.5q-86 0 -167 -84l-34 32q94 99 204 99q80 0 130 -44.5t50 -114.5q0 -58 -32.5 -107.5t-100.5 -114.5l-305 -281h347l-12 -48h-420z" />
    <glyph glyph-name="three" unicode="3" horiz-adv-x="516" 
d="M205 -11q-136 0 -205 110l38 28q59 -92 170 -92q82 0 134.5 50t52.5 127q0 72 -53 104.5t-127 32.5h-15l-6 27l274 276h-322l13 48h390l-8 -35l-275 -279q80 -9 130.5 -52.5t50.5 -119.5q0 -92 -64 -155q-70 -70 -178 -70z" />
    <glyph glyph-name="four" unicode="4" horiz-adv-x="553" 
d="M311 0l41 168h-327l-3 40l463 497h45l-120 -494h96l-10 -43h-96l-42 -168h-47zM83 211h280l99 408z" />
    <glyph glyph-name="five" unicode="5" horiz-adv-x="518" 
d="M208 -11q-127 0 -203 102l38 30q65 -88 167 -88q89 0 144 61.5t55 143.5q0 69 -40.5 105t-105.5 36q-67 0 -129 -34l-31 24l99 331h327l-12 -48h-284l-77 -253q50 25 110 25q89 0 142 -48.5t53 -136.5q0 -106 -71 -177q-75 -73 -182 -73z" />
    <glyph glyph-name="six" unicode="6" horiz-adv-x="552" 
d="M267 -11q-83 0 -137 54q-62 62 -62 182q0 105 39.5 221t104.5 182q83 83 186 83q100 0 170 -76l-34 -34q-59 64 -140 64q-78 0 -146 -66q-44 -45 -76.5 -117.5t-43.5 -150.5q69 104 185 104q88 0 139.5 -54.5t51.5 -136.5q0 -114 -74 -188q-67 -67 -163 -67zM271 33
q69 0 121 50q61 61 61 160q0 64 -38 105t-108 41q-77 0 -127 -52q-58 -58 -58 -145q0 -76 42 -118q41 -41 107 -41z" />
    <glyph glyph-name="seven" unicode="7" horiz-adv-x="496" 
d="M60 0l415 652h-341l12 48h397l-10 -38l-418 -662h-55z" />
    <glyph glyph-name="eight" unicode="8" horiz-adv-x="545" 
d="M247 -10q-96 0 -155.5 50t-60.5 126q-1 77 51 132.5t136 72.5q-40 17 -65 55t-25 88q0 81 62.5 138.5t155.5 57.5q86 0 140.5 -47t54.5 -124q0 -69 -45.5 -120.5t-114.5 -67.5q44 -20 74.5 -62t30.5 -95q0 -85 -68 -144.5t-171 -59.5zM249 35q83 0 134.5 47t51.5 116
q0 61 -45.5 100.5t-121.5 39.5q-83 0 -135 -49.5t-52 -116.5q0 -63 46 -100t122 -37zM320 380q78 0 124.5 48t46.5 109q0 57 -40 92.5t-106 35.5q-75 0 -121 -46t-46 -109q0 -55 39 -92.5t103 -37.5z" />
    <glyph glyph-name="nine" unicode="9" horiz-adv-x="552" 
d="M200 -11q-103 0 -177 82l33 34q65 -70 148 -70q77 0 145 66q45 45 76.5 116t42.5 147q-69 -107 -186 -107q-88 0 -139 55t-51 140q0 117 77 192q67 67 162 67q82 0 136 -54q62 -62 62 -182q0 -106 -39 -221.5t-105 -181.5q-83 -83 -185 -83zM290 303q73 0 125 52
q60 60 60 153q0 76 -42 118q-41 41 -106 41q-71 0 -121 -50q-61 -61 -63 -164q-1 -67 37 -108.5t110 -41.5z" />
    <glyph glyph-name="colon" unicode=":" horiz-adv-x="216" 
d="M13 0l21 84h64l-20 -84h-65zM118 431l21 84h64l-20 -84h-65z" />
    <glyph glyph-name="semicolon" unicode=";" horiz-adv-x="216" 
d="M-28 -105l-8 25q67 25 76 80h-27l21 84h64l-18 -73q-13 -51 -36 -76t-72 -40zM118 431l21 84h64l-20 -84h-65z" />
    <glyph glyph-name="less" unicode="&#x3c;" horiz-adv-x="534" 
d="M419 119l-345 213l10 40l450 214l-13 -58l-387 -180l296 -181z" />
    <glyph glyph-name="equal" unicode="=" horiz-adv-x="534" 
d="M60 229l12 48h399l-12 -48h-399zM110 427l11 48h399l-12 -48h-398z" />
    <glyph glyph-name="greater" unicode="&#x3e;" horiz-adv-x="534" 
d="M45 118l14 58l386 180l-296 181l12 48l345 -213l-10 -40z" />
    <glyph glyph-name="question" unicode="?" horiz-adv-x="463" 
d="M163 183l29 168l7 6q102 11 162.5 60.5t60.5 123.5q0 58 -38 89.5t-95 31.5q-86 0 -164 -70l-28 35q89 81 195 81q81 0 130.5 -46.5t49.5 -119.5q0 -90 -66.5 -148t-169.5 -76l-42 -135h-31zM103 0l20 84h64l-20 -84h-64z" />
    <glyph glyph-name="at" unicode="@" horiz-adv-x="874" 
d="M419 -153q-165 0 -264.5 96t-99.5 264q0 130 59 245.5t164 187t228 71.5q158 0 248.5 -93t90.5 -237q0 -129 -61.5 -218.5t-135.5 -89.5q-48 0 -75 28t-29 74q-75 -104 -168 -104q-58 0 -95.5 40t-37.5 109q0 107 69.5 195.5t156.5 88.5q52 0 84.5 -29.5t44.5 -75.5
l28 93l44 -12l-73 -246q-10 -35 -10 -57q0 -31 17 -50t49 -19q57 0 108 80t51 193q0 131 -81.5 215t-225.5 84q-114 0 -211.5 -68t-152 -177t-54.5 -228q0 -153 92 -241t240 -88q99 0 191 46l14 -28q-105 -49 -205 -49zM386 115q68 0 129 72t61 154q0 53 -28.5 85.5
t-77.5 32.5q-68 0 -121.5 -75t-53.5 -162q0 -51 25 -79t66 -28z" />
    <glyph glyph-name="A" unicode="A" horiz-adv-x="652" 
d="M-30 0l445 705h50l100 -705h-50l-26 196h-342l-123 -196h-54zM175 241h307l-54 403z" />
    <glyph glyph-name="B" unicode="B" horiz-adv-x="611" 
d="M27 0l171 700h204q90 0 143 -41.5t53 -114.5q0 -77 -51 -126.5t-127 -65.5q57 -15 91.5 -51.5t34.5 -92.5q0 -97 -78 -152.5t-200 -55.5h-241zM88 46h183q104 0 164.5 42.5t60.5 119.5q0 58 -46.5 90t-124.5 32h-168zM168 376h155q101 0 162.5 45t61.5 118
q0 56 -39.5 85.5t-109.5 29.5h-162z" />
    <glyph glyph-name="C" unicode="C" horiz-adv-x="612" 
d="M319 -11q-105 0 -173.5 72.5t-68.5 196.5q0 96 36.5 192t100.5 161q99 99 226 99q135 0 205 -117l-41 -28q-62 100 -168 100q-102 0 -184 -82q-56 -56 -90 -144.5t-34 -179.5q0 -103 53 -163.5t141 -60.5q95 0 181 80l32 -32q-97 -94 -216 -94z" />
    <glyph glyph-name="D" unicode="D" horiz-adv-x="657" 
d="M27 0l171 700h129q146 0 226 -80q73 -71 73 -202q0 -82 -30 -163.5t-88 -138.5q-116 -116 -300 -116h-181zM514 588q-66 66 -190 66h-88l-149 -608h129q153 0 256 101q50 50 76.5 122.5t26.5 145.5q0 112 -61 173z" />
    <glyph glyph-name="E" unicode="E" horiz-adv-x="550" 
d="M27 0l171 700h415l-11 -46h-365l-69 -278h329l-11 -46h-329l-69 -284h370l-12 -46h-419z" />
    <glyph glyph-name="F" unicode="F" horiz-adv-x="549" 
d="M27 0l171 700h412l-11 -46h-362l-71 -289h326l-12 -46h-325l-78 -319h-50z" />
    <glyph glyph-name="G" unicode="G" horiz-adv-x="666" 
d="M338 -11q-116 0 -188 76.5t-72 202.5q0 93 35.5 183t99.5 153q106 106 245 106q133 0 208 -102l-38 -29q-63 86 -175 86q-115 0 -204 -91q-56 -56 -88 -138.5t-32 -166.5q0 -108 58 -171.5t154 -63.5q90 0 155 43l60 239h-194l12 46h241l-79 -313q-93 -60 -198 -60z" />
    <glyph glyph-name="H" unicode="H" horiz-adv-x="652" 
d="M27 0l171 700h50l-80 -325h374l79 325h50l-171 -700h-50l80 329h-373l-80 -329h-50z" />
    <glyph glyph-name="I" unicode="I" horiz-adv-x="242" 
d="M34 0l171 700h50l-171 -700h-50z" />
    <glyph glyph-name="J" unicode="J" horiz-adv-x="452" 
d="M152 -9q-125 0 -166 125l44 18q34 -97 122 -97q59 0 98 40q39 37 60 122l121 501h50l-124 -511q-24 -95 -74 -145q-53 -53 -131 -53z" />
    <glyph glyph-name="K" unicode="K" horiz-adv-x="608" 
d="M27 0l171 700h50l-109 -441l474 441h67l-340 -312l182 -388h-56l-165 354l-179 -166l-45 -188h-50z" />
    <glyph glyph-name="L" unicode="L" horiz-adv-x="503" 
d="M27 0l171 700h50l-160 -654h339l-11 -46h-389z" />
    <glyph glyph-name="M" unicode="M" horiz-adv-x="749" 
d="M27 0l171 700h44l137 -410l335 410h54l-171 -700h-49l148 607l-333 -405h-4l-136 405l-149 -607h-47z" />
    <glyph glyph-name="N" unicode="N" horiz-adv-x="674" 
d="M27 0l171 700h47l252 -609l149 609h48l-171 -700h-38l-258 623l-152 -623h-48z" />
    <glyph glyph-name="O" unicode="O" horiz-adv-x="711" 
d="M432 711q111 0 178.5 -76.5t67.5 -198.5q0 -95 -36.5 -192.5t-99.5 -160.5q-95 -95 -217 -95q-111 0 -178.5 76.5t-67.5 198.5q0 96 36.5 193.5t99.5 159.5q95 95 217 95zM326 34q100 0 179 79q56 56 89.5 146t33.5 176q0 103 -54 166.5t-143 63.5q-101 0 -179 -80
q-56 -56 -89.5 -145.5t-33.5 -175.5q0 -102 54 -166t143 -64z" />
    <glyph glyph-name="P" unicode="P" horiz-adv-x="572" 
d="M27 0l171 700h169q120 0 177 -57q48 -48 48 -127q0 -104 -67 -171q-86 -84 -252 -84h-132l-64 -261h-50zM506 611q-43 43 -141 43h-128l-86 -349h124q145 0 214 69q53 54 53 142q0 59 -36 95z" />
    <glyph glyph-name="Q" unicode="Q" horiz-adv-x="711" 
d="M571 -23l-62 77q-83 -66 -184 -66q-111 0 -178.5 76.5t-67.5 198.5q0 96 36.5 193.5t99.5 159.5q95 95 217 95q111 0 178.5 -76.5t67.5 -198.5q0 -94 -36.5 -191t-98.5 -160l65 -77zM326 34q85 0 154 55l-97 117l37 31l93 -116q52 58 83.5 145t31.5 169q0 103 -54 166.5
t-143 63.5q-101 0 -179 -80q-56 -56 -89.5 -145.5t-33.5 -175.5q0 -102 54 -166t143 -64z" />
    <glyph glyph-name="R" unicode="R" horiz-adv-x="612" 
d="M450 0l-126 289q-12 -1 -35 -1h-142l-70 -288h-50l171 700h197q113 0 170 -57q44 -46 44 -117q0 -93 -63 -156q-59 -59 -171 -76l130 -294h-55zM158 332h154q132 0 197 65q51 51 51 127q0 56 -32 86q-43 44 -137 44h-154z" />
    <glyph glyph-name="S" unicode="S" horiz-adv-x="542" 
d="M252 -10q-150 0 -241 124l40 31q82 -110 204 -110q70 0 118 42t48 102q0 42 -28 76t-97 76q-89 54 -124.5 96.5t-35.5 98.5q0 69 49 120q64 64 161 64q125 0 211 -103l-38 -33q-76 91 -176 91q-70 0 -113.5 -40.5t-43.5 -94.5q0 -43 30 -76t104 -78q81 -49 116 -92.5
t35 -100.5q0 -75 -54 -129q-64 -64 -165 -64z" />
    <glyph glyph-name="T" unicode="T" horiz-adv-x="517" 
d="M168 0l160 654h-204l12 46h458l-12 -46h-204l-160 -654h-50z" />
    <glyph glyph-name="U" unicode="U" horiz-adv-x="649" 
d="M292 -11q-103 0 -159.5 53.5t-56.5 141.5q0 46 14 104l99 412h50l-105 -433q-9 -43 -9 -80q0 -69 44 -110.5t127 -41.5q81 0 139 58q61 61 87 168l106 439h49l-108 -449q-31 -121 -97 -187q-75 -75 -180 -75z" />
    <glyph glyph-name="V" unicode="V" horiz-adv-x="615" 
d="M217 -5l-85 705h51l71 -637l382 637h56l-430 -705h-45z" />
    <glyph glyph-name="W" unicode="W" horiz-adv-x="932" 
d="M180 -5l-41 705h50l32 -619l328 621h40l26 -621l333 619h55l-386 -705h-41l-28 609l-326 -609h-42z" />
    <glyph glyph-name="X" unicode="X" horiz-adv-x="589" 
d="M-24 0l315 365l-147 335h53l129 -302l262 302h61l-301 -344l154 -356h-52l-138 323l-277 -323h-59z" />
    <glyph glyph-name="Y" unicode="Y" horiz-adv-x="571" 
d="M194 0l71 290l-149 410h53l130 -367l309 367h64l-360 -420l-68 -280h-50z" />
    <glyph glyph-name="Z" unicode="Z" horiz-adv-x="559" 
d="M-18 0l6 29l547 627h-382l11 44h450l-5 -29l-548 -627h400l-11 -44h-468z" />
    <glyph glyph-name="bracketleft" unicode="[" horiz-adv-x="376" 
d="M13 -130l202 830h232l-9 -37h-188l-184 -756h187l-9 -37h-231z" />
    <glyph glyph-name="backslash" unicode="\" horiz-adv-x="426" 
d="M304 -119l-169 908h41l170 -908h-42z" />
    <glyph glyph-name="bracketright" unicode="]" horiz-adv-x="376" 
d="M375 700l-202 -830h-232l9 37h188l184 756h-187l9 37h231z" />
    <glyph glyph-name="asciicircum" unicode="^" horiz-adv-x="439" 
d="M125 505l178 193h41l84 -193h-44l-67 148l-140 -148h-52z" />
    <glyph glyph-name="underscore" unicode="_" horiz-adv-x="555" 
d="M-104 -160l10 42h559l-10 -42h-559z" />
    <glyph glyph-name="grave" unicode="`" horiz-adv-x="500" 
d="M359 589l-79 101l55 29l57 -130h-33z" />
    <glyph glyph-name="a" unicode="a" horiz-adv-x="496" 
d="M162 -11q-62 0 -104 37.5t-42 103.5q0 80 53 133q57 57 156 57q76 0 162 -28l4 17q8 40 8 63q0 50 -33 78t-97 28t-125 -26l-13 42q69 28 141 28q82 0 127.5 -38t45.5 -105q0 -30 -11 -77l-72 -302h-47l21 82q-74 -93 -174 -93zM172 31q64 0 119 46t72 116l15 60
q-75 26 -157 26q-71 0 -116 -43q-40 -40 -40 -102q0 -47 29 -75t78 -28z" />
    <glyph glyph-name="b" unicode="b" horiz-adv-x="561" 
d="M262 -11q-66 0 -108.5 37.5t-59.5 96.5l-30 -123h-47l177 722h47l-75 -303q80 107 181 107q76 0 123.5 -55.5t47.5 -147.5q0 -75 -27 -147t-75 -120q-69 -67 -154 -67zM261 32q69 0 121 52q40 41 63 104.5t23 129.5q0 75 -34.5 120t-94.5 45q-72 0 -134 -62
q-40 -40 -63.5 -101t-23.5 -122q0 -72 40 -119t103 -47z" />
    <glyph glyph-name="c" unicode="c" horiz-adv-x="469" 
d="M228 -10q-79 0 -133.5 54.5t-54.5 150.5q0 72 27 140.5t74 115.5q76 74 168 74q108 0 162 -93l-39 -27q-47 77 -126 77q-70 0 -129 -59q-39 -39 -63 -101t-24 -122q0 -80 41 -123t100 -43q68 0 128 55l29 -33q-72 -66 -160 -66z" />
    <glyph glyph-name="d" unicode="d" horiz-adv-x="561" 
d="M373 0l24 95q-82 -106 -182 -106q-76 0 -123 55.5t-47 147.5q0 75 27 147t74 119q68 68 154 68q66 0 108.5 -38t59.5 -96l81 330h47l-177 -722h-46zM223 32q72 0 134 62q40 39 64 100.5t24 122.5q0 72 -40 119t-103 47q-69 0 -122 -53q-40 -41 -63 -104t-23 -129
q0 -75 34.5 -120t94.5 -45z" />
    <glyph glyph-name="e" unicode="e" horiz-adv-x="504" 
d="M451 240h-359q-2 -14 -2 -42q0 -76 40 -120t106 -44q74 0 143 54l24 -35q-81 -63 -168 -63q-86 0 -140 55.5t-54 150.5q0 72 27.5 141.5t74.5 116.5q72 72 161 72q77 0 120 -51t43 -132q0 -51 -16 -103zM178 428q-54 -54 -77 -146h312q7 24 7 60q0 62 -30 101.5t-88 39.5
q-67 0 -124 -55z" />
    <glyph glyph-name="f" unicode="f" horiz-adv-x="313" 
d="M44 0l115 472h-67l11 43h66l18 69q17 70 53 104q37 35 93 35q47 0 83 -19l-11 -42q-41 18 -73 18q-75 0 -100 -103l-16 -62h152l-11 -43h-151l-115 -472h-47z" />
    <glyph glyph-name="g" unicode="g" horiz-adv-x="561" 
d="M196 -152q-115 0 -204 73l29 37q79 -66 178 -66q84 0 130 48q39 39 59 118l19 76q-81 -99 -182 -99q-74 0 -124.5 51t-50.5 139q0 63 24 124.5t67 104.5q72 72 163 72q122 0 165 -130l30 119h46l-112 -465q-23 -92 -70 -139q-63 -63 -167 -63zM234 78q78 0 139 61
q33 33 54.5 82.5t21.5 104.5q0 65 -40 110.5t-105 45.5q-72 0 -128 -56q-36 -36 -56.5 -90.5t-20.5 -109.5q0 -70 39 -109t96 -39z" />
    <glyph glyph-name="h" unicode="h" 
d="M17 0l177 722h47l-73 -296q74 100 169 100q64 0 103 -39t39 -105q0 -30 -11 -79l-72 -303h-47l74 307q9 36 9 71q0 50 -29 78t-80 28q-59 0 -112 -50t-72 -124l-75 -310h-47z" />
    <glyph glyph-name="i" unicode="i" horiz-adv-x="220" 
d="M24 0l126 515h46l-125 -515h-47zM176 641l17 68h56l-17 -68h-56z" />
    <glyph glyph-name="j" unicode="j" horiz-adv-x="222" 
d="M-54 -153q-26 0 -55 8l11 43q28 -7 42 -7q55 0 74 77l134 547h46l-136 -556q-12 -53 -41.5 -82.5t-74.5 -29.5zM178 641l17 68h56l-17 -68h-56z" />
    <glyph glyph-name="k" unicode="k" horiz-adv-x="480" 
d="M17 0l177 722h47l-128 -519l334 312h63l-243 -222l124 -293h-52l-109 259l-132 -120l-34 -139h-47z" />
    <glyph glyph-name="l" unicode="l" horiz-adv-x="220" 
d="M24 0l177 722h46l-176 -722h-47z" />
    <glyph glyph-name="m" unicode="m" horiz-adv-x="829" 
d="M17 0l126 515h46l-21 -89q72 100 161 100q55 0 88 -32.5t41 -81.5q69 114 185 114q61 0 99.5 -39.5t38.5 -104.5q0 -26 -12 -79l-73 -303h-46l74 307q8 37 8 71q0 49 -27 77.5t-74 28.5q-55 0 -106.5 -49.5t-68.5 -120.5l-75 -314h-47l74 307q9 36 9 71q0 49 -27.5 77.5
t-74.5 28.5q-56 0 -106.5 -50.5t-69.5 -123.5l-75 -310h-47z" />
    <glyph glyph-name="n" unicode="n" horiz-adv-x="531" 
d="M17 0l126 515h46l-21 -89q74 100 169 100q64 0 103 -39t39 -105q0 -30 -11 -79l-72 -303h-47l74 307q9 36 9 71q0 50 -29 78t-80 28q-59 0 -112 -50t-72 -124l-75 -310h-47z" />
    <glyph glyph-name="o" unicode="o" horiz-adv-x="543" 
d="M311 526q85 0 137 -58.5t52 -153.5q0 -72 -26 -138t-72 -112q-75 -75 -171 -75q-85 0 -137 58.5t-52 153.5q0 72 26 138t72 112q75 75 171 75zM235 33q72 0 131 59q39 40 62 99.5t23 120.5q0 80 -39 125t-105 45q-72 0 -131 -59q-39 -40 -62 -99.5t-23 -120.5
q0 -80 39 -125t105 -45z" />
    <glyph glyph-name="p" unicode="p" horiz-adv-x="561" 
d="M262 -11q-66 0 -108.5 37.5t-59.5 96.5l-67 -273h-46l162 665h46l-23 -96q80 107 181 107q76 0 123.5 -55.5t47.5 -147.5q0 -75 -27 -147t-75 -120q-69 -67 -154 -67zM261 32q69 0 121 52q40 41 63 104.5t23 129.5q0 75 -34.5 120t-94.5 45q-72 0 -134 -62
q-40 -40 -63.5 -101t-23.5 -122q0 -72 40 -119t103 -47z" />
    <glyph glyph-name="q" unicode="q" horiz-adv-x="561" 
d="M215 -11q-76 0 -123 55.5t-47 147.5q0 75 27 147t74 119q68 68 154 68q66 0 108.5 -38t59.5 -96l30 123h47l-162 -665h-47l61 245q-82 -106 -182 -106zM223 32q72 0 134 62q40 39 64 100.5t24 122.5q0 72 -40 119t-103 47q-69 0 -122 -53q-40 -41 -63 -104t-23 -129
q0 -75 34.5 -120t94.5 -45z" />
    <glyph glyph-name="r" unicode="r" horiz-adv-x="342" 
d="M17 0l126 515h46l-30 -122q97 137 221 129l-13 -50h-4q-80 0 -146 -57t-91 -158l-62 -257h-47z" />
    <glyph glyph-name="s" unicode="s" horiz-adv-x="422" 
d="M179 -9q-109 0 -185 90l36 33q71 -80 153 -80q46 0 81 28t35 70q0 28 -20.5 53t-74.5 55q-66 36 -93 67.5t-27 76.5q0 58 45.5 99t117.5 41q46 0 90 -21t75 -55l-34 -35q-65 69 -134 69q-50 0 -80.5 -28t-30.5 -66q0 -28 20 -51.5t77 -55.5q64 -37 91 -70t27 -75
q0 -61 -49.5 -103t-119.5 -42z" />
    <glyph glyph-name="t" unicode="t" horiz-adv-x="339" 
d="M172 -7q-47 0 -76 22.5t-29 66.5q0 21 7 51l82 339h-66l10 43h66l39 158h47l-39 -158h145l-10 -43h-146l-83 -348q-5 -20 -5 -36q0 -52 69 -52q28 0 62 14l-10 -45q-29 -12 -63 -12z" />
    <glyph glyph-name="u" unicode="u" 
d="M194 -11q-65 0 -104 39t-39 106q0 30 11 79l73 302h46l-74 -306q-9 -42 -9 -71q0 -50 29 -78.5t80 -28.5q60 0 113 50t71 124l75 310h47l-125 -515h-47l22 89q-77 -100 -169 -100z" />
    <glyph glyph-name="v" unicode="v" horiz-adv-x="486" 
d="M153 -4l-69 519h50l52 -455l273 455h54l-320 -519h-40z" />
    <glyph glyph-name="w" unicode="w" horiz-adv-x="739" 
d="M127 -4l-34 519h47l23 -448l241 449h39l23 -449l241 448h50l-287 -519h-42l-23 439l-238 -439h-40z" />
    <glyph glyph-name="x" unicode="x" horiz-adv-x="485" 
d="M161 515l90 -215l193 215h59l-232 -251l115 -264h-51l-96 231l-207 -231h-58l245 267l-108 248h50z" />
    <glyph glyph-name="y" unicode="y" horiz-adv-x="493" 
d="M159 2l-78 513h49l65 -456l268 456h54l-317 -528q-46 -76 -87 -108t-89 -32q-52 0 -92 32l25 39q32 -27 71 -27q32 0 62 24.5t69 86.5z" />
    <glyph glyph-name="z" unicode="z" horiz-adv-x="456" 
d="M-17 0l5 28l406 446h-289l10 41h356l-5 -28l-407 -445h303l-11 -42h-368z" />
    <glyph glyph-name="braceleft" unicode="{" horiz-adv-x="414" 
d="M269 -140q-148 33 -148 151q0 35 30 121q17 43 17 69q0 69 -97 69h-20l9 36h21q72 0 108 36q48 50 50 151q7 109 59 160q55 56 176 62l-1 -36q-96 -4 -139 -49q-42 -42 -47 -140q-13 -119 -57 -163q-32 -31 -87 -42q70 -21 70 -85q0 -30 -17 -73q-28 -75 -28 -115
q0 -44 26 -73.5t86 -46.5z" />
    <glyph glyph-name="bar" unicode="|" horiz-adv-x="265" 
d="M20 -119l222 908h42l-223 -908h-41z" />
    <glyph glyph-name="braceright" unicode="}" horiz-adv-x="414" 
d="M160 715q148 -33 148 -151q0 -36 -30 -121q-17 -43 -17 -69q0 -69 97 -69h20l-9 -36h-21q-72 0 -108 -36q-48 -50 -50 -151q-7 -109 -59 -160q-55 -56 -176 -62l1 36q96 4 139 49q42 42 47 140q13 119 57 163q31 32 87 42q-70 21 -70 85q0 31 17 73q28 75 28 115
q0 44 -26 73.5t-86 46.5z" />
    <glyph glyph-name="asciitilde" unicode="~" horiz-adv-x="409" 
d="M110 247l-35 13q22 47 42.5 68.5t48.5 21.5q30 0 60 -32q29 -28 43 -28q23 0 52 56l35 -13q-21 -47 -42 -68.5t-49 -21.5q-30 0 -60 32q-28 28 -43 28q-22 0 -52 -56z" />
    <glyph glyph-name="uni00A0" unicode="&#xa0;" horiz-adv-x="238" 
 />
    <glyph glyph-name="exclamdown" unicode="&#xa1;" horiz-adv-x="233" 
d="M193 517l-95 -447l-17 -70h-56l17 70l125 447h26zM256 700l-20 -84h-64l20 84h64z" />
    <glyph glyph-name="cent" unicode="&#xa2;" horiz-adv-x="476" 
d="M379 705h46l-32 -91q77 -20 116 -90l-37 -26q-40 59 -97 73l-145 -440q20 -2 30 -2q74 0 139 55l27 -33q-74 -66 -169 -66q-21 0 -39 3l-32 -94h-45l37 106q-53 22 -83 72.5t-30 117.5q0 73 26.5 142.5t71.5 114.5q72 74 172 74q10 0 15 -1zM115 293q0 -114 80 -150
l142 433h-4q-76 0 -133 -57q-40 -39 -62.5 -101t-22.5 -125z" />
    <glyph glyph-name="sterling" unicode="&#xa3;" horiz-adv-x="532" 
d="M-6 0l6 24l79 19l65 269h-76l11 44h76l34 143q26 102 74 150q58 58 140 58q111 0 163 -94l-40 -26q-46 75 -125 75q-61 0 -101 -41q-43 -43 -63 -130l-33 -135h246l-11 -44h-246l-65 -267h316l-11 -45h-439z" />
    <glyph glyph-name="yen" unicode="&#xa5;" horiz-adv-x="590" 
d="M204 0l31 130h-175l10 42h176l23 98h-175l11 42h159l-137 388h54l127 -373l311 373h62l-330 -388h156l-10 -42h-179l-24 -98h179l-11 -42h-178l-31 -130h-49z" />
    <glyph glyph-name="section" unicode="&#xa7;" horiz-adv-x="549" 
d="M519 338q0 -57 -51.5 -92.5t-133.5 -35.5q71 -41 71 -98q0 -54 -45 -87.5t-116 -33.5q-110 0 -189 72l30 37q73 -66 164 -66q47 0 77 21t30 54q0 30 -27 53.5t-92 52.5q-86 38 -124.5 71.5t-38.5 75.5q0 57 51.5 92.5t132.5 35.5q-70 39 -70 98q0 54 45 87.5t116 33.5
q110 0 189 -72l-30 -37q-73 66 -164 66q-47 0 -77 -21t-30 -54q0 -30 27 -53.5t92 -52.5q86 -38 124.5 -71.5t38.5 -75.5zM124 366q0 -54 93 -95q61 -27 119 -27t95.5 25.5t37.5 64.5q0 54 -93 95q-61 27 -119 27t-95.5 -25.5t-37.5 -64.5z" />
    <glyph glyph-name="dieresis" unicode="&#xa8;" horiz-adv-x="500" 
d="M222 592l19 75h62l-19 -75h-62zM364 592l19 75h61l-18 -75h-62z" />
    <glyph glyph-name="copyright" unicode="&#xa9;" horiz-adv-x="736" 
d="M365 162q-56 0 -92.5 38.5t-36.5 104.5q0 53 19.5 104.5t54.5 85.5q51 51 116 51q74 0 112 -61l-34 -24q-31 46 -78 46q-50 0 -87 -37q-61 -61 -61 -162q0 -51 24.5 -79.5t64.5 -28.5q43 0 88 40l23 -29q-51 -49 -113 -49zM717 407q0 -87 -32 -172t-91 -145
q-102 -102 -242 -102q-131 0 -209 86.5t-78 218.5q0 88 32 173t91 144q102 102 242 102q131 0 209 -86.5t78 -218.5zM95 292q0 -117 69 -196.5t190 -79.5q126 0 217 91q56 56 85.5 137t29.5 164q1 117 -68 196.5t-191 79.5q-127 0 -216 -91q-56 -55 -85.5 -136t-30.5 -165z
" />
    <glyph glyph-name="ordfeminine" unicode="&#xaa;" horiz-adv-x="347" 
d="M175 408q-32 0 -54 20t-22 54q0 46 32.5 77.5t84.5 31.5q32 0 83 -15l3 10q4 18 4 30q0 51 -68 51q-32 0 -70 -14l-9 34q45 17 84 17q48 0 74 -22t27 -60q0 -16 -6 -42l-40 -166h-38l11 44q-44 -50 -96 -50zM185 439q33 0 63.5 26t39.5 61l5 22q-42 12 -76 12
q-35 0 -56.5 -21.5t-21.5 -52.5q-1 -22 12 -34.5t34 -12.5zM57 302l8 36h220l-8 -36h-220z" />
    <glyph glyph-name="guillemotleft" unicode="&#xab;" horiz-adv-x="461" 
d="M138 42l-98 209l2 8l199 209l33 -26l-177 -193l79 -188zM316 42l-97 209l2 8l199 209l33 -26l-177 -193l79 -188z" />
    <glyph glyph-name="registered" unicode="&#xae;" horiz-adv-x="384" 
d="M281 712q64 0 102 -41.5t38 -104.5q0 -96 -61 -157q-50 -50 -120 -50q-64 0 -102.5 41.5t-38.5 104.5q0 95 61 156q51 51 121 51zM242 377q59 0 103 44q57 57 57 143q0 55 -32.5 92t-90.5 37q-59 0 -104 -43q-56 -58 -56 -144q0 -55 32.5 -92t90.5 -37zM223 515l-16 -66
h-26l44 180h47q66 0 66 -52q0 -21 -13.5 -37.5t-38.5 -21.5l27 -69h-27l-25 66h-38zM229 538h30q31 0 43 12q10 10 10 26q0 29 -39 29h-28z" />
    <glyph glyph-name="macron" unicode="&#xaf;" horiz-adv-x="500" 
d="M205 610l12 44h262l-11 -44h-263z" />
    <glyph glyph-name="degree" unicode="&#xb0;" horiz-adv-x="330" 
d="M238 706q49 0 80.5 -33.5t31.5 -87.5q0 -82 -53 -133q-44 -44 -100 -44q-50 0 -81.5 33.5t-31.5 87.5q0 80 53 133q44 44 101 44zM201 448q37 0 66 29q41 41 41 105q0 39 -20.5 61.5t-54.5 22.5q-37 0 -65 -28q-42 -42 -42 -106q0 -39 20.5 -61.5t54.5 -22.5z" />
    <glyph glyph-name="plusminus" unicode="&#xb1;" horiz-adv-x="534" 
d="M222 171l45 179h-181l11 46h180l45 179h46l-44 -179h181l-11 -46h-180l-45 -179h-47zM7 30l12 46h407l-11 -46h-408z" />
    <glyph glyph-name="two.sup" unicode="&#xb2;" horiz-adv-x="353" 
d="M98 438l7 30l191 159q34 29 49.5 51t15.5 48q0 27 -19.5 43t-51.5 16q-44 0 -94 -48l-23 25q56 58 121 58q47 0 76 -25.5t29 -66.5q0 -57 -78 -122l-159 -132h191l-9 -36h-246z" />
    <glyph glyph-name="three.sup" unicode="&#xb3;" horiz-adv-x="353" 
d="M235 430q-43 0 -75.5 19t-48.5 48l29 20q35 -54 95 -54q42 0 68 24t26 60q0 70 -95 70h-12l-7 23l151 136h-177l9 36h227l-7 -30l-153 -136q45 -5 73.5 -29.5t28.5 -66.5q0 -51 -38.5 -85.5t-93.5 -34.5z" />
    <glyph glyph-name="acute" unicode="&#xb4;" horiz-adv-x="500" 
d="M251 589l113 130l56 -29l-124 -101h-45z" />
    <glyph glyph-name="paragraph" unicode="&#xb6;" horiz-adv-x="437" 
d="M234 0l63 262q-110 7 -163 60q-47 47 -47 124q0 105 68 173q79 81 235 81h65l-171 -700h-50z" />
    <glyph glyph-name="periodcentered" unicode="&#xb7;" horiz-adv-x="207" 
d="M70 255l20 85h66l-21 -85h-65z" />
    <glyph glyph-name="cedilla" unicode="&#xb8;" horiz-adv-x="500" 
d="M133 -135l-47 24l109 121h40z" />
    <glyph glyph-name="one.sup" unicode="&#xb9;" horiz-adv-x="287" 
d="M188 438l82 335l-90 -35l1 38l105 40h33l-93 -378h-38z" />
    <glyph glyph-name="ordmasculine" unicode="&#xba;" horiz-adv-x="347" 
d="M60 302l8 36h235l-9 -36h-234zM147 526q0 -38 20.5 -61.5t53.5 -23.5q36 0 65 29q20 19 31.5 50.5t11.5 63.5q0 38 -20.5 61.5t-53.5 23.5q-36 0 -65 -29q-19 -19 -31 -51t-12 -63zM369 584q0 -84 -54 -136q-40 -42 -97 -42q-50 0 -80.5 33t-30.5 87q0 84 54 136
q43 43 97 43q50 0 80.5 -33.5t30.5 -87.5z" />
    <glyph glyph-name="guillemotright" unicode="&#xbb;" horiz-adv-x="461" 
d="M321 467l98 -209l-2 -8l-199 -209l-33 26l177 193l-79 188zM143 467l97 -209l-2 -8l-199 -209l-33 26l177 193l-79 188z" />
    <glyph glyph-name="onequarter" unicode="&#xbc;" horiz-adv-x="728" 
d="M138 326l81 336l-90 -35l2 37l104 41h33l-92 -379h-38zM36 0l302 356l286 344h44l-303 -356l-285 -344h-44zM514 -2l20 86h-173v32l233 262h48l-64 -262h49l-8 -32h-49l-21 -86h-35zM405 116h138l51 211h-2z" />
    <glyph glyph-name="onehalf" unicode="&#xbd;" horiz-adv-x="728" 
d="M347 0l7 30l191 159q34 29 49.5 51t15.5 48q0 27 -19.5 43t-51.5 16q-44 0 -94 -48l-23 25q56 58 121 58q47 0 76 -25.5t29 -66.5q0 -57 -78 -122l-159 -132h191l-9 -36h-246zM21 0l302 356l286 344h44l-303 -356l-285 -344h-44zM138 326l81 336l-90 -35l2 37l104 41h33
l-92 -379h-38z" />
    <glyph glyph-name="threequarters" unicode="&#xbe;" horiz-adv-x="794" 
d="M581 -2l20 86h-173v32l233 262h48l-64 -262h49l-8 -32h-49l-21 -86h-35zM472 116h138l51 211h-2zM100 0l302 356l286 344h44l-303 -356l-285 -344h-44zM184 318q-43 0 -75.5 19t-48.5 48l29 20q35 -54 95 -54q42 0 68 24t26 60q0 70 -95 70h-12l-7 23l151 136h-177l9 36
h227l-7 -30l-153 -136q45 -5 73.5 -29.5t28.5 -66.5q0 -51 -38.5 -85.5t-93.5 -34.5z" />
    <glyph glyph-name="questiondown" unicode="&#xbf;" horiz-adv-x="463" 
d="M345 517l-29 -168l-7 -6q-102 -11 -162.5 -60.5t-60.5 -123.5q0 -58 38 -89.5t95 -31.5q86 0 164 70l28 -35q-89 -81 -195 -81q-81 0 -130.5 46.5t-49.5 119.5q0 90 66.5 148t169.5 76l42 135h31zM405 700l-20 -84h-64l20 84h64z" />
    <glyph glyph-name="Agrave" unicode="&#xc0;" horiz-adv-x="652" 
d="M-30 0l445 705h50l100 -705h-50l-26 196h-342l-123 -196h-54zM175 241h307l-54 403zM429 765l-83 88l54 26l65 -114h-36z" />
    <glyph glyph-name="Aacute" unicode="&#xc1;" horiz-adv-x="652" 
d="M-30 0l445 705h50l100 -705h-50l-26 196h-342l-123 -196h-54zM175 241h307l-54 403zM427 765l111 114l56 -26l-119 -88h-48z" />
    <glyph glyph-name="Acircumflex" unicode="&#xc2;" horiz-adv-x="652" 
d="M-30 0l445 705h50l100 -705h-50l-26 196h-342l-123 -196h-54zM175 241h307l-54 403zM335 767l119 104h44l68 -104h-47l-51 60l-82 -60h-51z" />
    <glyph glyph-name="Atilde" unicode="&#xc3;" horiz-adv-x="652" 
d="M-30 0l445 705h50l100 -705h-50l-26 196h-342l-123 -196h-54zM175 241h307l-54 403zM361 761l-35 10q20 42 40.5 61t46.5 19q20 0 58 -19q33 -19 50 -19q26 0 51 42l35 -10q-38 -79 -87 -79q-20 0 -58 19q-35 19 -50 19t-26 -9.5t-25 -33.5z" />
    <glyph glyph-name="Adieresis" unicode="&#xc4;" horiz-adv-x="652" 
d="M-30 0l445 705h50l100 -705h-50l-26 196h-342l-123 -196h-54zM175 241h307l-54 403zM347 768l18 73h67l-18 -73h-67zM501 768l18 73h66l-18 -73h-66z" />
    <glyph glyph-name="Aring" unicode="&#xc5;" horiz-adv-x="652" 
d="M-30 0l423 669q-43 21 -43 69q0 41 33 69.5t77 28.5q39 0 63.5 -22.5t24.5 -56.5q0 -33 -22 -58.5t-56 -35.5l95 -663h-50l-26 196h-342l-123 -196h-54zM175 241h307l-54 403zM441 690q29 0 49.5 18.5t20.5 45.5q0 22 -14.5 37t-39.5 15q-29 0 -49.5 -19t-20.5 -47
q0 -23 14.5 -36.5t39.5 -13.5z" />
    <glyph glyph-name="AE" unicode="&#xc6;" horiz-adv-x="897" 
d="M-37 0l525 700h461l-12 -46h-358l-68 -278h322l-11 -46h-322l-69 -284h363l-12 -46h-412l48 196h-251l-146 -196h-58zM200 241h228l102 414h-22z" />
    <glyph glyph-name="Ccedilla" unicode="&#xc7;" horiz-adv-x="612" 
d="M221 -135l-47 24l94 105q-86 16 -138.5 86t-52.5 178q0 96 36.5 192t100.5 161q99 99 226 99q135 0 205 -117l-41 -28q-62 100 -168 100q-102 0 -184 -82q-56 -56 -90 -144.5t-34 -179.5q0 -103 53 -163.5t141 -60.5q95 0 181 80l32 -32q-97 -94 -216 -94h-11z" />
    <glyph glyph-name="Egrave" unicode="&#xc8;" horiz-adv-x="550" 
d="M387 757l-83 88l54 26l65 -114h-36zM27 0l171 700h415l-11 -46h-365l-69 -278h329l-11 -46h-329l-69 -284h370l-12 -46h-419z" />
    <glyph glyph-name="Eacute" unicode="&#xc9;" horiz-adv-x="550" 
d="M384 757l111 114l56 -26l-119 -88h-48zM27 0l171 700h415l-11 -46h-365l-69 -278h329l-11 -46h-329l-69 -284h370l-12 -46h-419z" />
    <glyph glyph-name="Ecircumflex" unicode="&#xca;" horiz-adv-x="550" 
d="M27 0l171 700h415l-11 -46h-365l-69 -278h329l-11 -46h-329l-69 -284h370l-12 -46h-419zM293 759l119 104h44l68 -104h-47l-51 60l-82 -60h-51z" />
    <glyph glyph-name="Edieresis" unicode="&#xcb;" horiz-adv-x="550" 
d="M303 760l18 73h67l-18 -73h-67zM457 760l18 73h66l-18 -73h-66zM27 0l171 700h415l-11 -46h-365l-69 -278h329l-11 -46h-329l-69 -284h370l-12 -46h-419z" />
    <glyph glyph-name="Igrave" unicode="&#xcc;" horiz-adv-x="242" 
d="M34 0l171 700h50l-171 -700h-50zM218 757l-83 88l54 26l65 -114h-36z" />
    <glyph glyph-name="Iacute" unicode="&#xcd;" horiz-adv-x="242" 
d="M34 0l171 700h50l-171 -700h-50zM216 757l111 114l56 -26l-119 -88h-48z" />
    <glyph glyph-name="Icircumflex" unicode="&#xce;" horiz-adv-x="242" 
d="M34 0l171 700h50l-171 -700h-50zM124 759l119 104h44l68 -104h-47l-51 60l-82 -60h-51z" />
    <glyph glyph-name="Idieresis" unicode="&#xcf;" horiz-adv-x="242" 
d="M34 0l171 700h50l-171 -700h-50zM135 760l18 73h67l-18 -73h-67zM289 760l18 73h66l-18 -73h-66z" />
    <glyph glyph-name="Eth" unicode="&#xd0;" horiz-adv-x="680" 
d="M61 329l11 46h69l80 325h128q145 0 227 -80q72 -72 72 -202q0 -82 -30 -163.5t-87 -138.5q-116 -116 -301 -116h-180l80 329h-69zM536 588q-64 66 -190 66h-87l-68 -279h188l-12 -46h-187l-70 -283h128q155 0 256 101q50 50 77 123t27 145q0 111 -62 173z" />
    <glyph glyph-name="Ntilde" unicode="&#xd1;" horiz-adv-x="674" 
d="M363 748l-35 10q20 42 40.5 61t46.5 19q20 0 58 -19q33 -19 50 -19q26 0 51 42l35 -10q-38 -79 -87 -79q-20 0 -58 19q-35 19 -50 19t-26 -9.5t-25 -33.5zM27 0l171 700h47l252 -609l149 609h48l-171 -700h-38l-258 623l-152 -623h-48z" />
    <glyph glyph-name="Ograve" unicode="&#xd2;" horiz-adv-x="711" 
d="M442 765l-83 88l54 26l65 -114h-36zM432 711q111 0 178.5 -76.5t67.5 -198.5q0 -95 -36.5 -192.5t-99.5 -160.5q-95 -95 -217 -95q-111 0 -178.5 76.5t-67.5 198.5q0 96 36.5 193.5t99.5 159.5q95 95 217 95zM326 34q100 0 179 79q56 56 89.5 146t33.5 176
q0 103 -54 166.5t-143 63.5q-101 0 -179 -80q-56 -56 -89.5 -145.5t-33.5 -175.5q0 -102 54 -166t143 -64z" />
    <glyph glyph-name="Oacute" unicode="&#xd3;" horiz-adv-x="711" 
d="M440 765l111 114l56 -26l-119 -88h-48zM432 711q111 0 178.5 -76.5t67.5 -198.5q0 -95 -36.5 -192.5t-99.5 -160.5q-95 -95 -217 -95q-111 0 -178.5 76.5t-67.5 198.5q0 96 36.5 193.5t99.5 159.5q95 95 217 95zM326 34q100 0 179 79q56 56 89.5 146t33.5 176
q0 103 -54 166.5t-143 63.5q-101 0 -179 -80q-56 -56 -89.5 -145.5t-33.5 -175.5q0 -102 54 -166t143 -64z" />
    <glyph glyph-name="Ocircumflex" unicode="&#xd4;" horiz-adv-x="711" 
d="M432 711q111 0 178.5 -76.5t67.5 -198.5q0 -95 -36.5 -192.5t-99.5 -160.5q-95 -95 -217 -95q-111 0 -178.5 76.5t-67.5 198.5q0 96 36.5 193.5t99.5 159.5q95 95 217 95zM326 34q100 0 179 79q56 56 89.5 146t33.5 176q0 103 -54 166.5t-143 63.5q-101 0 -179 -80
q-56 -56 -89.5 -145.5t-33.5 -175.5q0 -102 54 -166t143 -64zM348 767l119 104h44l68 -104h-47l-51 60l-82 -60h-51z" />
    <glyph glyph-name="Otilde" unicode="&#xd5;" horiz-adv-x="711" 
d="M374 761l-35 10q20 42 40.5 61t46.5 19q20 0 58 -19q33 -19 50 -19q26 0 51 42l35 -10q-38 -79 -87 -79q-20 0 -58 19q-35 19 -50 19t-26 -9.5t-25 -33.5zM432 711q111 0 178.5 -76.5t67.5 -198.5q0 -95 -36.5 -192.5t-99.5 -160.5q-95 -95 -217 -95q-111 0 -178.5 76.5
t-67.5 198.5q0 96 36.5 193.5t99.5 159.5q95 95 217 95zM326 34q100 0 179 79q56 56 89.5 146t33.5 176q0 103 -54 166.5t-143 63.5q-101 0 -179 -80q-56 -56 -89.5 -145.5t-33.5 -175.5q0 -102 54 -166t143 -64z" />
    <glyph glyph-name="Odieresis" unicode="&#xd6;" horiz-adv-x="711" 
d="M359 768l18 73h67l-18 -73h-67zM513 768l18 73h66l-18 -73h-66zM432 711q111 0 178.5 -76.5t67.5 -198.5q0 -95 -36.5 -192.5t-99.5 -160.5q-95 -95 -217 -95q-111 0 -178.5 76.5t-67.5 198.5q0 96 36.5 193.5t99.5 159.5q95 95 217 95zM326 34q100 0 179 79
q56 56 89.5 146t33.5 176q0 103 -54 166.5t-143 63.5q-101 0 -179 -80q-56 -56 -89.5 -145.5t-33.5 -175.5q0 -102 54 -166t143 -64z" />
    <glyph glyph-name="multiply" unicode="&#xd7;" horiz-adv-x="534" 
d="M91 162l-27 34l196 160l-115 156l38 29l113 -157l195 159l26 -35l-196 -159l116 -156l-38 -29l-114 157z" />
    <glyph glyph-name="Oslash" unicode="&#xd8;" horiz-adv-x="711" 
d="M432 711q118 0 188 -89l88 84h61l-124 -122q33 -66 33 -148q0 -95 -36.5 -192.5t-99.5 -160.5q-95 -95 -217 -95q-119 0 -188 88l-88 -82h-61l124 120q-33 66 -33 149q0 96 36.5 193.5t99.5 159.5q95 95 217 95zM129 264q0 -65 21 -113l436 436q-55 79 -155 79
q-101 0 -179 -80q-56 -56 -89.5 -146t-33.5 -176zM326 34q100 0 179 79q56 56 89.5 146t33.5 176q0 64 -21 112l-435 -436q53 -77 154 -77z" />
    <glyph glyph-name="Ugrave" unicode="&#xd9;" horiz-adv-x="649" 
d="M409 752l-83 88l54 26l65 -114h-36zM292 -11q-103 0 -159.5 53.5t-56.5 141.5q0 46 14 104l99 412h50l-105 -433q-9 -43 -9 -80q0 -69 44 -110.5t127 -41.5q81 0 139 58q61 61 87 168l106 439h49l-108 -449q-31 -121 -97 -187q-75 -75 -180 -75z" />
    <glyph glyph-name="Uacute" unicode="&#xda;" horiz-adv-x="649" 
d="M408 752l111 114l56 -26l-119 -88h-48zM292 -11q-103 0 -159.5 53.5t-56.5 141.5q0 46 14 104l99 412h50l-105 -433q-9 -43 -9 -80q0 -69 44 -110.5t127 -41.5q81 0 139 58q61 61 87 168l106 439h49l-108 -449q-31 -121 -97 -187q-75 -75 -180 -75z" />
    <glyph glyph-name="Ucircumflex" unicode="&#xdb;" horiz-adv-x="649" 
d="M292 -11q-103 0 -159.5 53.5t-56.5 141.5q0 46 14 104l99 412h50l-105 -433q-9 -43 -9 -80q0 -69 44 -110.5t127 -41.5q81 0 139 58q61 61 87 168l106 439h49l-108 -449q-31 -121 -97 -187q-75 -75 -180 -75zM316 754l119 104h44l68 -104h-47l-51 60l-82 -60h-51z" />
    <glyph glyph-name="Udieresis" unicode="&#xdc;" horiz-adv-x="649" 
d="M327 755l18 73h67l-18 -73h-67zM481 755l18 73h66l-18 -73h-66zM292 -11q-103 0 -159.5 53.5t-56.5 141.5q0 46 14 104l99 412h50l-105 -433q-9 -43 -9 -80q0 -69 44 -110.5t127 -41.5q81 0 139 58q61 61 87 168l106 439h49l-108 -449q-31 -121 -97 -187
q-75 -75 -180 -75z" />
    <glyph glyph-name="Yacute" unicode="&#xdd;" horiz-adv-x="571" 
d="M194 0l71 290l-149 410h53l130 -367l309 367h64l-360 -420l-68 -280h-50zM365 752l111 114l56 -26l-119 -88h-48z" />
    <glyph glyph-name="Thorn" unicode="&#xde;" horiz-adv-x="575" 
d="M27 0l171 700h49l-31 -126h120q120 0 177 -57q48 -46 48 -127q0 -104 -67 -171q-84 -84 -251 -84h-133l-33 -135h-50zM121 180h123q144 0 214 68q53 53 53 142q0 58 -35 95q-44 44 -142 44h-128z" />
    <glyph glyph-name="germandbls" unicode="&#xdf;" horiz-adv-x="534" 
d="M180 -2l11 41q116 0 173.5 46.5t57.5 117.5q0 106 -157 140l10 41q100 23 150 72.5t50 117.5q0 49 -31.5 79.5t-86.5 30.5q-62 0 -105.5 -47.5t-65.5 -135.5l-122 -501h-47l126 515q23 100 77 154q59 59 140 59q72 0 118.5 -43t46.5 -109q0 -79 -52.5 -132.5
t-139.5 -79.5q139 -46 139 -162q0 -91 -78 -149t-214 -55z" />
    <glyph glyph-name="agrave" unicode="&#xe0;" horiz-adv-x="496" 
d="M162 -11q-62 0 -104 37.5t-42 103.5q0 80 53 133q57 57 156 57q76 0 162 -28l4 17q8 40 8 63q0 50 -33 78t-97 28t-125 -26l-13 42q69 28 141 28q82 0 127.5 -38t45.5 -105q0 -30 -11 -77l-72 -302h-47l21 82q-74 -93 -174 -93zM172 31q64 0 119 46t72 116l15 60
q-75 26 -157 26q-71 0 -116 -43q-40 -40 -40 -102q0 -47 29 -75t78 -28zM287 590l-79 101l55 29l57 -130h-33z" />
    <glyph glyph-name="aacute" unicode="&#xe1;" horiz-adv-x="496" 
d="M162 -11q-62 0 -104 37.5t-42 103.5q0 80 53 133q57 57 156 57q76 0 162 -28l4 17q8 40 8 63q0 50 -33 78t-97 28t-125 -26l-13 42q69 28 141 28q82 0 127.5 -38t45.5 -105q0 -30 -11 -77l-72 -302h-47l21 82q-74 -93 -174 -93zM172 31q64 0 119 46t72 116l15 60
q-75 26 -157 26q-71 0 -116 -43q-40 -40 -40 -102q0 -47 29 -75t78 -28zM284 590l113 130l56 -29l-124 -101h-45z" />
    <glyph glyph-name="acircumflex" unicode="&#xe2;" horiz-adv-x="496" 
d="M162 -11q-62 0 -104 37.5t-42 103.5q0 80 53 133q57 57 156 57q76 0 162 -28l4 17q8 40 8 63q0 50 -33 78t-97 28t-125 -26l-13 42q69 28 141 28q82 0 127.5 -38t45.5 -105q0 -30 -11 -77l-72 -302h-47l21 82q-74 -93 -174 -93zM172 31q64 0 119 46t72 116l15 60
q-75 26 -157 26q-71 0 -116 -43q-40 -40 -40 -102q0 -47 29 -75t78 -28zM201 591l119 122h38l59 -122h-41l-45 71l-85 -71h-45z" />
    <glyph glyph-name="atilde" unicode="&#xe3;" horiz-adv-x="496" 
d="M162 -11q-62 0 -104 37.5t-42 103.5q0 80 53 133q57 57 156 57q76 0 162 -28l4 17q8 40 8 63q0 50 -33 78t-97 28t-125 -26l-13 42q69 28 141 28q82 0 127.5 -38t45.5 -105q0 -30 -11 -77l-72 -302h-47l21 82q-74 -93 -174 -93zM172 31q64 0 119 46t72 116l15 60
q-75 26 -157 26q-71 0 -116 -43q-40 -40 -40 -102q0 -47 29 -75t78 -28zM430 686l33 -9q-21 -48 -41 -67.5t-47 -19.5q-22 0 -57 23q-32 21 -48 21q-27 0 -51 -49l-33 9q20 48 40 67.5t48 19.5q18 0 57 -22q29 -21 48 -21q26 0 51 48z" />
    <glyph glyph-name="adieresis" unicode="&#xe4;" horiz-adv-x="496" 
d="M162 -11q-62 0 -104 37.5t-42 103.5q0 80 53 133q57 57 156 57q76 0 162 -28l4 17q8 40 8 63q0 50 -33 78t-97 28t-125 -26l-13 42q69 28 141 28q82 0 127.5 -38t45.5 -105q0 -30 -11 -77l-72 -302h-47l21 82q-74 -93 -174 -93zM172 31q64 0 119 46t72 116l15 60
q-75 26 -157 26q-71 0 -116 -43q-40 -40 -40 -102q0 -47 29 -75t78 -28zM212 593l19 75h62l-19 -75h-62zM354 593l19 75h61l-18 -75h-62z" />
    <glyph glyph-name="aring" unicode="&#xe5;" horiz-adv-x="496" 
d="M162 -11q-62 0 -104 37.5t-42 103.5q0 80 53 133q57 57 156 57q76 0 162 -28l4 17q8 40 8 63q0 50 -33 78t-97 28t-125 -26l-13 42q69 28 141 28q82 0 127.5 -38t45.5 -105q0 -30 -11 -77l-72 -302h-47l21 82q-74 -93 -174 -93zM172 31q64 0 119 46t72 116l15 60
q-75 26 -157 26q-71 0 -116 -43q-40 -40 -40 -102q0 -47 29 -75t78 -28zM434 689q0 -41 -32 -70.5t-75 -29.5q-39 0 -64.5 24.5t-25.5 60.5q0 41 32 71t75 30q39 0 64.5 -24.5t25.5 -61.5zM270 675q0 -24 16 -40.5t43 -16.5q30 0 51 20.5t21 49.5q0 24 -15.5 40.5
t-42.5 16.5q-30 0 -51.5 -20.5t-21.5 -49.5z" />
    <glyph glyph-name="ae" unicode="&#xe6;" horiz-adv-x="832" 
d="M566 -10q-67 0 -112.5 32.5t-65.5 91.5q-99 -125 -221 -125q-65 0 -108 37t-43 104q0 80 53 133q57 57 156 57q76 0 162 -28l4 17q8 40 8 63q0 50 -33 78t-97 28t-125 -26l-13 42q69 28 141 28q71 0 114.5 -29.5t53.5 -82.5q80 116 192 116q77 0 120 -51t43 -132
q0 -49 -15 -103h-360q-2 -14 -2 -42q0 -76 40 -120t106 -44q74 0 143 54l25 -35q-81 -63 -166 -63zM174 31q103 0 203 129q-6 47 2 92q-72 27 -158 27q-71 0 -116 -43q-40 -40 -40 -102q0 -47 29.5 -75t79.5 -28zM506 428q-54 -54 -77 -146h313q7 30 7 60q0 62 -30 101.5
t-89 39.5q-67 0 -124 -55z" />
    <glyph glyph-name="ccedilla" unicode="&#xe7;" horiz-adv-x="469" 
d="M136 -135l-47 24l95 106q-63 14 -103.5 66t-40.5 134q0 72 27 140.5t74 115.5q76 74 168 74q108 0 162 -93l-39 -27q-47 77 -126 77q-70 0 -129 -59q-39 -39 -63 -101t-24 -122q0 -80 41 -123t100 -43q68 0 128 55l29 -33q-72 -66 -160 -66h-4z" />
    <glyph glyph-name="egrave" unicode="&#xe8;" horiz-adv-x="504" 
d="M451 240h-359q-2 -14 -2 -42q0 -76 40 -120t106 -44q74 0 143 54l24 -35q-81 -63 -168 -63q-86 0 -140 55.5t-54 150.5q0 72 27.5 141.5t74.5 116.5q72 72 161 72q77 0 120 -51t43 -132q0 -51 -16 -103zM178 428q-54 -54 -77 -146h312q7 24 7 60q0 62 -30 101.5t-88 39.5
q-67 0 -124 -55zM310 590l-79 101l55 29l57 -130h-33z" />
    <glyph glyph-name="eacute" unicode="&#xe9;" horiz-adv-x="504" 
d="M451 240h-359q-2 -14 -2 -42q0 -76 40 -120t106 -44q74 0 143 54l24 -35q-81 -63 -168 -63q-86 0 -140 55.5t-54 150.5q0 72 27.5 141.5t74.5 116.5q72 72 161 72q77 0 120 -51t43 -132q0 -51 -16 -103zM178 428q-54 -54 -77 -146h312q7 24 7 60q0 62 -30 101.5t-88 39.5
q-67 0 -124 -55zM306 590l113 130l56 -29l-124 -101h-45z" />
    <glyph glyph-name="ecircumflex" unicode="&#xea;" horiz-adv-x="504" 
d="M451 240h-359q-2 -14 -2 -42q0 -76 40 -120t106 -44q74 0 143 54l24 -35q-81 -63 -168 -63q-86 0 -140 55.5t-54 150.5q0 72 27.5 141.5t74.5 116.5q72 72 161 72q77 0 120 -51t43 -132q0 -51 -16 -103zM178 428q-54 -54 -77 -146h312q7 24 7 60q0 62 -30 101.5t-88 39.5
q-67 0 -124 -55zM223 591l119 122h38l59 -122h-41l-45 71l-85 -71h-45z" />
    <glyph glyph-name="edieresis" unicode="&#xeb;" horiz-adv-x="504" 
d="M451 240h-359q-2 -14 -2 -42q0 -76 40 -120t106 -44q74 0 143 54l24 -35q-81 -63 -168 -63q-86 0 -140 55.5t-54 150.5q0 72 27.5 141.5t74.5 116.5q72 72 161 72q77 0 120 -51t43 -132q0 -51 -16 -103zM178 428q-54 -54 -77 -146h312q7 24 7 60q0 62 -30 101.5t-88 39.5
q-67 0 -124 -55zM233 593l19 75h62l-19 -75h-62zM375 593l19 75h61l-18 -75h-62z" />
    <glyph glyph-name="igrave" unicode="&#xec;" horiz-adv-x="220" 
d="M24 0l125 515h47l-125 -515h-47zM167 589l-79 101l55 29l57 -130h-33z" />
    <glyph glyph-name="iacute" unicode="&#xed;" horiz-adv-x="220" 
d="M165 589l113 130l56 -29l-124 -101h-45zM24 0l125 515h47l-125 -515h-47z" />
    <glyph glyph-name="icircumflex" unicode="&#xee;" horiz-adv-x="220" 
d="M80 590l119 122h38l59 -122h-41l-45 71l-85 -71h-45zM24 0l125 515h47l-125 -515h-47z" />
    <glyph glyph-name="idieresis" unicode="&#xef;" horiz-adv-x="220" 
d="M91 592l19 75h62l-19 -75h-62zM233 592l19 75h61l-18 -75h-62zM24 0l125 515h47l-125 -515h-47z" />
    <glyph glyph-name="eth" unicode="&#xf0;" horiz-adv-x="535" 
d="M234 572l-18 37l116 52q-17 24 -45 61h57l29 -43l98 44l17 -36l-93 -42q103 -169 103 -312q0 -172 -99 -271q-71 -73 -169 -73q-85 0 -136.5 59.5t-51.5 153.5q0 72 25.5 138t67.5 108q70 70 159 70q98 0 156 -95q-24 92 -95 204zM234 33q75 0 133 58q36 36 58 95t22 120
q0 74 -42 121.5t-110 47.5q-72 0 -123 -53q-37 -36 -59 -96t-22 -123q0 -78 38.5 -124t104.5 -46z" />
    <glyph glyph-name="ntilde" unicode="&#xf1;" horiz-adv-x="531" 
d="M17 0l126 515h46l-21 -89q74 100 169 100q64 0 103 -39t39 -105q0 -30 -11 -79l-72 -303h-47l74 307q9 36 9 71q0 50 -29 78t-80 28q-59 0 -112 -50t-72 -124l-75 -310h-47zM461 686l33 -9q-21 -48 -41 -67.5t-47 -19.5q-22 0 -57 23q-32 21 -48 21q-27 0 -51 -49l-33 9
q20 48 40 67.5t48 19.5q19 0 57 -22q29 -21 48 -21q26 0 51 48z" />
    <glyph glyph-name="ograve" unicode="&#xf2;" horiz-adv-x="543" 
d="M311 526q85 0 137 -58.5t52 -153.5q0 -72 -26 -138t-72 -112q-75 -75 -171 -75q-85 0 -137 58.5t-52 153.5q0 72 26 138t72 112q75 75 171 75zM235 33q72 0 131 59q39 40 62 99.5t23 120.5q0 80 -39 125t-105 45q-72 0 -131 -59q-39 -40 -62 -99.5t-23 -120.5
q0 -80 39 -125t105 -45zM323 590l-79 101l55 29l57 -130h-33z" />
    <glyph glyph-name="oacute" unicode="&#xf3;" horiz-adv-x="543" 
d="M319 590l113 130l56 -29l-124 -101h-45zM311 526q85 0 137 -58.5t52 -153.5q0 -72 -26 -138t-72 -112q-75 -75 -171 -75q-85 0 -137 58.5t-52 153.5q0 72 26 138t72 112q75 75 171 75zM235 33q72 0 131 59q39 40 62 99.5t23 120.5q0 80 -39 125t-105 45q-72 0 -131 -59
q-39 -40 -62 -99.5t-23 -120.5q0 -80 39 -125t105 -45z" />
    <glyph glyph-name="ocircumflex" unicode="&#xf4;" horiz-adv-x="543" 
d="M235 591l119 122h38l59 -122h-41l-45 71l-85 -71h-45zM311 526q85 0 137 -58.5t52 -153.5q0 -72 -26 -138t-72 -112q-75 -75 -171 -75q-85 0 -137 58.5t-52 153.5q0 72 26 138t72 112q75 75 171 75zM235 33q72 0 131 59q39 40 62 99.5t23 120.5q0 80 -39 125t-105 45
q-72 0 -131 -59q-39 -40 -62 -99.5t-23 -120.5q0 -80 39 -125t105 -45z" />
    <glyph glyph-name="otilde" unicode="&#xf5;" horiz-adv-x="543" 
d="M311 526q85 0 137 -58.5t52 -153.5q0 -72 -26 -138t-72 -112q-75 -75 -171 -75q-85 0 -137 58.5t-52 153.5q0 72 26 138t72 112q75 75 171 75zM235 33q72 0 131 59q39 40 62 99.5t23 120.5q0 80 -39 125t-105 45q-72 0 -131 -59q-39 -40 -62 -99.5t-23 -120.5
q0 -80 39 -125t105 -45zM464 686l33 -9q-21 -48 -41 -67.5t-47 -19.5q-22 0 -57 23q-32 21 -48 21q-27 0 -51 -49l-33 9q20 48 40 67.5t48 19.5q18 0 57 -22q29 -21 48 -21q26 0 51 48z" />
    <glyph glyph-name="odieresis" unicode="&#xf6;" horiz-adv-x="543" 
d="M245 593l19 75h62l-19 -75h-62zM387 593l19 75h61l-18 -75h-62zM311 526q85 0 137 -58.5t52 -153.5q0 -72 -26 -138t-72 -112q-75 -75 -171 -75q-85 0 -137 58.5t-52 153.5q0 72 26 138t72 112q75 75 171 75zM235 33q72 0 131 59q39 40 62 99.5t23 120.5q0 80 -39 125
t-105 45q-72 0 -131 -59q-39 -40 -62 -99.5t-23 -120.5q0 -80 39 -125t105 -45z" />
    <glyph glyph-name="divide" unicode="&#xf7;" horiz-adv-x="534" 
d="M202 138l21 83h72l-21 -83h-72zM74 328l11 48h423l-12 -48h-422zM287 483l21 83h72l-21 -83h-72z" />
    <glyph glyph-name="oslash" unicode="&#xf8;" horiz-adv-x="543" 
d="M311 526q88 0 140 -63l62 57h59l-98 -92q26 -49 26 -114q0 -72 -26 -138t-72 -112q-75 -75 -171 -75q-87 0 -141 63l-61 -58h-59l97 92q-25 50 -25 115q0 72 26 138t72 112q75 75 171 75zM451 312q0 44 -13 81l-315 -307q38 -53 112 -53q72 0 131 59q40 40 62.5 99
t22.5 121zM307 483q-71 0 -131 -60q-40 -40 -62.5 -99t-22.5 -121q0 -48 13 -81l314 308q-39 53 -111 53z" />
    <glyph glyph-name="ugrave" unicode="&#xf9;" 
d="M194 -11q-65 0 -104 39t-39 106q0 30 11 79l73 302h46l-74 -306q-9 -42 -9 -71q0 -50 29 -78.5t80 -28.5q60 0 113 50t71 124l75 310h47l-125 -515h-47l22 89q-77 -100 -169 -100zM312 588l-79 101l55 29l57 -130h-33z" />
    <glyph glyph-name="uacute" unicode="&#xfa;" 
d="M308 588l113 130l56 -29l-124 -101h-45zM194 -11q-65 0 -104 39t-39 106q0 30 11 79l73 302h46l-74 -306q-9 -42 -9 -71q0 -50 29 -78.5t80 -28.5q60 0 113 50t71 124l75 310h47l-125 -515h-47l22 89q-77 -100 -169 -100z" />
    <glyph glyph-name="ucircumflex" unicode="&#xfb;" 
d="M225 589l119 122h38l59 -122h-41l-45 71l-85 -71h-45zM194 -11q-65 0 -104 39t-39 106q0 30 11 79l73 302h46l-74 -306q-9 -42 -9 -71q0 -50 29 -78.5t80 -28.5q60 0 113 50t71 124l75 310h47l-125 -515h-47l22 89q-77 -100 -169 -100z" />
    <glyph glyph-name="udieresis" unicode="&#xfc;" 
d="M234 591l19 75h62l-19 -75h-62zM376 591l19 75h61l-18 -75h-62zM194 -11q-65 0 -104 39t-39 106q0 30 11 79l73 302h46l-74 -306q-9 -42 -9 -71q0 -50 29 -78.5t80 -28.5q60 0 113 50t71 124l75 310h47l-125 -515h-47l22 89q-77 -100 -169 -100z" />
    <glyph glyph-name="yacute" unicode="&#xfd;" horiz-adv-x="493" 
d="M159 2l-78 513h49l65 -456l268 456h54l-317 -528q-46 -76 -87 -108t-89 -32q-52 0 -92 32l25 39q32 -27 71 -27q32 0 62 24.5t69 86.5zM276 588l113 130l56 -29l-124 -101h-45z" />
    <glyph glyph-name="thorn" unicode="&#xfe;" horiz-adv-x="561" 
d="M241 722l-75 -303q80 107 181 107q76 0 123.5 -55.5t47.5 -147.5q0 -75 -27 -147t-75 -120q-69 -67 -154 -67q-66 0 -108.5 37.5t-59.5 96.5l-67 -273h-46l213 872h47zM261 32q69 0 121 52q40 41 63 104.5t23 129.5q0 75 -34.5 120t-94.5 45q-72 0 -134 -62
q-40 -40 -63.5 -101t-23.5 -122q0 -72 40 -119t103 -47z" />
    <glyph glyph-name="ydieresis" unicode="&#xff;" horiz-adv-x="493" 
d="M159 2l-78 513h49l65 -456l268 456h54l-317 -528q-46 -76 -87 -108t-89 -32q-52 0 -92 32l25 39q32 -27 71 -27q32 0 62 24.5t69 86.5zM204 591l19 75h62l-19 -75h-62zM346 591l19 75h61l-18 -75h-62z" />
    <glyph glyph-name="Amacron" unicode="&#x100;" horiz-adv-x="652" 
d="M-30 0l445 705h50l100 -705h-50l-26 196h-342l-123 -196h-54zM175 241h307l-54 403zM325 787l11 46h274l-11 -46h-274z" />
    <glyph glyph-name="amacron" unicode="&#x101;" horiz-adv-x="496" 
d="M162 -11q-62 0 -104 37.5t-42 103.5q0 80 53 133q57 57 156 57q76 0 162 -28l4 17q8 40 8 63q0 50 -33 78t-97 28t-125 -26l-13 42q69 28 141 28q82 0 127.5 -38t45.5 -105q0 -30 -11 -77l-72 -302h-47l21 82q-74 -93 -174 -93zM172 31q64 0 119 46t72 116l15 60
q-75 26 -157 26q-71 0 -116 -43q-40 -40 -40 -102q0 -47 29 -75t78 -28zM187 611l12 44h262l-11 -44h-263z" />
    <glyph glyph-name="Abreve" unicode="&#x102;" horiz-adv-x="652" 
d="M-30 0l445 705h50l100 -705h-50l-26 196h-342l-123 -196h-54zM175 241h307l-54 403zM459 765q-51 0 -79 25t-21 68h40q2 -24 18 -35.5t51 -11.5q62 0 90 47h43q-15 -44 -53 -68.5t-89 -24.5z" />
    <glyph glyph-name="abreve" unicode="&#x103;" horiz-adv-x="496" 
d="M162 -11q-62 0 -104 37.5t-42 103.5q0 80 53 133q57 57 156 57q76 0 162 -28l4 17q8 40 8 63q0 50 -33 78t-97 28t-125 -26l-13 42q69 28 141 28q82 0 127.5 -38t45.5 -105q0 -30 -11 -77l-72 -302h-47l21 82q-74 -93 -174 -93zM172 31q64 0 119 46t72 116l15 60
q-75 26 -157 26q-71 0 -116 -43q-40 -40 -40 -102q0 -47 29 -75t78 -28zM316 589q-52 0 -78.5 28t-17.5 78h37q-1 -30 15 -45.5t51 -15.5q63 0 96 61h41q-18 -50 -56.5 -78t-87.5 -28z" />
    <glyph glyph-name="Aogonek" unicode="&#x104;" horiz-adv-x="652" 
d="M543 -114l-8 -35q-96 4 -96 59q0 44 75 94l-25 192h-342l-123 -196h-54l445 705h50l100 -705h-11q-68 -53 -68 -81q0 -27 57 -33zM175 241h307l-54 403z" />
    <glyph glyph-name="aogonek" unicode="&#x105;" horiz-adv-x="496" 
d="M344 -114l-8 -35q-96 4 -96 59q0 44 76 95l20 77q-74 -93 -174 -93q-62 0 -104 37.5t-42 103.5q0 80 53 133q57 57 156 57q76 0 162 -28l4 17q8 40 8 63q0 50 -33 78t-97 28t-125 -26l-13 42q69 28 141 28q82 0 127.5 -38t45.5 -105q0 -30 -11 -77l-72 -302h-7
q-68 -53 -68 -81q0 -27 57 -33zM172 31q64 0 119 46t72 116l15 60q-75 26 -157 26q-71 0 -116 -43q-40 -40 -40 -102q0 -47 29 -75t78 -28z" />
    <glyph glyph-name="Cacute" unicode="&#x106;" horiz-adv-x="612" 
d="M319 -11q-105 0 -173.5 72.5t-68.5 196.5q0 96 36.5 192t100.5 161q99 99 226 99q135 0 205 -117l-41 -28q-62 100 -168 100q-102 0 -184 -82q-56 -56 -90 -144.5t-34 -179.5q0 -103 53 -163.5t141 -60.5q95 0 181 80l32 -32q-97 -94 -216 -94zM425 765l111 114l56 -26
l-119 -88h-48z" />
    <glyph glyph-name="cacute" unicode="&#x107;" horiz-adv-x="469" 
d="M299 590l113 130l56 -29l-124 -101h-45zM228 -10q-79 0 -133.5 54.5t-54.5 150.5q0 72 27 140.5t74 115.5q76 74 168 74q108 0 162 -93l-39 -27q-47 77 -126 77q-70 0 -129 -59q-39 -39 -63 -101t-24 -122q0 -80 41 -123t100 -43q68 0 128 55l29 -33q-72 -66 -160 -66z
" />
    <glyph glyph-name="Cdotaccent" unicode="&#x10a;" horiz-adv-x="612" 
d="M421 768l17 73h69l-18 -73h-68zM319 -11q-105 0 -173.5 72.5t-68.5 196.5q0 96 36.5 192t100.5 161q99 99 226 99q135 0 205 -117l-41 -28q-62 100 -168 100q-102 0 -184 -82q-56 -56 -90 -144.5t-34 -179.5q0 -103 53 -163.5t141 -60.5q95 0 181 80l32 -32
q-97 -94 -216 -94z" />
    <glyph glyph-name="cdotaccent" unicode="&#x10b;" horiz-adv-x="469" 
d="M228 -10q-79 0 -133.5 54.5t-54.5 150.5q0 72 27 140.5t74 115.5q76 74 168 74q108 0 162 -93l-39 -27q-47 77 -126 77q-70 0 -129 -59q-39 -39 -63 -101t-24 -122q0 -80 41 -123t100 -43q68 0 128 55l29 -33q-72 -66 -160 -66zM297 592l20 79h60l-20 -79h-60z" />
    <glyph glyph-name="Ccaron" unicode="&#x10c;" horiz-adv-x="612" 
d="M319 -11q-105 0 -173.5 72.5t-68.5 196.5q0 96 36.5 192t100.5 161q99 99 226 99q135 0 205 -117l-41 -28q-62 100 -168 100q-102 0 -184 -82q-56 -56 -90 -144.5t-34 -179.5q0 -103 53 -163.5t141 -60.5q95 0 181 80l32 -32q-97 -94 -216 -94zM599 871l-119 -104h-44
l-68 104h47l52 -60l81 60h51z" />
    <glyph glyph-name="ccaron" unicode="&#x10d;" horiz-adv-x="469" 
d="M297 591l-59 122h41l45 -70l85 70h44l-118 -122h-38zM228 -10q-79 0 -133.5 54.5t-54.5 150.5q0 72 27 140.5t74 115.5q76 74 168 74q108 0 162 -93l-39 -27q-47 77 -126 77q-70 0 -129 -59q-39 -39 -63 -101t-24 -122q0 -80 41 -123t100 -43q68 0 128 55l29 -33
q-72 -66 -160 -66z" />
    <glyph glyph-name="Dcaron" unicode="&#x10e;" horiz-adv-x="657" 
d="M27 0l171 700h129q146 0 226 -80q73 -71 73 -202q0 -82 -30 -163.5t-88 -138.5q-116 -116 -300 -116h-181zM514 588q-66 66 -190 66h-88l-149 -608h129q153 0 256 101q50 50 76.5 122.5t26.5 145.5q0 112 -61 173zM560 863l-119 -104h-44l-68 104h47l52 -60l81 60h51z
" />
    <glyph glyph-name="dcaron" unicode="&#x10f;" horiz-adv-x="561" 
d="M615 573l50 149h54v-3l-77 -146h-27zM373 0l24 95q-82 -106 -182 -106q-76 0 -123 55.5t-47 147.5q0 75 27 147t74 119q68 68 154 68q66 0 108.5 -38t59.5 -96l81 330h47l-177 -722h-46zM223 32q72 0 134 62q40 39 64 100.5t24 122.5q0 72 -40 119t-103 47
q-69 0 -122 -53q-40 -41 -63 -104t-23 -129q0 -75 34.5 -120t94.5 -45z" />
    <glyph glyph-name="Dcroat" unicode="&#x110;" horiz-adv-x="680" 
d="M61 329l11 46h69l80 325h128q145 0 227 -80q72 -72 72 -202q0 -82 -30 -163.5t-87 -138.5q-116 -116 -301 -116h-180l80 329h-69zM536 588q-64 66 -190 66h-87l-68 -279h188l-12 -46h-187l-70 -283h128q155 0 256 101q50 50 77 123t27 145q0 111 -62 173z" />
    <glyph glyph-name="dcroat" unicode="&#x111;" horiz-adv-x="561" 
d="M363 612l11 42h158l17 68h47l-17 -68h62l-10 -42h-62l-150 -612h-46l24 95q-82 -106 -182 -106q-76 0 -123 55.5t-47 147.5q0 75 27 147t74 119q68 68 154 68q66 0 108.5 -38t59.5 -96l54 220h-159zM223 32q72 0 134 62q40 39 64 100.5t24 122.5q0 72 -40 119t-103 47
q-69 0 -122 -53q-40 -41 -63 -104t-23 -129q0 -75 34.5 -120t94.5 -45z" />
    <glyph glyph-name="Emacron" unicode="&#x112;" horiz-adv-x="550" 
d="M282 779l11 46h274l-11 -46h-274zM27 0l171 700h415l-11 -46h-365l-69 -278h329l-11 -46h-329l-69 -284h370l-12 -46h-419z" />
    <glyph glyph-name="emacron" unicode="&#x113;" horiz-adv-x="504" 
d="M451 240h-359q-2 -14 -2 -42q0 -76 40 -120t106 -44q74 0 143 54l24 -35q-81 -63 -168 -63q-86 0 -140 55.5t-54 150.5q0 72 27.5 141.5t74.5 116.5q72 72 161 72q77 0 120 -51t43 -132q0 -51 -16 -103zM178 428q-54 -54 -77 -146h312q7 24 7 60q0 62 -30 101.5t-88 39.5
q-67 0 -124 -55zM208 611l12 44h262l-11 -44h-263z" />
    <glyph glyph-name="Ebreve" unicode="&#x114;" horiz-adv-x="550" 
d="M415 757q-51 0 -79 25t-21 68h40q2 -24 18 -35.5t51 -11.5q62 0 90 47h43q-15 -44 -53 -68.5t-89 -24.5zM27 0l171 700h415l-11 -46h-365l-69 -278h329l-11 -46h-329l-69 -284h370l-12 -46h-419z" />
    <glyph glyph-name="ebreve" unicode="&#x115;" horiz-adv-x="504" 
d="M451 240h-359q-2 -14 -2 -42q0 -76 40 -120t106 -44q74 0 143 54l24 -35q-81 -63 -168 -63q-86 0 -140 55.5t-54 150.5q0 72 27.5 141.5t74.5 116.5q72 72 161 72q77 0 120 -51t43 -132q0 -51 -16 -103zM178 428q-54 -54 -77 -146h312q7 24 7 60q0 62 -30 101.5t-88 39.5
q-67 0 -124 -55zM337 589q-52 0 -78.5 28t-17.5 78h37q-1 -30 15 -45.5t51 -15.5q63 0 96 61h41q-18 -50 -56.5 -78t-87.5 -28z" />
    <glyph glyph-name="Edotaccent" unicode="&#x116;" horiz-adv-x="550" 
d="M380 760l17 73h69l-18 -73h-68zM27 0l171 700h415l-11 -46h-365l-69 -278h329l-11 -46h-329l-69 -284h370l-12 -46h-419z" />
    <glyph glyph-name="edotaccent" unicode="&#x117;" horiz-adv-x="504" 
d="M451 240h-359q-2 -14 -2 -42q0 -76 40 -120t106 -44q74 0 143 54l24 -35q-81 -63 -168 -63q-86 0 -140 55.5t-54 150.5q0 72 27.5 141.5t74.5 116.5q72 72 161 72q77 0 120 -51t43 -132q0 -51 -16 -103zM178 428q-54 -54 -77 -146h312q7 24 7 60q0 62 -30 101.5t-88 39.5
q-67 0 -124 -55zM304 592l20 79h60l-20 -79h-60z" />
    <glyph glyph-name="Eogonek" unicode="&#x118;" horiz-adv-x="550" 
d="M27 0l171 700h415l-11 -46h-365l-69 -278h329l-11 -46h-329l-69 -284h370l-12 -46h-6q-68 -53 -68 -81q0 -27 57 -33l-8 -35q-96 4 -96 59q0 42 69 90h-367z" />
    <glyph glyph-name="eogonek" unicode="&#x119;" horiz-adv-x="504" 
d="M379 88l24 -35q-93 -70 -108 -86q-28 -26 -28 -48q0 -27 57 -33l-8 -35q-96 4 -96 59q0 40 58 83q-21 -3 -43 -3q-86 0 -140 55.5t-54 150.5q0 72 27.5 141.5t74.5 116.5q72 72 161 72q77 0 120 -51t43 -132q0 -51 -16 -103h-359q-2 -14 -2 -42q0 -76 40 -120t106 -44
q74 0 143 54zM178 428q-54 -54 -77 -146h312q7 24 7 60q0 62 -30 101.5t-88 39.5q-67 0 -124 -55z" />
    <glyph glyph-name="Ecaron" unicode="&#x11a;" horiz-adv-x="550" 
d="M558 863l-119 -104h-44l-68 104h47l52 -60l81 60h51zM27 0l171 700h415l-11 -46h-365l-69 -278h329l-11 -46h-329l-69 -284h370l-12 -46h-419z" />
    <glyph glyph-name="ecaron" unicode="&#x11b;" horiz-adv-x="504" 
d="M451 240h-359q-2 -14 -2 -42q0 -76 40 -120t106 -44q74 0 143 54l24 -35q-81 -63 -168 -63q-86 0 -140 55.5t-54 150.5q0 72 27.5 141.5t74.5 116.5q72 72 161 72q77 0 120 -51t43 -132q0 -51 -16 -103zM178 428q-54 -54 -77 -146h312q7 24 7 60q0 62 -30 101.5t-88 39.5
q-67 0 -124 -55zM305 591l-59 122h41l45 -70l85 70h44l-118 -122h-38z" />
    <glyph glyph-name="Gbreve" unicode="&#x11e;" horiz-adv-x="666" 
d="M474 765q-51 0 -79 25t-21 68h40q2 -24 18 -35.5t51 -11.5q62 0 90 47h43q-15 -44 -53 -68.5t-89 -24.5zM338 -11q-116 0 -188 76.5t-72 202.5q0 93 35.5 183t99.5 153q106 106 245 106q133 0 208 -102l-38 -29q-63 86 -175 86q-115 0 -204 -91q-56 -56 -88 -138.5
t-32 -166.5q0 -108 58 -171.5t154 -63.5q90 0 155 43l60 239h-194l12 46h241l-79 -313q-93 -60 -198 -60z" />
    <glyph glyph-name="gbreve" unicode="&#x11f;" horiz-adv-x="561" 
d="M196 -152q-115 0 -204 73l29 37q79 -66 178 -66q84 0 130 48q39 39 59 118l19 76q-81 -99 -182 -99q-74 0 -124.5 51t-50.5 139q0 63 24 124.5t67 104.5q72 72 163 72q122 0 165 -130l30 119h46l-112 -465q-23 -92 -70 -139q-63 -63 -167 -63zM234 78q78 0 139 61
q33 33 54.5 82.5t21.5 104.5q0 65 -40 110.5t-105 45.5q-72 0 -128 -56q-36 -36 -56.5 -90.5t-20.5 -109.5q0 -70 39 -109t96 -39zM362 589q-52 0 -78.5 28t-17.5 78h37q-1 -30 15 -45.5t51 -15.5q63 0 96 61h41q-18 -50 -56.5 -78t-87.5 -28z" />
    <glyph glyph-name="Gdotaccent" unicode="&#x120;" horiz-adv-x="666" 
d="M439 768l17 73h69l-18 -73h-68zM338 -11q-116 0 -188 76.5t-72 202.5q0 93 35.5 183t99.5 153q106 106 245 106q133 0 208 -102l-38 -29q-63 86 -175 86q-115 0 -204 -91q-56 -56 -88 -138.5t-32 -166.5q0 -108 58 -171.5t154 -63.5q90 0 155 43l60 239h-194l12 46h241
l-79 -313q-93 -60 -198 -60z" />
    <glyph glyph-name="gdotaccent" unicode="&#x121;" horiz-adv-x="561" 
d="M196 -152q-115 0 -204 73l29 37q79 -66 178 -66q84 0 130 48q39 39 59 118l19 76q-81 -99 -182 -99q-74 0 -124.5 51t-50.5 139q0 63 24 124.5t67 104.5q72 72 163 72q122 0 165 -130l30 119h46l-112 -465q-23 -92 -70 -139q-63 -63 -167 -63zM234 78q78 0 139 61
q33 33 54.5 82.5t21.5 104.5q0 65 -40 110.5t-105 45.5q-72 0 -128 -56q-36 -36 -56.5 -90.5t-20.5 -109.5q0 -70 39 -109t96 -39zM330 592l20 79h60l-20 -79h-60z" />
    <glyph glyph-name="Gcommaaccent" unicode="&#x122;" horiz-adv-x="666" 
d="M211 -212l-3 23q29 8 42.5 19.5t17.5 34.5h-28l16 67h65l-15 -61q-10 -40 -31.5 -57.5t-63.5 -25.5zM338 -11q-116 0 -188 76.5t-72 202.5q0 93 35.5 183t99.5 153q106 106 245 106q133 0 208 -102l-38 -29q-63 86 -175 86q-115 0 -204 -91q-56 -56 -88 -138.5
t-32 -166.5q0 -108 58 -171.5t154 -63.5q90 0 155 43l60 239h-194l12 46h241l-79 -313q-93 -60 -198 -60z" />
    <glyph glyph-name="gcommaaccent" unicode="&#x123;" horiz-adv-x="561" 
d="M435 734l3 -23q-29 -8 -42.5 -19.5t-17.5 -34.5h28l-16 -67h-65l15 61q10 40 31.5 57.5t63.5 25.5zM196 -152q-115 0 -204 73l29 37q79 -66 178 -66q84 0 130 48q39 39 59 118l19 76q-81 -99 -182 -99q-74 0 -124.5 51t-50.5 139q0 63 24 124.5t67 104.5q72 72 163 72
q122 0 165 -130l30 119h46l-112 -465q-23 -92 -70 -139q-63 -63 -167 -63zM234 78q78 0 139 61q33 33 54.5 82.5t21.5 104.5q0 65 -40 110.5t-105 45.5q-72 0 -128 -56q-36 -36 -56.5 -90.5t-20.5 -109.5q0 -70 39 -109t96 -39z" />
    <glyph glyph-name="Hbar" unicode="&#x126;" horiz-adv-x="656" 
d="M87 523l11 43h69l33 134h50l-33 -134h373l33 134h49l-33 -134h69l-11 -43h-68l-128 -523h-49l80 326h-373l-80 -326h-50l128 523h-70zM170 371h373l37 153h-373z" />
    <glyph glyph-name="hbar" unicode="&#x127;" 
d="M105 612l10 42h62l17 68h47l-17 -68h159l-10 -42h-160l-45 -186q74 100 169 100q64 0 103 -39t39 -105q0 -30 -11 -79l-72 -303h-47l74 307q9 36 9 71q0 50 -29 78t-80 28q-59 0 -112 -50t-72 -124l-75 -310h-47l150 612h-62z" />
    <glyph glyph-name="Imacron" unicode="&#x12a;" horiz-adv-x="242" 
d="M34 0l171 700h50l-171 -700h-50zM114 779l11 46h274l-11 -46h-274z" />
    <glyph glyph-name="imacron" unicode="&#x12b;" horiz-adv-x="220" 
d="M24 0l125 515h47l-125 -515h-47zM66 610l12 44h262l-11 -44h-263z" />
    <glyph glyph-name="Ibreve" unicode="&#x12c;" horiz-adv-x="242" 
d="M34 0l171 700h50l-171 -700h-50zM247 757q-51 0 -79 25t-21 68h40q2 -24 18 -35.5t51 -11.5q62 0 90 47h43q-15 -44 -53 -68.5t-89 -24.5z" />
    <glyph glyph-name="ibreve" unicode="&#x12d;" horiz-adv-x="220" 
d="M24 0l125 515h47l-125 -515h-47zM195 588q-52 0 -78.5 28t-17.5 78h37q-1 -30 15 -45.5t51 -15.5q63 0 96 61h41q-18 -50 -56.5 -78t-87.5 -28z" />
    <glyph glyph-name="Iogonek" unicode="&#x12e;" horiz-adv-x="242" 
d="M34 0l171 700h50l-171 -700h-4q-68 -53 -68 -81q0 -27 57 -33l-8 -35q-96 4 -96 59q0 41 69 90z" />
    <glyph glyph-name="iogonek" unicode="&#x12f;" horiz-adv-x="220" 
d="M56 -114l-8 -35q-96 4 -96 59q0 43 72 92l126 513h46l-125 -515h-4q-68 -53 -68 -81q0 -27 57 -33zM176 641l17 68h56l-17 -68h-56z" />
    <glyph glyph-name="Idotaccent" unicode="&#x130;" horiz-adv-x="242" 
d="M34 0l171 700h50l-171 -700h-50zM212 760l17 73h69l-18 -73h-68z" />
    <glyph glyph-name="dotlessi" unicode="&#x131;" horiz-adv-x="220" 
d="M24 0l125 515h47l-125 -515h-47z" />
    <glyph glyph-name="Kcommaaccent" unicode="&#x136;" horiz-adv-x="608" 
d="M167 -209l-3 23q29 8 42.5 19.5t17.5 34.5h-28l16 67h65l-15 -61q-10 -40 -31.5 -57.5t-63.5 -25.5zM27 0l171 700h50l-109 -441l474 441h67l-340 -312l182 -388h-56l-165 354l-179 -166l-45 -188h-50z" />
    <glyph glyph-name="kcommaaccent" unicode="&#x137;" horiz-adv-x="480" 
d="M94 -211l-3 23q29 8 42.5 19.5t17.5 34.5h-28l16 67h65l-15 -61q-10 -40 -31.5 -57.5t-63.5 -25.5zM17 0l177 722h47l-128 -519l334 312h63l-243 -222l124 -293h-52l-109 259l-132 -120l-34 -139h-47z" />
    <glyph glyph-name="Lacute" unicode="&#x139;" horiz-adv-x="503" 
d="M222 757l111 114l56 -26l-119 -88h-48zM27 0l171 700h50l-160 -654h339l-11 -46h-389z" />
    <glyph glyph-name="lacute" unicode="&#x13a;" horiz-adv-x="220" 
d="M215 771l111 114l56 -26l-119 -88h-48zM24 0l177 722h46l-176 -722h-47z" />
    <glyph glyph-name="Lcommaaccent" unicode="&#x13b;" horiz-adv-x="503" 
d="M118 -212l-3 23q29 8 42.5 19.5t17.5 34.5h-28l16 67h65l-15 -61q-10 -40 -31.5 -57.5t-63.5 -25.5zM27 0l171 700h50l-160 -654h339l-11 -46h-389z" />
    <glyph glyph-name="lcommaaccent" unicode="&#x13c;" horiz-adv-x="220" 
d="M-40 -212l-3 23q29 8 42.5 19.5t17.5 34.5h-28l16 67h65l-15 -61q-10 -40 -31.5 -57.5t-63.5 -25.5zM24 0l177 722h46l-176 -722h-47z" />
    <glyph glyph-name="Lcaron" unicode="&#x13d;" horiz-adv-x="503" 
d="M281 551l50 149h54v-3l-77 -146h-27zM27 0l171 700h50l-160 -654h339l-11 -46h-389z" />
    <glyph glyph-name="lcaron" unicode="&#x13e;" horiz-adv-x="220" 
d="M269 573l50 149h54v-3l-77 -146h-27zM24 0l177 722h46l-176 -722h-47z" />
    <glyph glyph-name="Ldot" unicode="&#x13f;" horiz-adv-x="516" 
d="M367 323l19 77h66l-20 -77h-65zM27 0l171 700h50l-160 -654h339l-11 -46h-389z" />
    <glyph glyph-name="ldot" unicode="&#x140;" horiz-adv-x="276" 
d="M232 323l19 79h64l-19 -79h-64zM24 0l177 722h46l-176 -722h-47z" />
    <glyph glyph-name="Lslash" unicode="&#x141;" horiz-adv-x="540" 
d="M65 281l11 49l74 25l84 345h50l-80 -326l200 70l-11 -49l-201 -70l-68 -279h339l-11 -46h-389l75 306z" />
    <glyph glyph-name="lslash" unicode="&#x142;" horiz-adv-x="262" 
d="M51 302l11 50l76 28l84 342h46l-79 -323l79 30l-13 -49l-78 -30l-85 -350h-47l81 330z" />
    <glyph glyph-name="Nacute" unicode="&#x143;" horiz-adv-x="674" 
d="M429 752l111 114l56 -26l-119 -88h-48zM27 0l171 700h47l252 -609l149 609h48l-171 -700h-38l-258 623l-152 -623h-48z" />
    <glyph glyph-name="nacute" unicode="&#x144;" horiz-adv-x="531" 
d="M316 590l113 130l56 -29l-124 -101h-45zM17 0l126 515h46l-21 -89q74 100 169 100q64 0 103 -39t39 -105q0 -30 -11 -79l-72 -303h-47l74 307q9 36 9 71q0 50 -29 78t-80 28q-59 0 -112 -50t-72 -124l-75 -310h-47z" />
    <glyph glyph-name="Ncommaaccent" unicode="&#x145;" horiz-adv-x="674" 
d="M186 -209l-3 23q29 8 42.5 19.5t17.5 34.5h-28l16 67h65l-15 -61q-10 -40 -31.5 -57.5t-63.5 -25.5zM27 0l171 700h47l252 -609l149 609h48l-171 -700h-38l-258 623l-152 -623h-48z" />
    <glyph glyph-name="ncommaaccent" unicode="&#x146;" horiz-adv-x="531" 
d="M112 -211l-3 23q29 8 42.5 19.5t17.5 34.5h-28l16 67h65l-15 -61q-10 -40 -31.5 -57.5t-63.5 -25.5zM17 0l126 515h46l-21 -89q74 100 169 100q64 0 103 -39t39 -105q0 -30 -11 -79l-72 -303h-47l74 307q9 36 9 71q0 50 -29 78t-80 28q-59 0 -112 -50t-72 -124l-75 -310
h-47z" />
    <glyph glyph-name="Ncaron" unicode="&#x147;" horiz-adv-x="674" 
d="M602 858l-119 -104h-44l-68 104h47l52 -60l81 60h51zM27 0l171 700h47l252 -609l149 609h48l-171 -700h-38l-258 623l-152 -623h-48z" />
    <glyph glyph-name="ncaron" unicode="&#x148;" horiz-adv-x="531" 
d="M314 591l-59 122h41l45 -70l85 70h44l-118 -122h-38zM17 0l126 515h46l-21 -89q74 100 169 100q64 0 103 -39t39 -105q0 -30 -11 -79l-72 -303h-47l74 307q9 36 9 71q0 50 -29 78t-80 28q-59 0 -112 -50t-72 -124l-75 -310h-47z" />
    <glyph glyph-name="Omacron" unicode="&#x14c;" horiz-adv-x="711" 
d="M338 787l11 46h274l-11 -46h-274zM432 711q111 0 178.5 -76.5t67.5 -198.5q0 -95 -36.5 -192.5t-99.5 -160.5q-95 -95 -217 -95q-111 0 -178.5 76.5t-67.5 198.5q0 96 36.5 193.5t99.5 159.5q95 95 217 95zM326 34q100 0 179 79q56 56 89.5 146t33.5 176q0 103 -54 166.5
t-143 63.5q-101 0 -179 -80q-56 -56 -89.5 -145.5t-33.5 -175.5q0 -102 54 -166t143 -64z" />
    <glyph glyph-name="omacron" unicode="&#x14d;" horiz-adv-x="543" 
d="M220 611l12 44h262l-11 -44h-263zM311 526q85 0 137 -58.5t52 -153.5q0 -72 -26 -138t-72 -112q-75 -75 -171 -75q-85 0 -137 58.5t-52 153.5q0 72 26 138t72 112q75 75 171 75zM235 33q72 0 131 59q39 40 62 99.5t23 120.5q0 80 -39 125t-105 45q-72 0 -131 -59
q-39 -40 -62 -99.5t-23 -120.5q0 -80 39 -125t105 -45z" />
    <glyph glyph-name="Obreve" unicode="&#x14e;" horiz-adv-x="711" 
d="M471 765q-51 0 -79 25t-21 68h40q2 -24 18 -35.5t51 -11.5q62 0 90 47h43q-15 -44 -53 -68.5t-89 -24.5zM432 711q111 0 178.5 -76.5t67.5 -198.5q0 -95 -36.5 -192.5t-99.5 -160.5q-95 -95 -217 -95q-111 0 -178.5 76.5t-67.5 198.5q0 96 36.5 193.5t99.5 159.5
q95 95 217 95zM326 34q100 0 179 79q56 56 89.5 146t33.5 176q0 103 -54 166.5t-143 63.5q-101 0 -179 -80q-56 -56 -89.5 -145.5t-33.5 -175.5q0 -102 54 -166t143 -64z" />
    <glyph glyph-name="obreve" unicode="&#x14f;" horiz-adv-x="543" 
d="M311 526q85 0 137 -58.5t52 -153.5q0 -72 -26 -138t-72 -112q-75 -75 -171 -75q-85 0 -137 58.5t-52 153.5q0 72 26 138t72 112q75 75 171 75zM235 33q72 0 131 59q39 40 62 99.5t23 120.5q0 80 -39 125t-105 45q-72 0 -131 -59q-39 -40 -62 -99.5t-23 -120.5
q0 -80 39 -125t105 -45zM349 589q-52 0 -78.5 28t-17.5 78h37q-1 -30 15 -45.5t51 -15.5q63 0 96 61h41q-18 -50 -56.5 -78t-87.5 -28z" />
    <glyph glyph-name="Ohungarumlaut" unicode="&#x150;" horiz-adv-x="711" 
d="M432 711q111 0 178.5 -76.5t67.5 -198.5q0 -95 -36.5 -192.5t-99.5 -160.5q-95 -95 -217 -95q-111 0 -178.5 76.5t-67.5 198.5q0 96 36.5 193.5t99.5 159.5q95 95 217 95zM326 34q100 0 179 79q56 56 89.5 146t33.5 176q0 103 -54 166.5t-143 63.5q-101 0 -179 -80
q-56 -56 -89.5 -145.5t-33.5 -175.5q0 -102 54 -166t143 -64zM369 765l111 114l55 -26l-119 -88h-47zM494 765l111 114l54 -26l-118 -88h-47z" />
    <glyph glyph-name="ohungarumlaut" unicode="&#x151;" horiz-adv-x="543" 
d="M249 590l113 130l45 -28l-120 -102h-38zM381 590l114 130l44 -28l-119 -102h-39zM311 526q85 0 137 -58.5t52 -153.5q0 -72 -26 -138t-72 -112q-75 -75 -171 -75q-85 0 -137 58.5t-52 153.5q0 72 26 138t72 112q75 75 171 75zM235 33q72 0 131 59q39 40 62 99.5t23 120.5
q0 80 -39 125t-105 45q-72 0 -131 -59q-39 -40 -62 -99.5t-23 -120.5q0 -80 39 -125t105 -45z" />
    <glyph glyph-name="OE" unicode="&#x152;" horiz-adv-x="972" 
d="M376 0q-146 0 -226 80q-73 73 -73 202q0 81 30 162.5t88 139.5q116 116 300 116h529l-12 -46h-357l-68 -278h321l-11 -46h-321l-70 -284h363l-12 -46h-481zM189 112q66 -66 190 -66h77l149 608h-118q-154 0 -255 -101q-50 -50 -77 -123t-27 -145q0 -110 61 -173z" />
    <glyph glyph-name="oe" unicode="&#x153;" horiz-adv-x="898" 
d="M846 240h-359q-2 -14 -2 -42q0 -76 40 -120t106 -44q73 0 145 55l18 -38q-74 -61 -162 -61q-71 0 -120.5 39t-64.5 108q-34 -65 -90 -106.5t-127 -41.5q-83 0 -135.5 59t-52.5 153q0 71 26.5 137.5t71.5 112.5q75 75 171 75q70 0 116 -42t60 -109q33 65 86.5 108
t124.5 43q77 0 120 -51t43 -132q0 -49 -15 -103zM235 33q72 0 131 59q39 40 62 99.5t23 120.5q0 80 -39 125t-105 45q-72 0 -131 -59q-39 -40 -62 -99.5t-23 -120.5q0 -80 39 -125t105 -45zM572 428q-54 -54 -77 -146h313q6 26 6 60q0 62 -30 101.5t-88 39.5q-67 0 -124 -55
z" />
    <glyph glyph-name="Racute" unicode="&#x154;" horiz-adv-x="612" 
d="M450 0l-126 289q-12 -1 -35 -1h-142l-70 -288h-50l171 700h197q113 0 170 -57q44 -46 44 -117q0 -93 -63 -156q-59 -59 -171 -76l130 -294h-55zM158 332h154q132 0 197 65q51 51 51 127q0 56 -32 86q-43 44 -137 44h-154zM371 757l111 114l56 -26l-119 -88h-48z" />
    <glyph glyph-name="racute" unicode="&#x155;" horiz-adv-x="342" 
d="M228 589l113 130l56 -29l-124 -101h-45zM17 0l126 515h46l-30 -122q97 137 221 129l-13 -50h-4q-80 0 -146 -57t-91 -158l-62 -257h-47z" />
    <glyph glyph-name="Rcommaaccent" unicode="&#x156;" horiz-adv-x="612" 
d="M450 0l-126 289q-12 -1 -35 -1h-142l-70 -288h-50l171 700h197q113 0 170 -57q44 -46 44 -117q0 -93 -63 -156q-59 -59 -171 -76l130 -294h-55zM158 332h154q132 0 197 65q51 51 51 127q0 56 -32 86q-43 44 -137 44h-154zM153 -209l-3 23q29 8 42.5 19.5t17.5 34.5h-28
l16 67h65l-15 -61q-10 -40 -31.5 -57.5t-63.5 -25.5z" />
    <glyph glyph-name="rcommaaccent" unicode="&#x157;" horiz-adv-x="342" 
d="M-42 -212l-3 23q29 8 42.5 19.5t17.5 34.5h-28l16 67h65l-15 -61q-10 -40 -31.5 -57.5t-63.5 -25.5zM17 0l126 515h46l-30 -122q97 137 221 129l-13 -50h-4q-80 0 -146 -57t-91 -158l-62 -257h-47z" />
    <glyph glyph-name="Rcaron" unicode="&#x158;" horiz-adv-x="612" 
d="M450 0l-126 289q-12 -1 -35 -1h-142l-70 -288h-50l171 700h197q113 0 170 -57q44 -46 44 -117q0 -93 -63 -156q-59 -59 -171 -76l130 -294h-55zM158 332h154q132 0 197 65q51 51 51 127q0 56 -32 86q-43 44 -137 44h-154zM546 863l-119 -104h-44l-68 104h47l52 -60l81 60
h51z" />
    <glyph glyph-name="rcaron" unicode="&#x159;" horiz-adv-x="342" 
d="M225 590l-59 122h41l45 -70l85 70h44l-118 -122h-38zM17 0l126 515h46l-30 -122q97 137 221 129l-13 -50h-4q-80 0 -146 -57t-91 -158l-62 -257h-47z" />
    <glyph glyph-name="Sacute" unicode="&#x15a;" horiz-adv-x="542" 
d="M252 -10q-150 0 -241 124l40 31q82 -110 204 -110q70 0 118 42t48 102q0 42 -28 76t-97 76q-89 54 -124.5 96.5t-35.5 98.5q0 69 49 120q64 64 161 64q125 0 211 -103l-38 -33q-76 91 -176 91q-70 0 -113.5 -40.5t-43.5 -94.5q0 -43 30 -76t104 -78q81 -49 116 -92.5
t35 -100.5q0 -75 -54 -129q-64 -64 -165 -64zM358 765l111 114l56 -26l-119 -88h-48z" />
    <glyph glyph-name="sacute" unicode="&#x15b;" horiz-adv-x="422" 
d="M254 590l113 130l56 -29l-124 -101h-45zM179 -9q-109 0 -185 90l36 33q71 -80 153 -80q46 0 81 28t35 70q0 28 -20.5 53t-74.5 55q-66 36 -93 67.5t-27 76.5q0 58 45.5 99t117.5 41q46 0 90 -21t75 -55l-34 -35q-65 69 -134 69q-50 0 -80.5 -28t-30.5 -66q0 -28 20 -51.5
t77 -55.5q64 -37 91 -70t27 -75q0 -61 -49.5 -103t-119.5 -42z" />
    <glyph glyph-name="Scedilla" unicode="&#x15e;" horiz-adv-x="542" 
d="M150 -135l-47 24l95 106q-115 18 -187 119l40 31q82 -110 204 -110q70 0 118 42t48 102q0 42 -28 76t-97 76q-89 54 -124.5 96.5t-35.5 98.5q0 69 49 120q64 64 161 64q125 0 211 -103l-38 -33q-76 91 -176 91q-70 0 -113.5 -40.5t-43.5 -94.5q0 -43 30 -76t104 -78
q81 -49 116 -92.5t35 -100.5q0 -75 -54 -129q-64 -64 -165 -64q-3 0 -7.5 0.5t-6.5 0.5z" />
    <glyph glyph-name="scedilla" unicode="&#x15f;" horiz-adv-x="422" 
d="M84 -135l-47 24l96 107q-80 15 -139 85l36 33q71 -80 153 -80q46 0 81 28t35 70q0 28 -20.5 53t-74.5 55q-66 36 -93 67.5t-27 76.5q0 58 45.5 99t117.5 41q46 0 90 -21t75 -55l-34 -35q-65 69 -134 69q-50 0 -80.5 -28t-30.5 -66q0 -28 20 -51.5t77 -55.5q64 -37 91 -70
t27 -75q0 -61 -49.5 -103t-119.5 -42h-7z" />
    <glyph glyph-name="Scaron" unicode="&#x160;" horiz-adv-x="542" 
d="M252 -10q-150 0 -241 124l40 31q82 -110 204 -110q70 0 118 42t48 102q0 42 -28 76t-97 76q-89 54 -124.5 96.5t-35.5 98.5q0 69 49 120q64 64 161 64q125 0 211 -103l-38 -33q-76 91 -176 91q-70 0 -113.5 -40.5t-43.5 -94.5q0 -43 30 -76t104 -78q81 -49 116 -92.5
t35 -100.5q0 -75 -54 -129q-64 -64 -165 -64zM531 871l-119 -104h-44l-68 104h47l52 -60l81 60h51z" />
    <glyph glyph-name="scaron" unicode="&#x161;" horiz-adv-x="422" 
d="M252 591l-59 122h41l45 -70l85 70h44l-118 -122h-38zM179 -9q-109 0 -185 90l36 33q71 -80 153 -80q46 0 81 28t35 70q0 28 -20.5 53t-74.5 55q-66 36 -93 67.5t-27 76.5q0 58 45.5 99t117.5 41q46 0 90 -21t75 -55l-34 -35q-65 69 -134 69q-50 0 -80.5 -28t-30.5 -66
q0 -28 20 -51.5t77 -55.5q64 -37 91 -70t27 -75q0 -61 -49.5 -103t-119.5 -42z" />
    <glyph glyph-name="Tcommaaccent" unicode="&#x162;" horiz-adv-x="517" 
d="M105 -212l-3 23q29 8 42.5 19.5t17.5 34.5h-28l16 67h65l-15 -61q-10 -40 -31.5 -57.5t-63.5 -25.5zM168 0l160 654h-204l12 46h458l-12 -46h-204l-160 -654h-50z" />
    <glyph glyph-name="tcommaaccent" unicode="&#x163;" horiz-adv-x="339" 
d="M46 -212l-3 23q29 8 42.5 19.5t17.5 34.5h-28l16 67h65l-15 -61q-10 -40 -31.5 -57.5t-63.5 -25.5zM172 -7q-47 0 -76 22.5t-29 66.5q0 21 7 51l82 339h-66l10 43h66l39 158h47l-39 -158h145l-10 -43h-146l-83 -348q-5 -20 -5 -36q0 -52 69 -52q28 0 62 14l-10 -45
q-29 -12 -63 -12z" />
    <glyph glyph-name="Tcaron" unicode="&#x164;" horiz-adv-x="517" 
d="M523 863l-119 -104h-44l-68 104h47l52 -60l81 60h51zM168 0l160 654h-204l12 46h458l-12 -46h-204l-160 -654h-50z" />
    <glyph glyph-name="tcaron" unicode="&#x165;" horiz-adv-x="339" 
d="M301 573l50 149h54v-3l-77 -146h-27zM172 -7q-47 0 -76 22.5t-29 66.5q0 21 7 51l82 339h-66l10 43h66l39 158h47l-39 -158h145l-10 -43h-146l-83 -348q-5 -20 -5 -36q0 -52 69 -52q28 0 62 14l-10 -45q-29 -12 -63 -12z" />
    <glyph glyph-name="Umacron" unicode="&#x16a;" horiz-adv-x="649" 
d="M305 774l11 46h274l-11 -46h-274zM292 -11q-103 0 -159.5 53.5t-56.5 141.5q0 46 14 104l99 412h50l-105 -433q-9 -43 -9 -80q0 -69 44 -110.5t127 -41.5q81 0 139 58q61 61 87 168l106 439h49l-108 -449q-31 -121 -97 -187q-75 -75 -180 -75z" />
    <glyph glyph-name="umacron" unicode="&#x16b;" 
d="M194 -11q-65 0 -104 39t-39 106q0 30 11 79l73 302h46l-74 -306q-9 -42 -9 -71q0 -50 29 -78.5t80 -28.5q60 0 113 50t71 124l75 310h47l-125 -515h-47l22 89q-77 -100 -169 -100zM210 609l12 44h262l-11 -44h-263z" />
    <glyph glyph-name="Ubreve" unicode="&#x16c;" horiz-adv-x="649" 
d="M439 752q-51 0 -79 25t-21 68h40q2 -24 18 -35.5t51 -11.5q62 0 90 47h43q-15 -44 -53 -68.5t-89 -24.5zM292 -11q-103 0 -159.5 53.5t-56.5 141.5q0 46 14 104l99 412h50l-105 -433q-9 -43 -9 -80q0 -69 44 -110.5t127 -41.5q81 0 139 58q61 61 87 168l106 439h49
l-108 -449q-31 -121 -97 -187q-75 -75 -180 -75z" />
    <glyph glyph-name="ubreve" unicode="&#x16d;" 
d="M194 -11q-65 0 -104 39t-39 106q0 30 11 79l73 302h46l-74 -306q-9 -42 -9 -71q0 -50 29 -78.5t80 -28.5q60 0 113 50t71 124l75 310h47l-125 -515h-47l22 89q-77 -100 -169 -100zM339 587q-52 0 -78.5 28t-17.5 78h37q-1 -30 15 -45.5t51 -15.5q63 0 96 61h41
q-18 -50 -56.5 -78t-87.5 -28z" />
    <glyph glyph-name="Uring" unicode="&#x16e;" horiz-adv-x="649" 
d="M292 -11q-103 0 -159.5 53.5t-56.5 141.5q0 46 14 104l99 412h50l-105 -433q-9 -43 -9 -80q0 -69 44 -110.5t127 -41.5q81 0 139 58q61 61 87 168l106 439h49l-108 -449q-31 -121 -97 -187q-75 -75 -180 -75zM468 918q39 0 63.5 -22t24.5 -56q0 -42 -33 -70.5t-77 -28.5
q-38 0 -62.5 22.5t-24.5 56.5q0 42 32.5 70t76.5 28zM449 772q29 0 49.5 18.5t20.5 46.5q0 22 -14.5 36.5t-39.5 14.5q-29 0 -49.5 -19t-20.5 -46q0 -23 15 -37t39 -14z" />
    <glyph glyph-name="uring" unicode="&#x16f;" 
d="M456 683q0 -41 -32 -70.5t-75 -29.5q-39 0 -64.5 24.5t-25.5 60.5q0 41 32 71t75 30q39 0 64.5 -24.5t25.5 -61.5zM292 669q0 -24 16 -40.5t43 -16.5q30 0 51 20.5t21 49.5q0 24 -15.5 40.5t-42.5 16.5q-30 0 -51.5 -20.5t-21.5 -49.5zM194 -11q-65 0 -104 39t-39 106
q0 30 11 79l73 302h46l-74 -306q-9 -42 -9 -71q0 -50 29 -78.5t80 -28.5q60 0 113 50t71 124l75 310h47l-125 -515h-47l22 89q-77 -100 -169 -100z" />
    <glyph glyph-name="Uhungarumlaut" unicode="&#x170;" horiz-adv-x="649" 
d="M292 -11q-103 0 -159.5 53.5t-56.5 141.5q0 46 14 104l99 412h50l-105 -433q-9 -43 -9 -80q0 -69 44 -110.5t127 -41.5q81 0 139 58q61 61 87 168l106 439h49l-108 -449q-31 -121 -97 -187q-75 -75 -180 -75zM336 752l111 114l55 -26l-119 -88h-47zM461 752l111 114
l54 -26l-118 -88h-47z" />
    <glyph glyph-name="uhungarumlaut" unicode="&#x171;" 
d="M194 -11q-65 0 -104 39t-39 106q0 30 11 79l73 302h46l-74 -306q-9 -42 -9 -71q0 -50 29 -78.5t80 -28.5q60 0 113 50t71 124l75 310h47l-125 -515h-47l22 89q-77 -100 -169 -100zM238 588l113 130l45 -28l-120 -102h-38zM370 588l114 130l44 -28l-119 -102h-39z" />
    <glyph glyph-name="Uogonek" unicode="&#x172;" horiz-adv-x="649" 
d="M292 -11h-8q-54 -43 -54 -70t57 -33l-8 -35q-96 4 -96 59q0 39 59 83q-80 12 -123 63t-43 128q0 46 14 104l99 412h50l-105 -433q-9 -43 -9 -80q0 -69 44 -110.5t127 -41.5q81 0 139 58q61 61 87 168l106 439h49l-108 -449q-31 -121 -97 -187q-75 -75 -180 -75z" />
    <glyph glyph-name="uogonek" unicode="&#x173;" 
d="M194 -11q-65 0 -104 39t-39 106q0 30 11 79l73 302h46l-74 -306q-9 -42 -9 -71q0 -50 29 -78.5t80 -28.5q60 0 113 50t71 124l75 310h47l-125 -515h-6q-68 -53 -68 -81q0 -27 57 -33l-8 -35q-96 4 -96 59q0 45 75 94l21 85q-77 -100 -169 -100z" />
    <glyph glyph-name="Wcircumflex" unicode="&#x174;" horiz-adv-x="932" 
d="M180 -5l-41 705h50l32 -619l328 621h40l26 -621l333 619h55l-386 -705h-41l-28 609l-326 -609h-42zM460 759l119 104h44l68 -104h-47l-51 60l-82 -60h-51z" />
    <glyph glyph-name="wcircumflex" unicode="&#x175;" horiz-adv-x="739" 
d="M329 590l119 122h38l59 -122h-41l-45 71l-85 -71h-45zM127 -4l-34 519h47l23 -448l241 449h39l23 -449l241 448h50l-287 -519h-42l-23 439l-238 -439h-40z" />
    <glyph glyph-name="Ycircumflex" unicode="&#x176;" horiz-adv-x="571" 
d="M194 0l71 290l-149 410h53l130 -367l309 367h64l-360 -420l-68 -280h-50zM273 754l119 104h44l68 -104h-47l-51 60l-82 -60h-51z" />
    <glyph glyph-name="ycircumflex" unicode="&#x177;" horiz-adv-x="493" 
d="M159 2l-78 513h49l65 -456l268 456h54l-317 -528q-46 -76 -87 -108t-89 -32q-52 0 -92 32l25 39q32 -27 71 -27q32 0 62 24.5t69 86.5zM193 589l119 122h38l59 -122h-41l-45 71l-85 -71h-45z" />
    <glyph glyph-name="Ydieresis" unicode="&#x178;" horiz-adv-x="571" 
d="M194 0l71 290l-149 410h53l130 -367l309 367h64l-360 -420l-68 -280h-50zM284 755l18 73h67l-18 -73h-67zM438 755l18 73h66l-18 -73h-66z" />
    <glyph glyph-name="Zacute" unicode="&#x179;" horiz-adv-x="559" 
d="M-18 0l6 29l547 627h-382l11 44h450l-5 -29l-548 -627h400l-11 -44h-468zM353 757l111 114l56 -26l-119 -88h-48z" />
    <glyph glyph-name="zacute" unicode="&#x17a;" horiz-adv-x="456" 
d="M266 589l113 130l56 -29l-124 -101h-45zM-17 0l5 28l406 446h-289l10 41h356l-5 -28l-407 -445h303l-11 -42h-368z" />
    <glyph glyph-name="Zdotaccent" unicode="&#x17b;" horiz-adv-x="559" 
d="M349 760l17 73h69l-18 -73h-68zM-18 0l6 29l547 627h-382l11 44h450l-5 -29l-548 -627h400l-11 -44h-468z" />
    <glyph glyph-name="zdotaccent" unicode="&#x17c;" horiz-adv-x="456" 
d="M-17 0l5 28l406 446h-289l10 41h356l-5 -28l-407 -445h303l-11 -42h-368zM264 591l20 79h60l-20 -79h-60z" />
    <glyph glyph-name="Zcaron" unicode="&#x17d;" horiz-adv-x="559" 
d="M527 863l-119 -104h-44l-68 104h47l52 -60l81 60h51zM-18 0l6 29l547 627h-382l11 44h450l-5 -29l-548 -627h400l-11 -44h-468z" />
    <glyph glyph-name="zcaron" unicode="&#x17e;" horiz-adv-x="456" 
d="M264 590l-59 122h41l45 -70l85 70h44l-118 -122h-38zM-17 0l5 28l406 446h-289l10 41h356l-5 -28l-407 -445h303l-11 -42h-368z" />
    <glyph glyph-name="florin" unicode="&#x192;" horiz-adv-x="464" 
d="M26 -9q-28 0 -54 10l11 42q20 -9 46 -9q32 0 55 24t45 79l97 248h-91l10 43h97l57 146q53 135 157 135q40 0 77 -16l-13 -43q-32 15 -66 15q-71 0 -113 -106l-51 -131h143l-10 -43h-149l-103 -265q-28 -69 -62.5 -99t-82.5 -30z" />
    <glyph glyph-name="Aringacute" unicode="&#x1fa;" horiz-adv-x="652" 
d="M-30 0l423 669q-43 21 -43 69q0 41 33 69.5t77 28.5q39 0 63.5 -22.5t24.5 -56.5q0 -33 -22 -58.5t-56 -35.5l95 -663h-50l-26 196h-342l-123 -196h-54zM175 241h307l-54 403zM441 690q29 0 49.5 18.5t20.5 45.5q0 22 -14.5 37t-39.5 15q-29 0 -49.5 -19t-20.5 -47
q0 -23 14.5 -36.5t39.5 -13.5zM453 863l110 101l52 -26l-114 -75h-48z" />
    <glyph glyph-name="aringacute" unicode="&#x1fb;" horiz-adv-x="496" 
d="M345 802l110 112l50 -28l-117 -84h-43zM162 -11q-62 0 -104 37.5t-42 103.5q0 80 53 133q57 57 156 57q76 0 162 -28l4 17q8 40 8 63q0 50 -33 78t-97 28t-125 -26l-13 42q69 28 141 28q82 0 127.5 -38t45.5 -105q0 -30 -11 -77l-72 -302h-47l21 82q-74 -93 -174 -93z
M172 31q64 0 119 46t72 116l15 60q-75 26 -157 26q-71 0 -116 -43q-40 -40 -40 -102q0 -47 29 -75t78 -28zM438 688q0 -41 -32 -70.5t-75 -29.5q-39 0 -64.5 24.5t-25.5 60.5q0 41 32 71t75 30q39 0 64.5 -24.5t25.5 -61.5zM274 674q0 -24 16 -40.5t43 -16.5q30 0 51 20.5
t21 49.5q0 24 -15.5 40.5t-42.5 16.5q-30 0 -51.5 -20.5t-21.5 -49.5z" />
    <glyph glyph-name="AEacute" unicode="&#x1fc;" horiz-adv-x="897" 
d="M613 757l111 114l56 -26l-119 -88h-48zM-37 0l525 700h461l-12 -46h-358l-68 -278h322l-11 -46h-322l-69 -284h363l-12 -46h-412l48 196h-251l-146 -196h-58zM200 241h228l102 414h-22z" />
    <glyph glyph-name="aeacute" unicode="&#x1fd;" horiz-adv-x="832" 
d="M566 -10q-67 0 -112.5 32.5t-65.5 91.5q-99 -125 -221 -125q-65 0 -108 37t-43 104q0 80 53 133q57 57 156 57q76 0 162 -28l4 17q8 40 8 63q0 50 -33 78t-97 28t-125 -26l-13 42q69 28 141 28q71 0 114.5 -29.5t53.5 -82.5q80 116 192 116q77 0 120 -51t43 -132
q0 -49 -15 -103h-360q-2 -14 -2 -42q0 -76 40 -120t106 -44q74 0 143 54l25 -35q-81 -63 -166 -63zM174 31q103 0 203 129q-6 47 2 92q-72 27 -158 27q-71 0 -116 -43q-40 -40 -40 -102q0 -47 29.5 -75t79.5 -28zM506 428q-54 -54 -77 -146h313q7 30 7 60q0 62 -30 101.5
t-89 39.5q-67 0 -124 -55zM447 589l113 130l56 -29l-124 -101h-45z" />
    <glyph glyph-name="Oslashacute" unicode="&#x1fe;" horiz-adv-x="711" 
d="M432 711q118 0 188 -89l88 84h61l-124 -122q33 -66 33 -148q0 -95 -36.5 -192.5t-99.5 -160.5q-95 -95 -217 -95q-119 0 -188 88l-88 -82h-61l124 120q-33 66 -33 149q0 96 36.5 193.5t99.5 159.5q95 95 217 95zM129 264q0 -65 21 -113l436 436q-55 79 -155 79
q-101 0 -179 -80q-56 -56 -89.5 -146t-33.5 -176zM326 34q100 0 179 79q56 56 89.5 146t33.5 176q0 64 -21 112l-435 -436q53 -77 154 -77zM440 765l111 114l56 -26l-119 -88h-48z" />
    <glyph glyph-name="oslashacute" unicode="&#x1ff;" horiz-adv-x="543" 
d="M311 526q88 0 140 -63l62 57h59l-98 -92q26 -49 26 -114q0 -72 -26 -138t-72 -112q-75 -75 -171 -75q-87 0 -141 63l-61 -58h-59l97 92q-25 50 -25 115q0 72 26 138t72 112q75 75 171 75zM451 312q0 44 -13 81l-315 -307q38 -53 112 -53q72 0 131 59q40 40 62.5 99
t22.5 121zM307 483q-71 0 -131 -60q-40 -40 -62.5 -99t-22.5 -121q0 -48 13 -81l314 308q-39 53 -111 53zM319 590l113 130l56 -29l-124 -101h-45z" />
    <glyph glyph-name="Scommaaccent" unicode="&#x218;" horiz-adv-x="542" 
d="M112 -212l-3 23q29 8 42.5 19.5t17.5 34.5h-28l16 67h65l-15 -61q-10 -40 -31.5 -57.5t-63.5 -25.5zM252 -10q-150 0 -241 124l40 31q82 -110 204 -110q70 0 118 42t48 102q0 42 -28 76t-97 76q-89 54 -124.5 96.5t-35.5 98.5q0 69 49 120q64 64 161 64q125 0 211 -103
l-38 -33q-76 91 -176 91q-70 0 -113.5 -40.5t-43.5 -94.5q0 -43 30 -76t104 -78q81 -49 116 -92.5t35 -100.5q0 -75 -54 -129q-64 -64 -165 -64z" />
    <glyph glyph-name="scommaaccent" unicode="&#x219;" horiz-adv-x="422" 
d="M49 -212l-3 23q29 8 42.5 19.5t17.5 34.5h-28l16 67h65l-15 -61q-10 -40 -31.5 -57.5t-63.5 -25.5zM179 -9q-109 0 -185 90l36 33q71 -80 153 -80q46 0 81 28t35 70q0 28 -20.5 53t-74.5 55q-66 36 -93 67.5t-27 76.5q0 58 45.5 99t117.5 41q46 0 90 -21t75 -55l-34 -35
q-65 69 -134 69q-50 0 -80.5 -28t-30.5 -66q0 -28 20 -51.5t77 -55.5q64 -37 91 -70t27 -75q0 -61 -49.5 -103t-119.5 -42z" />
    <glyph glyph-name="schwa" unicode="&#x259;" horiz-adv-x="504" 
d="M37 172q0 51 16 103h358q3 21 3 42q0 76 -40 120t-106 44q-74 0 -143 -54l-24 35q81 63 168 63q86 0 140 -55.5t54 -150.5q0 -72 -27.5 -141.5t-74.5 -116.5q-72 -72 -161 -72q-77 0 -120 51t-43 132zM326 87q55 55 77 146h-312q-7 -24 -7 -60q0 -62 30 -101.5t88 -39.5
q67 0 124 55z" />
    <glyph glyph-name="circumflex" unicode="&#x2c6;" horiz-adv-x="500" 
d="M224 590l119 122h38l59 -122h-41l-45 71l-85 -71h-45z" />
    <glyph glyph-name="caron" unicode="&#x2c7;" horiz-adv-x="500" 
d="M313 590l-59 122h41l45 -70l85 70h44l-118 -122h-38z" />
    <glyph glyph-name="breve" unicode="&#x2d8;" horiz-adv-x="500" 
d="M333 588q-52 0 -78.5 28t-17.5 78h37q-1 -30 15 -45.5t51 -15.5q63 0 96 61h41q-18 -50 -56.5 -78t-87.5 -28z" />
    <glyph glyph-name="dotaccent" unicode="&#x2d9;" horiz-adv-x="500" 
d="M301 591l20 79h60l-20 -79h-60z" />
    <glyph glyph-name="ring" unicode="&#x2da;" horiz-adv-x="500" 
d="M453 688q0 -41 -32 -70.5t-75 -29.5q-39 0 -64.5 24.5t-25.5 60.5q0 41 32 71t75 30q39 0 64.5 -24.5t25.5 -61.5zM289 674q0 -24 16 -40.5t43 -16.5q30 0 51 20.5t21 49.5q0 24 -15.5 40.5t-42.5 16.5q-30 0 -51.5 -20.5t-21.5 -49.5z" />
    <glyph glyph-name="ogonek" unicode="&#x2db;" horiz-adv-x="500" 
d="M219 -114l-8 -35q-96 4 -96 59q0 46 89 103l29 -11q-71 -54 -71 -83q0 -27 57 -33z" />
    <glyph glyph-name="tilde" unicode="&#x2dc;" horiz-adv-x="500" 
d="M447 685l33 -9q-21 -48 -41 -67.5t-47 -19.5q-22 0 -57 23q-32 21 -48 21q-27 0 -51 -49l-33 9q20 48 40 67.5t48 19.5q19 0 57 -22q29 -21 48 -21q26 0 51 48z" />
    <glyph glyph-name="hungarumlaut" unicode="&#x2dd;" horiz-adv-x="500" 
d="M197 589l113 130l45 -28l-120 -102h-38zM329 589l114 130l44 -28l-119 -102h-39z" />
    <glyph glyph-name="commaaccent" unicode="&#x326;" horiz-adv-x="500" 
d="M94 -212l-3 23q29 8 42.5 19.5t17.5 34.5h-28l16 67h65l-15 -61q-10 -40 -31.5 -57.5t-63.5 -25.5z" />
    <glyph glyph-name="baht" unicode="&#xe3f;" horiz-adv-x="551" 
d="M24 0l171 700h163q17 0 45 -4l33 83h45l-37 -93q100 -36 100 -142q0 -79 -52.5 -128t-131.5 -64q125 -28 125 -144q0 -94 -76.5 -151t-202.5 -57h-33l-46 -118h-46l47 118h-104zM438 208q0 55 -35 86.5t-102 36.5l-112 -287h22q108 0 167.5 43.5t59.5 120.5zM163 374h110
h4l111 280q-22 2 -35 2h-121zM82 44h67l113 288h-110zM496 540q0 79 -71 105l-106 -269q83 10 130 54t47 110z" />
    <glyph glyph-name="Wgrave" unicode="&#x1e80;" horiz-adv-x="932" 
d="M554 757l-83 88l54 26l65 -114h-36zM180 -5l-41 705h50l32 -619l328 621h40l26 -621l333 619h55l-386 -705h-41l-28 609l-326 -609h-42z" />
    <glyph glyph-name="wgrave" unicode="&#x1e81;" horiz-adv-x="739" 
d="M127 -4l-34 519h47l23 -448l241 449h39l23 -449l241 448h50l-287 -519h-42l-23 439l-238 -439h-40zM415 589l-79 101l55 29l57 -130h-33z" />
    <glyph glyph-name="Wacute" unicode="&#x1e82;" horiz-adv-x="932" 
d="M552 757l111 114l56 -26l-119 -88h-48zM180 -5l-41 705h50l32 -619l328 621h40l26 -621l333 619h55l-386 -705h-41l-28 609l-326 -609h-42z" />
    <glyph glyph-name="wacute" unicode="&#x1e83;" horiz-adv-x="739" 
d="M413 589l113 130l56 -29l-124 -101h-45zM127 -4l-34 519h47l23 -448l241 449h39l23 -449l241 448h50l-287 -519h-42l-23 439l-238 -439h-40z" />
    <glyph glyph-name="Wdieresis" unicode="&#x1e84;" horiz-adv-x="932" 
d="M471 760l18 73h67l-18 -73h-67zM625 760l18 73h66l-18 -73h-66zM180 -5l-41 705h50l32 -619l328 621h40l26 -621l333 619h55l-386 -705h-41l-28 609l-326 -609h-42z" />
    <glyph glyph-name="wdieresis" unicode="&#x1e85;" horiz-adv-x="739" 
d="M339 592l19 75h62l-19 -75h-62zM481 592l19 75h61l-18 -75h-62zM127 -4l-34 519h47l23 -448l241 449h39l23 -449l241 448h50l-287 -519h-42l-23 439l-238 -439h-40z" />
    <glyph glyph-name="Ygrave" unicode="&#x1ef2;" horiz-adv-x="571" 
d="M194 0l71 290l-149 410h53l130 -367l309 367h64l-360 -420l-68 -280h-50zM368 752l-83 88l54 26l65 -114h-36z" />
    <glyph glyph-name="ygrave" unicode="&#x1ef3;" horiz-adv-x="493" 
d="M159 2l-78 513h49l65 -456l268 456h54l-317 -528q-46 -76 -87 -108t-89 -32q-52 0 -92 32l25 39q32 -27 71 -27q32 0 62 24.5t69 86.5zM280 588l-79 101l55 29l57 -130h-33z" />
    <glyph glyph-name="enspace" unicode="&#x2002;" horiz-adv-x="500" 
 />
    <glyph glyph-name="emspace" unicode="&#x2003;" horiz-adv-x="1000" 
 />
    <glyph glyph-name="threeperemspace" unicode="&#x2004;" horiz-adv-x="333" 
 />
    <glyph glyph-name="fourperemspace" unicode="&#x2005;" horiz-adv-x="250" 
 />
    <glyph glyph-name="figurespace" unicode="&#x2007;" 
 />
    <glyph glyph-name="thinspace" unicode="&#x2009;" horiz-adv-x="133" 
 />
    <glyph glyph-name="hairspace" unicode="&#x200a;" horiz-adv-x="75" 
 />
    <glyph glyph-name="endash" unicode="&#x2013;" horiz-adv-x="488" 
d="M64 272l12 49h367l-12 -49h-367z" />
    <glyph glyph-name="emdash" unicode="&#x2014;" horiz-adv-x="800" 
d="M64 272l12 49h678l-12 -49h-678z" />
    <glyph glyph-name="quoteleft" unicode="&#x2018;" horiz-adv-x="206" 
d="M130 514l18 73q13 51 36 76t72 40l8 -25q-36 -13 -53.5 -32t-22.5 -48h27l-20 -84h-65z" />
    <glyph glyph-name="quoteright" unicode="&#x2019;" horiz-adv-x="206" 
d="M115 511l-8 25q68 25 76 80h-27l20 84h65l-18 -73q-13 -51 -36 -76t-72 -40z" />
    <glyph glyph-name="quotesinglbase" unicode="&#x201a;" horiz-adv-x="206" 
d="M-33 -105l-8 25q67 25 76 80h-27l21 84h64l-18 -73q-13 -51 -36 -76t-72 -40z" />
    <glyph glyph-name="quotedblleft" unicode="&#x201c;" horiz-adv-x="371" 
d="M130 514l17 73q13 51 36.5 76t72.5 40l7 -25q-67 -25 -75 -80h27l-21 -84h-64zM294 514l18 73q13 51 36 76t72 40l8 -25q-36 -13 -53.5 -32t-22.5 -48h27l-20 -84h-65z" />
    <glyph glyph-name="quotedblright" unicode="&#x201d;" horiz-adv-x="371" 
d="M114 511l-8 25q68 25 76 80h-27l21 84h64l-17 -73q-13 -51 -37 -76t-72 -40zM279 511l-8 25q36 13 53.5 32t22.5 48h-27l20 84h65l-17 -73q-14 -52 -37.5 -76.5t-71.5 -39.5z" />
    <glyph glyph-name="quotedblbase" unicode="&#x201e;" horiz-adv-x="371" 
d="M-33 -105l-8 25q67 25 76 80h-27l21 84h64l-18 -73q-13 -51 -36 -76t-72 -40zM133 -105l-8 25q36 13 53 32t22 48h-27l21 84h65l-18 -73q-13 -51 -36.5 -76t-71.5 -40z" />
    <glyph glyph-name="dagger" unicode="&#x2020;" horiz-adv-x="355" 
d="M139 238l75 287l-114 -8l11 45l110 -8l27 146h50l-45 -146l114 8l-10 -45l-112 8l-63 -287h-43z" />
    <glyph glyph-name="daggerdbl" unicode="&#x2021;" horiz-adv-x="376" 
d="M87 0l45 146l-114 -8l11 45l111 -8l35 175l50 175l-115 -8l11 45l111 -8l27 146h49l-44 -146l114 8l-11 -45l-111 8l-35 -175l-50 -175l115 8l-11 -45l-110 8l-28 -146h-50z" />
    <glyph glyph-name="bullet" unicode="&#x2022;" horiz-adv-x="421" 
d="M245 476q41 0 67.5 -27t26.5 -73q0 -66 -44 -110q-37 -37 -85 -37q-42 0 -68 27t-26 73q0 66 44 110q37 37 85 37z" />
    <glyph glyph-name="ellipsis" unicode="&#x2026;" horiz-adv-x="618" 
d="M8 0l21 85h65l-21 -85h-65zM214 0l20 85h66l-21 -85h-65zM419 0l21 85h66l-21 -85h-66z" />
    <glyph glyph-name="perthousand" unicode="&#x2030;" horiz-adv-x="1065" 
d="M52 0l317 361l294 339h53l-316 -361l-294 -339h-54zM208 354q-53 0 -87 39t-34 101q0 103 65 166q47 47 106 47q53 0 87.5 -39t34.5 -101q0 -99 -65 -166q-47 -47 -107 -47zM212 396q36 0 69 31q52 54 52 138q0 47 -20.5 73.5t-57.5 26.5q-38 0 -69 -31q-53 -53 -53 -137
q0 -47 21 -74t58 -27zM510 -7q-53 0 -87 39t-34 101q0 100 64 166q49 47 107 47q53 0 87 -39t34 -101q0 -102 -64 -166q-47 -47 -107 -47zM514 35q36 0 69 31q52 54 52 137q0 47 -21 74t-58 27t-68 -31q-53 -53 -53 -138q0 -47 21 -73.5t58 -26.5zM853 -7q-53 0 -87.5 39
t-34.5 101q0 99 65 166q47 47 106 47q54 0 88 -39t34 -101q0 -101 -65 -166q-47 -47 -106 -47zM856 35q38 0 69 31q53 53 53 137q0 47 -21 74t-58 27q-38 0 -69 -31q-53 -53 -53 -138q0 -47 21 -73.5t58 -26.5z" />
    <glyph glyph-name="guilsinglleft" unicode="&#x2039;" horiz-adv-x="282" 
d="M138 42l-98 209l2 8l199 209l33 -26l-177 -193l79 -188z" />
    <glyph glyph-name="guilsinglright" unicode="&#x203a;" horiz-adv-x="282" 
d="M142 468l98 -209l-2 -8l-199 -209l-33 26l177 193l-79 188z" />
    <glyph glyph-name="fraction" unicode="&#x2044;" horiz-adv-x="88" 
d="M-272 0l302 356l286 344h44l-303 -356l-285 -344h-44z" />
    <glyph glyph-name="zero.sup" unicode="&#x2070;" horiz-adv-x="353" 
d="M405 697q0 -55 -22.5 -120.5t-62.5 -105.5q-41 -41 -91 -41q-46 0 -72 33.5t-26 88.5q0 56 22.5 121t62.5 105q40 42 91 42q46 0 72 -34t26 -89zM169 554q0 -90 64 -90q31 0 59 28q34 34 54.5 95.5t20.5 108.5q0 89 -64 89q-32 0 -59 -27q-34 -34 -54.5 -95.5
t-20.5 -108.5z" />
    <glyph glyph-name="four.sup" unicode="&#x2074;" horiz-adv-x="353" 
d="M274 436l20 86h-173v32l233 262h48l-64 -262h49l-8 -32h-49l-21 -86h-35zM165 554h138l51 211h-2z" />
    <glyph glyph-name="five.sup" unicode="&#x2075;" horiz-adv-x="353" 
d="M237 430q-79 0 -119 63l29 21q33 -51 92 -51q42 0 70.5 29t28.5 69q0 35 -21 52t-55 17q-36 0 -70 -19l-28 19l57 182h194l-9 -38h-162l-40 -123q30 14 62 14q50 0 80 -27t30 -76q0 -54 -40 -93t-99 -39z" />
    <glyph glyph-name="six.sup" unicode="&#x2076;" horiz-adv-x="353" 
d="M237 431q-49 0 -80 31t-31 95q0 56 21.5 118t59.5 100q45 45 102 45q60 0 100 -45l-24 -27q-35 38 -77 38q-41 0 -74 -33q-41 -41 -63 -123q35 46 93 46q43 0 72 -27t29 -75q0 -57 -37 -100t-91 -43zM238 464q38 0 64 32t26 74q0 34 -19 53.5t-51 19.5q-36 0 -63 -27
q-30 -28 -30 -74q0 -36 19.5 -57t53.5 -21z" />
    <glyph glyph-name="seven.sup" unicode="&#x2077;" horiz-adv-x="353" 
d="M142 436l235 338h-195l9 38h238l-7 -29l-236 -347h-44z" />
    <glyph glyph-name="eight.sup" unicode="&#x2078;" horiz-adv-x="353" 
d="M242 430q-56 0 -90.5 28t-34.5 70q0 43 27.5 72t73.5 37q-48 26 -48 77q0 44 37 75t88 31q50 0 82 -26.5t32 -68.5q0 -37 -24 -64t-61 -36q55 -25 55 -83q0 -47 -39 -79.5t-98 -32.5zM244 464q42 0 69 22.5t27 56.5q0 30 -23.5 50.5t-63.5 20.5q-44 0 -71 -23t-27 -58
q0 -29 24.5 -49t64.5 -20zM285 646q39 0 63 22t24 53q0 29 -22 48t-55 19q-38 0 -62 -21.5t-24 -54.5q0 -29 21 -47.5t55 -18.5z" />
    <glyph glyph-name="nine.sup" unicode="&#x2079;" horiz-adv-x="353" 
d="M229 429q-61 0 -106 50l24 27q39 -42 83 -42q43 0 75 34q41 41 61 118q-13 -18 -37.5 -32.5t-54.5 -14.5q-43 0 -72.5 27.5t-29.5 76.5q0 58 36 102t91 44q49 0 81 -31.5t32 -95.5q0 -56 -21.5 -118t-59.5 -99q-46 -46 -102 -46zM280 603q35 0 62 25q31 31 31 77
q0 37 -20 59t-54 22q-39 0 -64 -33t-25 -76q0 -35 18.5 -54.5t51.5 -19.5z" />
    <glyph glyph-name="zero.inf" unicode="&#x2080;" horiz-adv-x="353" 
d="M267 127q0 -55 -22.5 -120.5t-62.5 -105.5q-41 -41 -91 -41q-46 0 -72 33.5t-26 88.5q0 56 22.5 121t62.5 105q40 42 91 42q46 0 72 -34t26 -89zM31 -16q0 -90 64 -90q31 0 59 28q34 34 54.5 95.5t20.5 108.5q0 89 -64 89q-32 0 -59 -27q-34 -34 -54.5 -95.5
t-20.5 -108.5z" />
    <glyph glyph-name="one.inf" unicode="&#x2081;" horiz-adv-x="287" 
d="M49 -132l82 335l-90 -35l1 38l105 40h33l-93 -378h-38z" />
    <glyph glyph-name="two.inf" unicode="&#x2082;" horiz-adv-x="353" 
d="M-40 -132l7 30l191 159q34 29 49.5 51t15.5 48q0 27 -19.5 43t-51.5 16q-44 0 -94 -48l-23 25q56 58 121 58q47 0 76 -25.5t29 -66.5q0 -57 -78 -122l-159 -132h191l-9 -36h-246z" />
    <glyph glyph-name="three.inf" unicode="&#x2083;" horiz-adv-x="353" 
d="M97 -140q-43 0 -75.5 19t-48.5 48l29 20q35 -54 95 -54q42 0 68 24t26 60q0 70 -95 70h-12l-7 23l151 136h-177l9 36h227l-7 -30l-153 -136q45 -5 73.5 -29.5t28.5 -66.5q0 -51 -38.5 -85.5t-93.5 -34.5z" />
    <glyph glyph-name="four.inf" unicode="&#x2084;" horiz-adv-x="353" 
d="M136 -134l20 86h-173v32l233 262h48l-64 -262h49l-8 -32h-49l-21 -86h-35zM27 -16h138l51 211h-2z" />
    <glyph glyph-name="five.inf" unicode="&#x2085;" horiz-adv-x="353" 
d="M98 -140q-79 0 -119 63l29 21q33 -51 92 -51q42 0 70.5 29t28.5 69q0 35 -21 52t-55 17q-36 0 -70 -19l-28 19l57 182h194l-9 -38h-162l-40 -123q30 14 62 14q50 0 80 -27t30 -76q0 -54 -40 -93t-99 -39z" />
    <glyph glyph-name="six.inf" unicode="&#x2086;" horiz-adv-x="353" 
d="M99 -139q-49 0 -80 31t-31 95q0 56 21.5 118t59.5 100q45 45 102 45q60 0 100 -45l-24 -27q-35 38 -77 38q-41 0 -74 -33q-41 -41 -63 -123q35 46 93 46q43 0 72 -27t29 -75q0 -57 -37 -100t-91 -43zM100 -106q38 0 64 32t26 74q0 34 -19 53.5t-51 19.5q-36 0 -63 -27
q-30 -28 -30 -74q0 -36 19.5 -57t53.5 -21z" />
    <glyph glyph-name="seven.inf" unicode="&#x2087;" horiz-adv-x="353" 
d="M9 -134l235 338h-195l9 38h238l-7 -29l-236 -347h-44z" />
    <glyph glyph-name="eight.inf" unicode="&#x2088;" horiz-adv-x="353" 
d="M104 -140q-56 0 -90.5 28t-34.5 70q0 43 27.5 72t73.5 37q-48 26 -48 77q0 44 37 75t88 31q50 0 82 -26.5t32 -68.5q0 -37 -24 -64t-61 -36q55 -25 55 -83q0 -47 -39 -79.5t-98 -32.5zM106 -106q42 0 69 22.5t27 56.5q0 30 -23.5 50.5t-63.5 20.5q-44 0 -71 -23t-27 -58
q0 -29 24.5 -49t64.5 -20zM147 76q39 0 63 22t24 53q0 29 -22 48t-55 19q-38 0 -62 -21.5t-24 -54.5q0 -29 21 -47.5t55 -18.5z" />
    <glyph glyph-name="nine.inf" unicode="&#x2089;" horiz-adv-x="353" 
d="M91 -141q-61 0 -106 50l24 27q39 -42 83 -42q43 0 75 34q41 41 61 118q-13 -18 -37.5 -32.5t-54.5 -14.5q-43 0 -72.5 27.5t-29.5 76.5q0 58 36 102t91 44q49 0 81 -31.5t32 -95.5q0 -56 -21.5 -118t-59.5 -99q-46 -46 -102 -46zM142 33q35 0 62 25q31 31 31 77
q0 37 -20 59t-54 22q-39 0 -64 -33t-25 -76q0 -35 18.5 -54.5t51.5 -19.5z" />
    <glyph glyph-name="colonmonetary" unicode="&#x20a1;" horiz-adv-x="526" 
d="M537 779h44l-49 -123q24 -19 44 -44l-32 -30q-12 15 -32 33l-222 -576q72 0 146 57l23 -36q-83 -64 -174 -64h-10l-44 -114h-45l47 119q-41 9 -77 34l-59 -153h-44l71 182q-64 70 -64 192q0 102 36 200t99 161q80 80 178 86l30 76h44l-30 -77q44 -4 80 -23zM172 81
q35 -32 80 -39l230 594q-38 21 -84 24zM108 256q0 -88 37 -144l213 547q-69 -10 -130 -69q-54 -55 -87.5 -147t-32.5 -187z" />
    <glyph glyph-name="naira" unicode="&#x20a6;" horiz-adv-x="716" 
d="M671 239h-90l-58 -239h-64l-67 239h-220l-59 -239h-46l58 239h-88l10 40h87l36 146h-89l11 40h87l58 235h69l67 -235h217l58 235h46l-57 -235h89l-10 -40h-89l-36 -146h90zM217 425l-36 -146h200l-42 146h-122zM383 425l42 -146h120l35 146h-197zM273 655l-47 -192h102z
M436 241l54 -187l45 187h-99z" />
    <glyph glyph-name="rupee" unicode="&#x20a8;" horiz-adv-x="922" 
d="M801 131q0 29 -19.5 54.5t-70.5 54.5q-62 36 -88.5 67.5t-26.5 75.5q0 60 44.5 101t116.5 41q87 0 158 -67l-31 -33q-63 58 -129 58q-51 0 -81 -27.5t-30 -66.5q0 -29 19 -52.5t73 -55.5q62 -36 87.5 -69t25.5 -75q0 -63 -47.5 -105t-116.5 -42q-108 0 -184 85l33 33
q69 -75 154 -75q46 0 79.5 27t33.5 71zM380 0l-101 283q-5 -1 -154 -1l-68 -282h-47l171 700h149q94 0 150 -47t56 -132q0 -88 -59 -150.5t-150 -81.5l106 -289h-53zM136 323h118q104 0 168.5 54t64.5 146q0 65 -41 99t-114 34h-116z" />
    <glyph glyph-name="won" unicode="&#x20a9;" horiz-adv-x="952" 
d="M917 239h-160l-117 -242h-57l-5 242h-212l-122 -242h-58v242h-158l9 39h149l1 148h-114l10 39h104l1 235h49l-4 -235h201l118 237h63l1 -237h201l111 235h53l-114 -235h105l-9 -39h-115l-72 -148h150zM577 278l-1 148h-117l-73 -148h191zM229 278h113l72 148h-183z
M617 426l1 -148h113l68 148h-182zM620 45h4l89 194h-95zM225 45h3l95 194h-95zM570 649l-91 -184h96l-1 184h-4z" />
    <glyph glyph-name="sheqel" unicode="&#x20aa;" horiz-adv-x="552" 
d="M4 0l125 510h121q135 0 135 -108q0 -31 -8 -63l-41 -168h-45l42 168q7 28 7 54q0 42 -23 58t-68 16h-86l-114 -467h-45zM312 0q-143 0 -128 154l19 195h42l-17 -184q-6 -66 14.5 -94t70.5 -28h74l114 467h45l-125 -510h-109z" />
    <glyph glyph-name="Euro" unicode="&#x20ac;" horiz-adv-x="585" 
d="M70 416l10 44h66q39 106 103 169q79 81 187 81q131 0 187 -123l-40 -23q-53 101 -154 101q-79 0 -144 -65q-56 -56 -87 -140h261l-11 -44h-264q-19 -64 -22 -124h256l-11 -45h-246q2 -97 45 -154.5t120 -57.5q84 0 159 77l31 -32q-88 -90 -193 -90q-94 0 -152.5 68.5
t-59.5 188.5h-82l11 45h72q3 60 20 124h-62z" />
    <glyph glyph-name="peso" unicode="&#x20b1;" horiz-adv-x="625" 
d="M650 458h-81q-15 -75 -64 -124q-84 -82 -242 -82h-98l-61 -252h-50l112 458h-89l11 41h88l49 201h131q114 0 170 -56q48 -48 48 -130q0 -2 -0.5 -7t-0.5 -8h88zM175 296h90q136 0 203 67q38 37 51 96h-304zM263 655l-39 -157h300q1 5 1 16q0 62 -35 97q-44 44 -136 44
h-91z" />
    <glyph glyph-name="published" unicode="&#x2117;" horiz-adv-x="736" 
d="M335 543h94q58 0 91.5 -26.5t33.5 -77.5q0 -62 -46 -99.5t-124 -37.5h-67l-32 -130h-41zM512 437q0 68 -82 68h-64l-40 -164h63q54 0 88 24t35 72zM430 712q131 0 209 -86.5t78 -218.5q0 -87 -32 -172t-91 -145q-102 -102 -242 -102q-131 0 -209 86.5t-78 218.5
q0 88 32 173t91 144q102 102 242 102zM354 16q126 0 217 91q56 56 85.5 137t29.5 164q1 117 -68 196.5t-191 79.5q-127 0 -216 -91q-56 -55 -85.5 -136t-30.5 -165q0 -117 69 -196.5t190 -79.5z" />
    <glyph glyph-name="servicemark" unicode="&#x2120;" horiz-adv-x="618" 
d="M182 385q-64 0 -109 59l27 22q37 -50 84 -50q28 0 47.5 16t19.5 38q0 31 -53 62q-41 24 -56 42.5t-15 45.5q0 31 23 56q29 29 75 29q54 0 98 -49l-25 -25q-38 43 -77 43q-27 0 -43.5 -15.5t-16.5 -35.5q0 -18 12.5 -31t45.5 -32q66 -39 66 -87q0 -33 -26 -59
q-29 -29 -77 -29zM332 390l79 310h34l56 -176l139 176h42l-79 -310h-33l63 249l-142 -177h-5l-57 177l-63 -249h-34z" />
    <glyph glyph-name="trademark" unicode="&#x2122;" horiz-adv-x="598" 
d="M131 390l70 277h-86l10 33h204l-9 -33h-86l-70 -277h-33zM311 390l79 310h34l56 -176l140 176h41l-78 -310h-34l63 249l-142 -177h-5l-56 177l-64 -249h-34z" />
    <glyph glyph-name="onethird" unicode="&#x2153;" horiz-adv-x="728" 
d="M488 -8q-43 0 -75.5 19t-48.5 48l29 20q35 -54 95 -54q42 0 68 24t26 60q0 70 -95 70h-12l-7 23l151 136h-177l9 36h227l-7 -30l-153 -136q45 -5 73.5 -29.5t28.5 -66.5q0 -51 -38.5 -85.5t-93.5 -34.5zM138 326l81 336l-90 -35l2 37l104 41h33l-92 -379h-38zM12 0
l302 356l286 344h44l-303 -356l-285 -344h-44z" />
    <glyph glyph-name="twothirds" unicode="&#x2154;" horiz-adv-x="794" 
d="M555 -8q-43 0 -75.5 19t-48.5 48l29 20q35 -54 95 -54q42 0 68 24t26 60q0 70 -95 70h-12l-7 23l151 136h-177l9 36h227l-7 -30l-153 -136q45 -5 73.5 -29.5t28.5 -66.5q0 -51 -38.5 -85.5t-93.5 -34.5zM42 326l7 30l191 159q34 29 49.5 51t15.5 48q0 27 -19.5 43
t-51.5 16q-44 0 -94 -48l-23 25q56 58 121 58q47 0 76 -25.5t29 -66.5q0 -57 -78 -122l-159 -132h191l-9 -36h-246zM81 0l302 356l286 344h44l-303 -356l-285 -344h-44z" />
    <glyph glyph-name="onefifth" unicode="&#x2155;" horiz-adv-x="728" 
d="M486 -8q-79 0 -119 63l29 21q33 -51 92 -51q42 0 70.5 29t28.5 69q0 35 -21 52t-55 17q-36 0 -70 -19l-28 19l57 182h194l-9 -38h-162l-40 -123q30 14 62 14q50 0 80 -27t30 -76q0 -54 -40 -93t-99 -39zM138 326l81 336l-90 -35l2 37l104 41h33l-92 -379h-38zM15 0
l302 356l286 344h44l-303 -356l-285 -344h-44z" />
    <glyph glyph-name="twofifths" unicode="&#x2156;" horiz-adv-x="794" 
d="M557 -8q-79 0 -119 63l29 21q33 -51 92 -51q42 0 70.5 29t28.5 69q0 35 -21 52t-55 17q-36 0 -70 -19l-28 19l57 182h194l-9 -38h-162l-40 -123q30 14 62 14q50 0 80 -27t30 -76q0 -54 -40 -93t-99 -39zM89 0l302 356l286 344h44l-303 -356l-285 -344h-44zM42 326l7 30
l191 159q34 29 49.5 51t15.5 48q0 27 -19.5 43t-51.5 16q-44 0 -94 -48l-23 25q56 58 121 58q47 0 76 -25.5t29 -66.5q0 -57 -78 -122l-159 -132h191l-9 -36h-246z" />
    <glyph glyph-name="threefifths" unicode="&#x2157;" horiz-adv-x="794" 
d="M557 -8q-79 0 -119 63l29 21q33 -51 92 -51q42 0 70.5 29t28.5 69q0 35 -21 52t-55 17q-36 0 -70 -19l-28 19l57 182h194l-9 -38h-162l-40 -123q30 14 62 14q50 0 80 -27t30 -76q0 -54 -40 -93t-99 -39zM76 0l302 356l286 344h44l-303 -356l-285 -344h-44zM175 318
q-43 0 -75.5 19t-48.5 48l29 20q35 -54 95 -54q42 0 68 24t26 60q0 70 -95 70h-12l-7 23l151 136h-177l9 36h227l-7 -30l-153 -136q45 -5 73.5 -29.5t28.5 -66.5q0 -51 -38.5 -85.5t-93.5 -34.5z" />
    <glyph glyph-name="fourfifths" unicode="&#x2158;" horiz-adv-x="794" 
d="M216 325l20 85h-173v32l233 263h48l-64 -262h49l-8 -33h-49l-21 -85h-35zM107 443h137l52 210h-2zM557 -8q-79 0 -119 63l29 21q33 -51 92 -51q42 0 70.5 29t28.5 69q0 35 -21 52t-55 17q-36 0 -70 -19l-28 19l57 182h194l-9 -38h-162l-40 -123q30 14 62 14q50 0 80 -27
t30 -76q0 -54 -40 -93t-99 -39zM88 0l302 356l286 344h44l-303 -356l-285 -344h-44z" />
    <glyph glyph-name="onesixth" unicode="&#x2159;" horiz-adv-x="728" 
d="M484 -7q-49 0 -80 31t-31 95q0 56 21.5 118t59.5 100q45 45 102 45q60 0 100 -45l-24 -27q-35 38 -77 38q-41 0 -74 -33q-41 -41 -63 -123q34 46 93 46q43 0 72 -27t29 -75q0 -57 -37 -100t-91 -43zM22 0l302 356l286 344h44l-303 -356l-285 -344h-44zM485 26q38 0 64 32
t26 74q0 34 -19 53.5t-51 19.5q-36 0 -63 -27q-30 -28 -30 -74q0 -36 19.5 -57t53.5 -21zM138 326l81 336l-90 -35l2 37l104 41h33l-92 -379h-38z" />
    <glyph glyph-name="fivesixths" unicode="&#x215a;" horiz-adv-x="794" 
d="M556 -7q-49 0 -80 31t-31 95q0 56 21.5 118t59.5 100q45 45 102 45q60 0 100 -45l-24 -27q-35 38 -77 38q-41 0 -74 -33q-41 -41 -63 -123q34 46 93 46q43 0 72 -27t29 -75q0 -57 -37 -100t-91 -43zM178 318q-79 0 -119 63l29 21q33 -51 92 -51q42 0 70.5 29t28.5 69
q0 35 -21 52t-55 17q-36 0 -70 -19l-28 19l57 182h194l-9 -38h-162l-40 -123q30 14 62 14q50 0 80 -27t30 -76q0 -54 -40 -93t-99 -39zM80 0l302 356l286 344h44l-303 -356l-285 -344h-44zM557 26q38 0 64 32t26 74q0 34 -19 53.5t-51 19.5q-36 0 -63 -27q-30 -28 -30 -74
q0 -36 19.5 -57t53.5 -21z" />
    <glyph glyph-name="oneeighth" unicode="&#x215b;" horiz-adv-x="728" 
d="M490 -8q-56 0 -90.5 28t-34.5 70q0 43 27.5 72t73.5 37q-48 26 -48 77q0 44 37 75t88 31q50 0 82 -26.5t32 -68.5q0 -37 -24 -64t-61 -36q55 -25 55 -83q0 -47 -39 -79.5t-98 -32.5zM492 26q42 0 69 22.5t27 56.5q0 30 -23.5 50.5t-63.5 20.5q-44 0 -71 -23t-27 -58
q0 -29 24.5 -49t64.5 -20zM533 208q39 0 63 22t24 53q0 29 -22 48t-55 19q-38 0 -62 -21.5t-24 -54.5q0 -29 21 -47.5t55 -18.5zM138 326l81 336l-90 -35l2 37l104 41h33l-92 -379h-38zM22 0l302 356l286 344h44l-303 -356l-285 -344h-44z" />
    <glyph glyph-name="threeeighths" unicode="&#x215c;" horiz-adv-x="794" 
d="M562 -8q-56 0 -90.5 28t-34.5 70q0 43 27.5 72t73.5 37q-48 26 -48 77q0 44 37 75t88 31q50 0 82 -26.5t32 -68.5q0 -37 -24 -64t-61 -36q55 -25 55 -83q0 -47 -39 -79.5t-98 -32.5zM564 26q42 0 69 22.5t27 56.5q0 30 -23.5 50.5t-63.5 20.5q-44 0 -71 -23t-27 -58
q0 -29 24.5 -49t64.5 -20zM605 208q39 0 63 22t24 53q0 29 -22 48t-55 19q-38 0 -62 -21.5t-24 -54.5q0 -29 21 -47.5t55 -18.5zM80 0l302 356l286 344h44l-303 -356l-285 -344h-44zM177 318q-43 0 -75.5 19t-48.5 48l29 20q35 -54 95 -54q42 0 68 24t26 60q0 70 -95 70h-12
l-7 23l151 136h-177l9 36h227l-7 -30l-153 -136q45 -5 73.5 -29.5t28.5 -66.5q0 -51 -38.5 -85.5t-93.5 -34.5z" />
    <glyph glyph-name="fiveeighths" unicode="&#x215d;" horiz-adv-x="794" 
d="M562 -8q-56 0 -90.5 28t-34.5 70q0 43 27.5 72t73.5 37q-48 26 -48 77q0 44 37 75t88 31q50 0 82 -26.5t32 -68.5q0 -37 -24 -64t-61 -36q55 -25 55 -83q0 -47 -39 -79.5t-98 -32.5zM564 26q42 0 69 22.5t27 56.5q0 30 -23.5 50.5t-63.5 20.5q-44 0 -71 -23t-27 -58
q0 -29 24.5 -49t64.5 -20zM605 208q39 0 63 22t24 53q0 29 -22 48t-55 19q-38 0 -62 -21.5t-24 -54.5q0 -29 21 -47.5t55 -18.5zM80 0l302 356l286 344h44l-303 -356l-285 -344h-44zM178 318q-79 0 -119 63l29 21q33 -51 92 -51q42 0 70.5 29t28.5 69q0 35 -21 52t-55 17
q-36 0 -70 -19l-28 19l57 182h194l-9 -38h-162l-40 -123q30 14 62 14q50 0 80 -27t30 -76q0 -54 -40 -93t-99 -39z" />
    <glyph glyph-name="seveneighths" unicode="&#x215e;" horiz-adv-x="794" 
d="M556 -8q-56 0 -90.5 28t-34.5 70q0 43 27.5 72t73.5 37q-48 26 -48 77q0 44 37 75t88 31q50 0 82 -26.5t32 -68.5q0 -37 -24 -64t-61 -36q55 -25 55 -83q0 -47 -39 -79.5t-98 -32.5zM558 26q42 0 69 22.5t27 56.5q0 30 -23.5 50.5t-63.5 20.5q-44 0 -71 -23t-27 -58
q0 -29 24.5 -49t64.5 -20zM599 208q39 0 63 22t24 53q0 29 -22 48t-55 19q-38 0 -62 -21.5t-24 -54.5q0 -29 21 -47.5t55 -18.5zM98 325l234 337h-195l9 38h238l-6 -29l-236 -346h-44zM48 0l302 356l286 344h44l-303 -356l-285 -344h-44z" />
    <glyph glyph-name="minus" unicode="&#x2212;" horiz-adv-x="534" 
d="M74 328l11 48h422l-11 -48h-422z" />
    <glyph glyph-name="Q.alt" horiz-adv-x="711" 
d="M571 -23l-62 77q-83 -66 -184 -66q-111 0 -178.5 76.5t-67.5 198.5q0 96 36.5 193.5t99.5 159.5q95 95 217 95q111 0 178.5 -76.5t67.5 -198.5q0 -94 -36.5 -191t-98.5 -160l65 -77zM326 34q85 0 154 55l-97 117l37 31l93 -116q52 58 83.5 145t31.5 169q0 103 -54 166.5
t-143 63.5q-101 0 -179 -80q-56 -56 -89.5 -145.5t-33.5 -175.5q0 -102 54 -166t143 -64z" />
    <glyph glyph-name="a.alt" horiz-adv-x="561" 
d="M215 -11q-76 0 -123 55.5t-47 147.5q0 75 27 147t74 119q68 68 154 68q66 0 108.5 -38t59.5 -96l30 123h47l-126 -515h-46l24 95q-82 -106 -182 -106zM223 32q72 0 134 62q40 39 64 100.5t24 122.5q0 72 -40 119t-103 47q-69 0 -122 -53q-40 -41 -63 -104t-23 -129
q0 -75 34.5 -120t94.5 -45z" />
    <glyph glyph-name="aacute.alt" horiz-adv-x="561" 
d="M323 590l113 130l56 -29l-124 -101h-45zM215 -11q-76 0 -123 55.5t-47 147.5q0 75 27 147t74 119q68 68 154 68q66 0 108.5 -38t59.5 -96l30 123h47l-126 -515h-46l24 95q-82 -106 -182 -106zM223 32q72 0 134 62q40 39 64 100.5t24 122.5q0 72 -40 119t-103 47
q-69 0 -122 -53q-40 -41 -63 -104t-23 -129q0 -75 34.5 -120t94.5 -45z" />
    <glyph glyph-name="abreve.alt" horiz-adv-x="561" 
d="M215 -11q-76 0 -123 55.5t-47 147.5q0 75 27 147t74 119q68 68 154 68q66 0 108.5 -38t59.5 -96l30 123h47l-126 -515h-46l24 95q-82 -106 -182 -106zM223 32q72 0 134 62q40 39 64 100.5t24 122.5q0 72 -40 119t-103 47q-69 0 -122 -53q-40 -41 -63 -104t-23 -129
q0 -75 34.5 -120t94.5 -45zM354 589q-52 0 -78.5 28t-17.5 78h37q-1 -30 15 -45.5t51 -15.5q63 0 96 61h41q-18 -50 -56.5 -78t-87.5 -28z" />
    <glyph glyph-name="acircumflex.alt" horiz-adv-x="561" 
d="M240 591l119 122h38l59 -122h-41l-45 71l-85 -71h-45zM215 -11q-76 0 -123 55.5t-47 147.5q0 75 27 147t74 119q68 68 154 68q66 0 108.5 -38t59.5 -96l30 123h47l-126 -515h-46l24 95q-82 -106 -182 -106zM223 32q72 0 134 62q40 39 64 100.5t24 122.5q0 72 -40 119
t-103 47q-69 0 -122 -53q-40 -41 -63 -104t-23 -129q0 -75 34.5 -120t94.5 -45z" />
    <glyph glyph-name="adieresis.alt" horiz-adv-x="561" 
d="M250 593l19 75h62l-19 -75h-62zM392 593l19 75h61l-18 -75h-62zM215 -11q-76 0 -123 55.5t-47 147.5q0 75 27 147t74 119q68 68 154 68q66 0 108.5 -38t59.5 -96l30 123h47l-126 -515h-46l24 95q-82 -106 -182 -106zM223 32q72 0 134 62q40 39 64 100.5t24 122.5
q0 72 -40 119t-103 47q-69 0 -122 -53q-40 -41 -63 -104t-23 -129q0 -75 34.5 -120t94.5 -45z" />
    <glyph glyph-name="agrave.alt" horiz-adv-x="561" 
d="M215 -11q-76 0 -123 55.5t-47 147.5q0 75 27 147t74 119q68 68 154 68q66 0 108.5 -38t59.5 -96l30 123h47l-126 -515h-46l24 95q-82 -106 -182 -106zM223 32q72 0 134 62q40 39 64 100.5t24 122.5q0 72 -40 119t-103 47q-69 0 -122 -53q-40 -41 -63 -104t-23 -129
q0 -75 34.5 -120t94.5 -45zM327 590l-79 101l55 29l57 -130h-33z" />
    <glyph glyph-name="amacron.alt" horiz-adv-x="561" 
d="M215 -11q-76 0 -123 55.5t-47 147.5q0 75 27 147t74 119q68 68 154 68q66 0 108.5 -38t59.5 -96l30 123h47l-126 -515h-46l24 95q-82 -106 -182 -106zM223 32q72 0 134 62q40 39 64 100.5t24 122.5q0 72 -40 119t-103 47q-69 0 -122 -53q-40 -41 -63 -104t-23 -129
q0 -75 34.5 -120t94.5 -45zM225 611l12 44h262l-11 -44h-263z" />
    <glyph glyph-name="aogonek.alt" horiz-adv-x="561" 
d="M402 -114l-8 -35q-96 4 -96 59q0 44 76 95l23 90q-82 -106 -182 -106q-76 0 -123 55.5t-47 147.5q0 75 27 147t74 119q68 68 154 68q66 0 108.5 -38t59.5 -96l30 123h47l-126 -515h-6q-68 -53 -68 -81q0 -27 57 -33zM223 32q72 0 134 62q40 39 64 100.5t24 122.5
q0 72 -40 119t-103 47q-69 0 -122 -53q-40 -41 -63 -104t-23 -129q0 -75 34.5 -120t94.5 -45z" />
    <glyph glyph-name="aring.alt" horiz-adv-x="561" 
d="M472 689q0 -41 -32 -70.5t-75 -29.5q-39 0 -64.5 24.5t-25.5 60.5q0 41 32 71t75 30q39 0 64.5 -24.5t25.5 -61.5zM308 675q0 -24 16 -40.5t43 -16.5q30 0 51 20.5t21 49.5q0 24 -15.5 40.5t-42.5 16.5q-30 0 -51.5 -20.5t-21.5 -49.5zM215 -11q-76 0 -123 55.5
t-47 147.5q0 75 27 147t74 119q68 68 154 68q66 0 108.5 -38t59.5 -96l30 123h47l-126 -515h-46l24 95q-82 -106 -182 -106zM223 32q72 0 134 62q40 39 64 100.5t24 122.5q0 72 -40 119t-103 47q-69 0 -122 -53q-40 -41 -63 -104t-23 -129q0 -75 34.5 -120t94.5 -45z" />
    <glyph glyph-name="aring.alt2" horiz-adv-x="496" 
d="M315 0l21 82q-74 -93 -174 -93q-62 0 -104 37.5t-42 103.5q0 80 53 133q57 57 156 57q76 0 162 -28l4 17q8 33 8 63q0 50 -33 78t-97 28t-125 -26l-13 42q53 23 108 26q-21 22 -21 57q0 41 32 70.5t75 29.5q40 0 65.5 -24t25.5 -60q0 -58 -56 -87q85 -34 85 -127
q0 -30 -11 -77l-72 -302h-47zM309 522q30 0 51.5 20.5t21.5 48.5q0 24 -15.5 40.5t-42.5 16.5q-30 0 -51 -20.5t-21 -49.5q0 -24 15.5 -40t41.5 -16zM172 31q64 0 119 46t72 116l15 60q-75 26 -157 26q-71 0 -116 -43q-40 -40 -40 -102q0 -47 29 -75t78 -28z" />
    <glyph glyph-name="aringacute.alt" horiz-adv-x="561" 
d="M380 802l110 112l50 -28l-117 -84h-43zM472 688q0 -41 -32 -70.5t-75 -29.5q-39 0 -64.5 24.5t-25.5 60.5q0 41 32 71t75 30q39 0 64.5 -24.5t25.5 -61.5zM308 674q0 -24 16 -40.5t43 -16.5q30 0 51 20.5t21 49.5q0 24 -15.5 40.5t-42.5 16.5q-30 0 -51.5 -20.5
t-21.5 -49.5zM215 -11q-76 0 -123 55.5t-47 147.5q0 75 27 147t74 119q68 68 154 68q66 0 108.5 -38t59.5 -96l30 123h47l-126 -515h-46l24 95q-82 -106 -182 -106zM223 32q72 0 134 62q40 39 64 100.5t24 122.5q0 72 -40 119t-103 47q-69 0 -122 -53q-40 -41 -63 -104
t-23 -129q0 -75 34.5 -120t94.5 -45z" />
    <glyph glyph-name="aringacute.alt2" horiz-adv-x="496" 
d="M326 714l109 112l50 -28l-116 -84h-43zM315 0l21 82q-74 -93 -174 -93q-62 0 -104 37.5t-42 103.5q0 80 53 133q57 57 156 57q76 0 162 -28l4 17q8 33 8 63q0 50 -33 78t-97 28t-125 -26l-13 42q53 23 108 26q-21 22 -21 57q0 41 32 70.5t75 29.5q40 0 65.5 -24t25.5 -60
q0 -58 -56 -87q85 -34 85 -127q0 -30 -11 -77l-72 -302h-47zM309 522q30 0 51.5 20.5t21.5 48.5q0 24 -15.5 40.5t-42.5 16.5q-30 0 -51 -20.5t-21 -49.5q0 -24 15.5 -40t41.5 -16zM172 31q64 0 119 46t72 116l15 60q-75 26 -157 26q-71 0 -116 -43q-40 -40 -40 -102
q0 -47 29 -75t78 -28z" />
    <glyph glyph-name="atilde.alt" horiz-adv-x="561" 
d="M215 -11q-76 0 -123 55.5t-47 147.5q0 75 27 147t74 119q68 68 154 68q66 0 108.5 -38t59.5 -96l30 123h47l-126 -515h-46l24 95q-82 -106 -182 -106zM223 32q72 0 134 62q40 39 64 100.5t24 122.5q0 72 -40 119t-103 47q-69 0 -122 -53q-40 -41 -63 -104t-23 -129
q0 -75 34.5 -120t94.5 -45zM468 686l33 -9q-21 -48 -41 -67.5t-47 -19.5q-22 0 -57 23q-32 21 -48 21q-27 0 -51 -49l-33 9q20 48 40 67.5t48 19.5q18 0 57 -22q29 -21 48 -21q26 0 51 48z" />
    <glyph glyph-name="three.alt" horiz-adv-x="511" 
d="M211 -11q-139 0 -213 106l39 29q66 -90 177 -90q77 0 127 45.5t50 111.5q0 68 -55 106t-139 38h-17l10 43h24q111 0 177.5 45t66.5 119q0 56 -39.5 89t-103.5 33q-83 0 -157 -57l-28 34q85 69 186 69q83 0 138 -45.5t55 -119.5t-51 -124t-144 -70q58 -19 93.5 -59.5
t35.5 -100.5q0 -85 -67 -143.5t-165 -58.5z" />
    <glyph glyph-name="registered.alt" horiz-adv-x="736" 
d="M430 712q131 0 209 -86.5t78 -218.5q0 -87 -32 -172t-91 -145q-102 -102 -242 -102q-131 0 -209 86.5t-78 218.5q0 88 32 173t91 144q102 102 242 102zM354 16q126 0 217 91q56 56 85.5 137t29.5 164q1 117 -68 196.5t-191 79.5q-127 0 -216 -91q-56 -55 -85.5 -136
t-30.5 -165q0 -117 69 -196.5t190 -79.5zM305 321l-36 -148h-41l91 372h112q65 0 96 -32q26 -24 26 -65q0 -50 -34 -82q-27 -28 -81 -39l66 -154h-46l-63 148h-90zM315 358h76q68 0 98 30q22 22 22 57q0 26 -14 40q-21 21 -72 21h-76z" />
    <glyph glyph-name="R_p" horiz-adv-x="1019" 
d="M10 0l171 700h149q94 0 150 -47t56 -132q0 -88 -59 -150.5t-150 -81.5l106 -289h-53l-101 283q-5 -1 -154 -1l-68 -282h-47zM485 -151l164 670h46l-23 -93q79 102 164 102q70 0 109 -52.5t39 -144.5q0 -79 -27 -155t-74 -123q-62 -64 -138 -64q-57 0 -93 37t-54 96
l-67 -273h-46zM136 323h118q104 0 168.5 54t64.5 146q0 65 -41 99t-114 34h-116zM745 31q58 0 103 47q39 41 63 111t24 139q0 75 -28.5 117t-81.5 42q-59 0 -112 -55q-40 -40 -65 -105t-25 -128q0 -73 33.5 -120.5t88.5 -47.5z" />
    <glyph glyph-name="onehalf.alt" horiz-adv-x="794" 
d="M60 326l8 34h101l74 303l-106 -38l4 38l118 43h33l-85 -346h98l-8 -34h-237zM419 0l7 30l191 159q34 29 49.5 51t15.5 48q0 27 -19.5 43t-51.5 16q-44 0 -94 -48l-23 25q56 58 121 58q47 0 76 -25.5t29 -66.5q0 -57 -78 -122l-159 -132h191l-9 -36h-246zM97 0l302 356
l286 344h44l-303 -356l-285 -344h-44z" />
    <glyph glyph-name="onethird.alt" horiz-adv-x="794" 
d="M60 326l8 34h101l74 303l-106 -38l4 38l118 43h33l-85 -346h98l-8 -34h-237zM555 -8q-43 0 -75.5 19t-48.5 48l29 20q35 -54 95 -54q42 0 68 24t26 60q0 70 -95 70h-12l-7 23l151 136h-177l9 36h227l-7 -30l-153 -136q45 -5 73.5 -29.5t28.5 -66.5q0 -51 -38.5 -85.5
t-93.5 -34.5zM88 0l302 356l286 344h44l-303 -356l-285 -344h-44z" />
    <glyph glyph-name="onequarter.alt" horiz-adv-x="794" 
d="M62 326l8 34h101l74 303l-106 -38l4 38l118 43h33l-85 -346h98l-8 -34h-237zM103 0l302 356l286 344h44l-303 -356l-285 -344h-44zM583 -2l20 86h-173v32l233 262h48l-64 -262h49l-8 -32h-49l-21 -86h-35zM474 116h138l51 211h-2z" />
    <glyph glyph-name="onefifth.alt" horiz-adv-x="794" 
d="M60 326l8 34h101l74 303l-106 -38l4 38l118 43h33l-85 -346h98l-8 -34h-237zM556 -8q-79 0 -119 63l29 21q33 -51 92 -51q42 0 70.5 29t28.5 69q0 35 -21 52t-55 17q-36 0 -70 -19l-28 19l57 182h194l-9 -38h-162l-40 -123q30 14 62 14q50 0 80 -27t30 -76q0 -54 -40 -93
t-99 -39zM93 0l302 356l286 344h44l-303 -356l-285 -344h-44z" />
    <glyph glyph-name="onesixth.alt" horiz-adv-x="794" 
d="M557 -7q-49 0 -80 31t-31 95q0 56 21.5 118t59.5 100q45 45 102 45q60 0 100 -45l-24 -27q-35 38 -77 38q-41 0 -74 -33q-41 -41 -63 -123q35 46 93 46q43 0 72 -27t29 -75q0 -57 -37 -100t-91 -43zM95 0l302 356l286 344h44l-303 -356l-285 -344h-44zM60 326l8 34h101
l74 303l-106 -38l4 38l118 43h33l-85 -346h98l-8 -34h-237zM558 26q38 0 64 32t26 74q0 34 -19 53.5t-51 19.5q-36 0 -63 -27q-30 -28 -30 -74q0 -36 19.5 -57t53.5 -21z" />
    <glyph glyph-name="oneeighth.alt" horiz-adv-x="794" 
d="M60 326l8 34h101l74 303l-106 -38l4 38l118 43h33l-85 -346h98l-8 -34h-237zM563 -8q-56 0 -90.5 28t-34.5 70q0 43 27.5 72t73.5 37q-48 26 -48 77q0 44 37 75t88 31q50 0 82 -26.5t32 -68.5q0 -37 -24 -64t-61 -36q55 -25 55 -83q0 -47 -39 -79.5t-98 -32.5zM565 26
q42 0 69 22.5t27 56.5q0 30 -23.5 50.5t-63.5 20.5q-44 0 -71 -23t-27 -58q0 -29 24.5 -49t64.5 -20zM606 208q39 0 63 22t24 53q0 29 -22 48t-55 19q-38 0 -62 -21.5t-24 -54.5q0 -29 21 -47.5t55 -18.5zM95 0l302 356l286 344h44l-303 -356l-285 -344h-44z" />
    <glyph glyph-name="one.sup_alt" horiz-adv-x="353" 
d="M117 438l8 34h101l74 302l-106 -38l4 38l117 43h33l-84 -345h98l-8 -34h-237z" />
    <glyph glyph-name="one.inf_alt" horiz-adv-x="353" 
d="M-21 -132l8 34h101l74 302l-106 -38l4 38l117 43h33l-84 -345h98l-8 -34h-237z" />
    <glyph glyph-name="zero.tab" 
d="M498 487q0 -111 -42 -235.5t-111 -193.5t-148 -69q-78 0 -122 57.5t-44 166.5q0 111 42 235.5t111 193.5t149 69q77 0 121 -57.5t44 -166.5zM81 214q0 -180 118 -180q59 0 109 50q63 63 101.5 181t38.5 221q0 180 -118 180q-60 0 -108 -50q-63 -63 -102 -181.5
t-39 -220.5z" />
    <glyph glyph-name="one.tab" 
d="M-5 0l11 46h190l145 598l-188 -69v49l212 80h40l-161 -658h172l-11 -46h-410z" />
    <glyph glyph-name="two.tab" 
d="M-34 0l8 36l348 319q64 60 92.5 104t28.5 92q0 51 -36 81.5t-95 30.5q-87 0 -177 -95l-34 33q101 109 213 109q81 0 131 -44.5t50 -114.5q0 -57 -33 -107t-102 -114l-308 -282h352l-12 -48h-426z" />
    <glyph glyph-name="three.tab" 
d="M199 -11q-143 0 -215 114l40 28q61 -96 177 -96q80 0 132 49t52 125q0 64 -49 98.5t-132 37.5h-16l-10 31l284 276h-332l13 48h398l-10 -40l-285 -277q82 -6 137 -51.5t55 -120.5q0 -93 -69.5 -157.5t-169.5 -64.5z" />
    <glyph glyph-name="three.tab_alt" 
d="M200 -11q-72 0 -129 29.5t-91 81.5l40 29q64 -95 182 -95q81 0 129.5 45.5t48.5 111.5q0 72 -57.5 108t-142.5 36h-17l11 43h27q117 2 181.5 46t64.5 118q0 56 -40.5 89t-104.5 33q-86 0 -162 -62l-28 35q88 73 192 73q84 0 139 -45.5t55 -120.5q0 -73 -51 -123t-146 -69
q59 -19 95 -59t36 -102q0 -85 -65.5 -143.5t-166.5 -58.5z" />
    <glyph glyph-name="four.tab" 
d="M276 0l41 167h-315v44l431 493h61l-121 -495h89l-11 -42h-89l-40 -167h-46zM56 209h271l105 430h-1z" />
    <glyph glyph-name="five.tab" 
d="M202 -11q-133 0 -210 107l39 29q65 -92 174 -92q88 0 141 60t53 144q0 69 -40 104.5t-107 35.5q-68 0 -133 -36l-31 23l104 336h331l-12 -48h-288l-80 -256q19 10 52 18t59 8q90 0 143 -48.5t53 -135.5q0 -101 -67.5 -175t-180.5 -74z" />
    <glyph glyph-name="six.tab" 
d="M230 -11q-77 0 -129 52q-60 60 -60 179q0 103 40.5 221t113.5 191q79 79 173 79q95 0 163 -71l-32 -36q-58 61 -133 61q-74 0 -137 -63q-47 -47 -80 -118.5t-46 -144.5q70 100 183 100q79 0 128 -50t49 -133q0 -103 -66.5 -185t-166.5 -82zM233 33q78 0 129 69.5
t51 151.5q0 65 -34.5 103t-100.5 38q-69 0 -124 -55q-59 -59 -59 -153q0 -67 38.5 -110.5t99.5 -43.5z" />
    <glyph glyph-name="seven.tab" 
d="M63 0l418 652h-358l13 48h412l-10 -38l-420 -662h-55z" />
    <glyph glyph-name="eight.tab" 
d="M217 -10q-92 0 -150.5 49t-59.5 125q0 76 50.5 133t130.5 74q-36 18 -59.5 54.5t-23.5 84.5q0 80 61 140t150 60q81 0 135 -46.5t54 -120.5q0 -68 -43.5 -121.5t-110.5 -70.5q42 -21 70.5 -61.5t28.5 -93.5q0 -85 -66 -145.5t-167 -60.5zM220 34q80 0 129.5 47.5
t49.5 118.5q0 60 -43.5 99t-116.5 39q-78 0 -129.5 -51t-51.5 -117q0 -62 45 -99t117 -37zM290 380q76 0 120.5 49.5t44.5 111.5q0 55 -39.5 90t-99.5 35q-71 0 -116 -47.5t-45 -110.5q0 -55 37.5 -91.5t97.5 -36.5z" />
    <glyph glyph-name="nine.tab" 
d="M161 -11q-97 0 -170 78l32 35q65 -67 140 -67t137 64q47 46 80 116t46 140q-71 -101 -184 -101q-79 0 -127.5 50.5t-48.5 135.5q0 103 67 187t167 84q76 0 128 -52q60 -58 60 -179q0 -103 -40.5 -221t-113.5 -191q-79 -79 -173 -79zM251 298q70 0 122 54q61 60 61 158
q0 69 -38 113t-99 44q-79 0 -130 -70.5t-51 -153.5q0 -68 34 -106.5t101 -38.5z" />
    <glyph glyph-name="period.tab" horiz-adv-x="265" 
d="M8 0l23 94h79l-23 -94h-79z" />
    <glyph glyph-name="comma.tab" horiz-adv-x="265" 
d="M-26 -105l-8 25q66 25 76 80h-35l23 94h80l-21 -83q-12 -50 -38 -75t-77 -41z" />
    <glyph glyph-name="colon.tab" horiz-adv-x="265" 
d="M8 0l23 94h79l-23 -94h-79zM110 421l23 93h80l-23 -93h-80z" />
    <glyph glyph-name="semicolon.tab" horiz-adv-x="265" 
d="M-26 -105l-8 25q66 25 76 80h-35l23 94h80l-21 -83q-12 -50 -38 -75t-77 -41zM110 421l23 93h80l-23 -93h-80z" />
    <glyph glyph-name="twodotleader.tab" 
d="M9 0l22 88h76l-22 -88h-76zM273 0l21 88h76l-22 -88h-75z" />
    <glyph glyph-name="periodcentered.tab" horiz-adv-x="265" 
d="M68 251l23 94h80l-23 -94h-80z" />
    <glyph glyph-name="slash.tab" 
d="M-100 -119l658 908h50l-657 -908h-51z" />
    <glyph glyph-name="bar.tab" horiz-adv-x="265" 
d="M-4 -119l224 908h41l-223 -908h-42z" />
    <glyph glyph-name="underscore.tab" 
d="M-124 -160l10 42h530l-11 -42h-529z" />
    <glyph glyph-name="dollar.tab" 
d="M358 766h44l-19 -73q78 -17 144 -78l-32 -36q-56 56 -127 72l-72 -278q76 -38 109.5 -80t33.5 -99q0 -84 -62 -140t-162 -56q-12 0 -18 1l-26 -102h-45l29 106q-107 18 -180 101l33 34q65 -76 161 -93l77 297q-81 40 -114 81.5t-33 94.5q0 77 60.5 130t151.5 53
q20 0 29 -1zM390 193q0 39 -23 70.5t-83 62.5l-76 -285h15q73 0 120 43.5t47 108.5zM148 522q0 -39 24.5 -70.5t86.5 -62.5l70 268q-7 1 -21 1q-71 0 -115.5 -39.5t-44.5 -96.5z" />
    <glyph glyph-name="sterling.tab" 
d="M-27 0l6 23l76 20l66 271h-74l11 43h74l33 142q25 103 73 151q57 57 139 57q98 0 155 -89l-39 -28q-46 72 -119 72q-59 0 -99 -40q-41 -41 -62 -129l-32 -136h237l-11 -43h-238l-65 -270h305l-11 -44h-425z" />
    <glyph glyph-name="Euro.tab" 
d="M52 416l10 41h67q39 107 106 176q77 77 165 77q100 0 147 -93l-38 -25q-40 75 -113 75q-64 0 -124 -60q-58 -58 -92 -150h225l-10 -41h-228q-18 -59 -24 -126h222l-11 -40h-212v-15q0 -98 37 -150t102 -52q61 0 121 57l28 -34q-72 -66 -152 -66q-85 0 -135.5 63
t-50.5 183q0 9 1 14h-82l10 40h73q6 68 22 126h-64z" />
    <glyph glyph-name="yen.tab" 
d="M62 271l10 40h146l-117 389h55l104 -367l284 367h62l-311 -389h142l-10 -40h-158l-26 -106h158l-10 -40h-158l-30 -125h-48l30 125h-159l10 40h159l26 106h-159z" />
    <glyph glyph-name="cent.tab" 
d="M419 705l-32 -91q85 -22 123 -97l-37 -25q-35 62 -101 80l-151 -442q20 -2 30 -2q80 0 154 64l28 -32q-81 -75 -186 -75q-21 0 -40 3l-34 -94h-45l39 106q-55 23 -87 74t-32 120q0 70 25 136.5t71 113.5q77 77 183 77q12 0 18 -1l29 85h45zM96 296q0 -56 23.5 -95.5
t63.5 -58.5l150 436h-9q-82 0 -143 -61q-40 -40 -62.5 -100.5t-22.5 -120.5z" />
    <glyph glyph-name="numbersign.tab" 
d="M59 0l51 187h-91l10 43h93l65 242h-96l10 43h98l51 185h41l-51 -185h167l51 185h41l-51 -185h92l-10 -43h-94l-65 -242h97l-10 -43h-99l-50 -187h-42l51 187h-167l-51 -187h-41zM163 230h167l65 242h-166z" />
    <glyph glyph-name="paragraph.tab" 
d="M290 0l63 261h-26q-132 0 -192 61q-47 47 -47 124q0 104 68 170q82 84 245 84h110l-171 -700h-50z" />
    <glyph glyph-name="section.tab" 
d="M210 -9q-104 0 -175 64l30 35q62 -56 149 -56q46 0 76 20.5t30 53.5q0 30 -26 54t-88 53q-84 38 -120 71t-36 76q0 56 48.5 91t128.5 36q-69 39 -69 100q0 54 44 87t114 33q103 0 176 -65l-30 -36q-64 58 -150 58q-46 0 -76 -20.5t-30 -53.5q0 -30 26 -54t88 -53
q84 -38 120 -71t36 -76q0 -56 -49 -91.5t-128 -35.5q69 -40 69 -100q0 -54 -44 -87t-114 -33zM300 245q54 0 91 25t37 64q0 29 -22.5 50.5t-74.5 45.5q-55 25 -105 25q-54 0 -91 -25t-37 -64q0 -29 22.5 -50.5t74.5 -45.5q53 -25 105 -25z" />
    <glyph glyph-name="degree.tab" 
d="M329 707q65 0 107.5 -44t42.5 -116q0 -103 -70 -173q-59 -57 -131 -57q-65 0 -107.5 44t-42.5 116q0 103 70 173q59 57 131 57zM280 357q55 0 98 43q58 58 58 148q0 54 -30.5 86.5t-78.5 32.5q-57 0 -98 -43q-58 -56 -58 -148q0 -54 30.5 -86.5t78.5 -32.5z" />
    <glyph glyph-name="percent.tab" 
d="M329 -7q-42 0 -65.5 31t-23.5 84q0 48 18.5 98t49.5 82q36 34 77 34q42 0 65.5 -31t23.5 -84q0 -48 -18.5 -97.5t-50.5 -81.5q-35 -35 -76 -35zM201 707q42 0 65.5 -31t23.5 -84q0 -48 -19 -98.5t-50 -81.5q-34 -34 -76 -34t-65.5 31t-23.5 84q0 48 18.5 97.5t49.5 81.5
q37 35 77 35zM495 700h44l-261 -361l-243 -339h-45l261 360zM198 671q-24 0 -46 -22q-25 -25 -40.5 -71t-15.5 -87q0 -77 52 -77q24 0 46 22q25 25 40.5 71t15.5 87q0 77 -52 77zM332 29q24 0 46 22q25 25 40.5 71t15.5 87q0 77 -52 77q-24 0 -46 -22q-25 -25 -40.5 -71
t-15.5 -87q0 -77 52 -77z" />
    <glyph glyph-name="quotedbl.tab" 
d="M152 449l106 251h59l-2 -6l-137 -245h-26zM338 449l105 251h60l-2 -6l-137 -245h-26z" />
    <glyph glyph-name="quotesingle.tab" horiz-adv-x="265" 
d="M113 449l106 251h60l-2 -6l-138 -245h-26z" />
    <glyph glyph-name="plus.tab" 
d="M188 140l48 189h-182l11 46h182l47 189h47l-47 -189h181l-11 -46h-181l-47 -189h-48z" />
    <glyph glyph-name="minus.tab" 
d="M54 328l11 48h411l-12 -48h-410z" />
    <glyph glyph-name="divide.tab" 
d="M175 137l21 83h72l-20 -83h-73zM54 328l11 48h411l-12 -48h-410zM261 484l21 83h73l-21 -83h-73z" />
    <glyph glyph-name="equal.tab" 
d="M42 230l13 47h384l-12 -47h-385zM92 427l12 47h384l-12 -47h-384z" />
    <glyph glyph-name="multiply.tab" 
d="M67 160l-27 34l198 162l-117 158l37 28l115 -158l196 161l27 -35l-197 -161l117 -158l-38 -29l-115 159z" />
    <glyph glyph-name="less.tab" 
d="M389 122l-332 211l10 38l433 211l-13 -55l-373 -179l287 -180z" />
    <glyph glyph-name="greater.tab" 
d="M141 582l332 -211l-10 -38l-434 -211l14 55l373 179l-287 180z" />
    <glyph glyph-name="plusminus.tab" 
d="M197 171l45 180h-181l11 45h181l45 180h47l-45 -180h181l-11 -45h-181l-45 -180h-47zM-18 28l11 46h409l-12 -46h-408z" />
    <glyph glyph-name="space.tab" horiz-adv-x="265" 
 />
    <glyph glyph-name="NUL" horiz-adv-x="0" 
 />
    <glyph glyph-name="hfjslug" horiz-adv-x="694" 
d="M255 276h8l11 34h1l11 -34h8l14 47h-8l-10 -35h-1l-11 35h-7l-11 -35h-1l-10 35h-8zM321 388q19 0 29 24h1l12 -24l12 6l-17 32q6 14 13 39l-13 3q-4 -18 -8 -30h-1l-16 31q23 21 23 42q0 31 -27 31q-12 0 -20 -9t-8 -22t14 -39q-23 -18 -23 -47q0 -16 8 -26.5t21 -10.5z
M50 -200v303q14 0 23 9.5t9 22.5t-9.5 22.5t-22.5 9.5v554h100l30 79h334l29 -79h101v-921h-208l-8 14h-163l-8 -14h-207zM523 277h8v12l8 8l15 -20h10l-20 26l18 20h-10l-20 -24h-1v24h-8v-46zM193 277h34v7h-26v13h23v7h-23v12h26v7h-34v-46zM184 391h15v79h47v-79h15v172
h-15v-79h-47v79h-15v-172zM132 277h8v32l25 -32h7v46h-8v-32l-25 32h-7v-46zM400 391h15v78h38v14h-38v66h43v14h-58v-172zM468 277h8v15h12l10 -15h9l-12 17q10 4 10 14q0 15 -17 15h-20v-46zM366 277h8v17l18 29h-9l-13 -22l-13 22h-9l18 -29v-17zM481 390q31 0 31 36v137
h-16v-137q0 -22 -16 -22q-8 0 -20 5v-15q10 -4 21 -4zM476 299v17h11q10 0 10 -8q0 -9 -10 -9h-11zM322 402q-16 0 -16 25q0 19 16 35l20 -39q-8 -21 -20 -21zM327 479q-12 22 -12 32q0 19 14 19q13 0 13 -19q0 -15 -15 -32zM426 283q-16 0 -16 17q0 6 4.5 11.5t11.5 5.5
t11.5 -5.5t4.5 -11.5q0 -17 -16 -17zM426 276q10 0 17 7t7 17q0 9 -7 16.5t-17 7.5t-17 -7.5t-7 -16.5q0 -10 7 -17t17 -7z" />
    <glyph glyph-name="i.dot" horiz-adv-x="220" 
d="M24 0l126 515h46l-125 -515h-47zM176 641l17 68h56l-17 -68h-56z" />
    <glyph glyph-name="zero.num" horiz-adv-x="353" 
d="M354 586q0 -57 -22 -121.5t-63 -104.5q-40 -42 -90 -42q-46 0 -72.5 34t-26.5 89t22.5 120.5t62.5 105.5q41 41 91 41q46 0 72 -33.5t26 -88.5zM119 442q0 -89 64 -89q33 0 58 27q35 34 55 95t20 109q0 90 -64 90q-31 0 -59 -28q-34 -34 -54 -95t-20 -109z" />
    <glyph glyph-name="one.num" horiz-adv-x="287" 
d="M138 326l81 336l-90 -35l2 37l104 41h33l-92 -379h-38z" />
    <glyph glyph-name="one.num_alt" horiz-adv-x="353" 
d="M66 326l8 34h101l74 303l-106 -38l4 38l118 43h33l-85 -346h98l-8 -34h-237z" />
    <glyph glyph-name="two.num" horiz-adv-x="353" 
d="M48 326l7 30l191 159q34 29 49.5 51t15.5 48q0 27 -19.5 43t-51.5 16q-44 0 -94 -48l-23 25q56 58 121 58q47 0 76 -25.5t29 -66.5q0 -57 -78 -122l-159 -132h191l-9 -36h-246z" />
    <glyph glyph-name="three.num" horiz-adv-x="353" 
d="M183 318q-43 0 -75.5 19t-48.5 48l29 20q35 -54 95 -54q42 0 68 24t26 60q0 70 -95 70h-12l-7 23l151 136h-177l9 36h227l-7 -30l-153 -136q45 -5 73.5 -29.5t28.5 -66.5q0 -51 -38.5 -85.5t-93.5 -34.5z" />
    <glyph glyph-name="four.num" horiz-adv-x="353" 
d="M223 325l20 85h-173v32l233 263h48l-64 -262h49l-8 -33h-49l-21 -85h-35zM114 443h137l52 210h-2z" />
    <glyph glyph-name="five.num" horiz-adv-x="353" 
d="M184 318q-79 0 -119 63l29 21q33 -51 92 -51q42 0 70.5 29t28.5 69q0 35 -21 52t-55 17q-36 0 -70 -19l-28 19l57 182h194l-9 -38h-162l-40 -123q30 14 62 14q50 0 80 -27t30 -76q0 -54 -40 -93t-99 -39z" />
    <glyph glyph-name="six.num" horiz-adv-x="353" 
d="M186 319q-49 0 -80 31t-31 95q0 56 21.5 118t59.5 100q45 45 102 45q60 0 100 -45l-24 -27q-35 38 -77 38q-41 0 -74 -33q-41 -41 -63 -123q34 46 93 46q43 0 72 -27t29 -75q0 -57 -37 -100t-91 -43zM187 352q38 0 64 32t26 74q0 34 -19 53.5t-51 19.5q-36 0 -63 -27
q-30 -28 -30 -74q0 -36 19.5 -57t53.5 -21z" />
    <glyph glyph-name="seven.num" horiz-adv-x="353" 
d="M97 325l234 337h-195l9 38h238l-6 -29l-236 -346h-44z" />
    <glyph glyph-name="eight.num" horiz-adv-x="353" 
d="M191 318q-56 0 -90.5 28t-34.5 70q0 43 27.5 72t73.5 37q-48 26 -48 77q0 44 37 75t88 31q50 0 82 -26.5t32 -68.5q0 -37 -24 -64t-61 -36q55 -25 55 -83q0 -47 -39 -79.5t-98 -32.5zM193 352q42 0 69 22.5t27 56.5q0 30 -23.5 50.5t-63.5 20.5q-44 0 -71 -23t-27 -58
q0 -29 24.5 -49t64.5 -20zM234 534q39 0 63 22t24 53q0 29 -22 48t-55 19q-38 0 -62 -21.5t-24 -54.5q0 -29 21 -47.5t55 -18.5z" />
    <glyph glyph-name="nine.num" horiz-adv-x="353" 
d="M177 318q-61 0 -106 50l24 27q39 -42 83 -42q43 0 75 34q41 41 61 118q-13 -18 -37.5 -32.5t-54.5 -14.5q-43 0 -72.5 27.5t-29.5 76.5q0 58 36 102t91 44q49 0 81 -31.5t32 -95.5q0 -56 -21.5 -118t-59.5 -99q-46 -46 -102 -46zM228 492q35 0 62 25q31 31 31 77
q0 37 -20 59t-54 22q-39 0 -64 -33t-25 -76q0 -35 18.5 -54.5t51.5 -19.5z" />
    <glyph glyph-name="zero.den" horiz-adv-x="353" 
d="M275 259q0 -55 -22.5 -120.5t-62.5 -105.5q-41 -41 -91 -41q-46 0 -72 33.5t-26 88.5q0 56 22.5 121t62.5 105q40 42 91 42q46 0 72 -34t26 -89zM39 116q0 -90 64 -90q31 0 59 28q34 34 54.5 95.5t20.5 108.5q0 89 -64 89q-32 0 -59 -27q-34 -34 -54.5 -95.5
t-20.5 -108.5z" />
    <glyph glyph-name="one.den" horiz-adv-x="287" 
d="M58 0l82 335l-90 -35l1 38l105 40h33l-93 -378h-38z" />
    <glyph glyph-name="one.den_alt" horiz-adv-x="353" 
d="M-13 0l8 34h101l74 302l-106 -38l4 38l117 43h33l-84 -345h98l-8 -34h-237z" />
    <glyph glyph-name="two.den" horiz-adv-x="353" 
d="M-32 0l7 30l191 159q34 29 49.5 51t15.5 48q0 27 -19.5 43t-51.5 16q-44 0 -94 -48l-23 25q56 58 121 58q47 0 76 -25.5t29 -66.5q0 -57 -78 -122l-159 -132h191l-9 -36h-246z" />
    <glyph glyph-name="three.den" horiz-adv-x="353" 
d="M104 -8q-43 0 -75.5 19t-48.5 48l29 20q35 -54 95 -54q42 0 68 24t26 60q0 70 -95 70h-12l-7 23l151 136h-177l9 36h227l-7 -30l-153 -136q45 -5 73.5 -29.5t28.5 -66.5q0 -51 -38.5 -85.5t-93.5 -34.5z" />
    <glyph glyph-name="four.den" horiz-adv-x="353" 
d="M143 -2l20 86h-173v32l233 262h48l-64 -262h49l-8 -32h-49l-21 -86h-35zM34 116h138l51 211h-2z" />
    <glyph glyph-name="five.den" horiz-adv-x="353" 
d="M105 -8q-79 0 -119 63l29 21q33 -51 92 -51q42 0 70.5 29t28.5 69q0 35 -21 52t-55 17q-36 0 -70 -19l-28 19l57 182h194l-9 -38h-162l-40 -123q30 14 62 14q50 0 80 -27t30 -76q0 -54 -40 -93t-99 -39z" />
    <glyph glyph-name="six.den" horiz-adv-x="353" 
d="M106 -7q-49 0 -80 31t-31 95q0 56 21.5 118t59.5 100q45 45 102 45q60 0 100 -45l-24 -27q-35 38 -77 38q-41 0 -74 -33q-41 -41 -63 -123q34 46 93 46q43 0 72 -27t29 -75q0 -57 -37 -100t-91 -43zM107 26q38 0 64 32t26 74q0 34 -19 53.5t-51 19.5q-36 0 -63 -27
q-30 -28 -30 -74q0 -36 19.5 -57t53.5 -21z" />
    <glyph glyph-name="seven.den" horiz-adv-x="353" 
d="M17 -2l235 338h-195l9 38h238l-7 -29l-236 -347h-44z" />
    <glyph glyph-name="eight.den" horiz-adv-x="353" 
d="M112 -8q-56 0 -90.5 28t-34.5 70q0 43 27.5 72t73.5 37q-48 26 -48 77q0 44 37 75t88 31q50 0 82 -26.5t32 -68.5q0 -37 -24 -64t-61 -36q55 -25 55 -83q0 -47 -39 -79.5t-98 -32.5zM114 26q42 0 69 22.5t27 56.5q0 30 -23.5 50.5t-63.5 20.5q-44 0 -71 -23t-27 -58
q0 -29 24.5 -49t64.5 -20zM155 208q39 0 63 22t24 53q0 29 -22 48t-55 19q-38 0 -62 -21.5t-24 -54.5q0 -29 21 -47.5t55 -18.5z" />
    <glyph glyph-name="nine.den" horiz-adv-x="353" 
d="M98 -9q-61 0 -106 50l24 27q39 -42 83 -42q43 0 75 34q41 41 61 118q-13 -18 -37.5 -32.5t-54.5 -14.5q-43 0 -72.5 27.5t-29.5 76.5q0 58 36 102t91 44q49 0 81 -31.5t32 -95.5q0 -56 -21.5 -118t-59.5 -99q-46 -46 -102 -46zM149 165q35 0 62 25q31 31 31 77
q0 37 -20 59t-54 22q-39 0 -64 -33t-25 -76q0 -35 18.5 -54.5t51.5 -19.5z" />
    <glyph glyph-name="caron.alt" horiz-adv-x="500" 
d="M285 573l50 149h54v-3l-77 -146h-27z" />
    <glyph glyph-name="acute.cap" horiz-adv-x="500" 
d="M309 757l111 114l56 -26l-119 -88h-48z" />
    <glyph glyph-name="hungarumlaut.cap" horiz-adv-x="500" 
d="M264 757l111 114l55 -26l-119 -88h-47zM389 757l111 114l54 -26l-118 -88h-47z" />
    <glyph glyph-name="grave.cap" horiz-adv-x="500" 
d="M394 757l-83 88l54 26l65 -114h-36z" />
    <glyph glyph-name="circumflex.cap" horiz-adv-x="500" 
d="M257 759l119 104h44l68 -104h-47l-51 60l-82 -60h-51z" />
    <glyph glyph-name="caron.cap" horiz-adv-x="500" 
d="M513 863l-119 -104h-44l-68 104h47l52 -60l81 60h51z" />
    <glyph glyph-name="breve.cap" horiz-adv-x="500" 
d="M373 757q-51 0 -79 25t-21 68h40q2 -24 18 -35.5t51 -11.5q62 0 90 47h43q-15 -44 -53 -68.5t-89 -24.5z" />
    <glyph glyph-name="tilde.cap" horiz-adv-x="500" 
d="M274 753l-35 10q20 42 40.5 61t46.5 19q20 0 58 -19q33 -19 50 -19q26 0 51 42l35 -10q-38 -79 -87 -79q-20 0 -58 19q-35 19 -50 19t-26 -9.5t-25 -33.5z" />
    <glyph glyph-name="macron.cap" horiz-adv-x="500" 
d="M241 779l11 46h274l-11 -46h-274z" />
    <glyph glyph-name="dieresis.cap" horiz-adv-x="500" 
d="M262 760l18 73h67l-18 -73h-67zM416 760l18 73h66l-18 -73h-66z" />
    <glyph glyph-name="dotaccent.cap" horiz-adv-x="500" 
d="M339 760l17 73h69l-18 -73h-68z" />
    <glyph glyph-name="ring.cap" horiz-adv-x="500" 
d="M404 933q39 0 63.5 -22t24.5 -56q0 -42 -33 -70.5t-77 -28.5q-38 0 -62.5 22.5t-24.5 56.5q0 42 32.5 70t76.5 28zM385 787q29 0 49.5 18.5t20.5 46.5q0 22 -14.5 36.5t-39.5 14.5q-29 0 -49.5 -19t-20.5 -46q0 -23 15 -37t39 -14z" />
    </font>
</defs>
</svg>
