<?xml version="1.0" standalone="no"?>
<!DOCTYPE svg PUBLIC "-//W3C//DTD SVG 1.1//EN" "http://www.w3.org/Graphics/SVG/1.1/DTD/svg11.dtd" >
<svg xmlns="http://www.w3.org/2000/svg" xmlns:xlink="http://www.w3.org/1999/xlink" version="1.1">
<metadata>
Created by FontForge 20161003 at Mon Jul 17 05:45:05 2017
 By www-data
Copyright (C) 2001, 2008 Hoefler &#38; Frere-Jones. http://www.typography.com
</metadata>
<defs>
<font id="GothamNarrowLight" horiz-adv-x="353" >
  <font-face 
    font-family="GothamNarrowLight"
    font-weight="300"
    font-stretch="condensed"
    units-per-em="1000"
    panose-1="0 0 0 0 0 0 0 0 0 0"
    ascent="800"
    descent="-200"
    x-height="515"
    cap-height="700"
    bbox="-185 -213 1017 964"
    underline-thickness="50"
    underline-position="-150"
    unicode-range="U+0020-FB04"
  />
<missing-glyph horiz-adv-x="500" 
d="M0 -200v1000h500v-1000h-500zM71 750l179 -390l179 390h-358zM50 -76l172 376l-172 376v-752zM450 676l-172 -376l172 -376v752zM250 240l-179 -390h358z" />
    <glyph glyph-name="f_f" unicode="ff" horiz-adv-x="627" 
d="M420 0v472h-67v43h67v53q0 82 40 122q35 35 95 35q29 0 61 -9v-45q-31 10 -60 10q-89 0 -89 -114v-52h147v-43h-147v-472h-47zM107 0v472h-68v43h68v53q0 82 40 122q35 35 95 35q29 0 61 -9v-45q-31 10 -61 10q-89 0 -89 -114v-52h148v-43h-148v-472h-46z" />
    <glyph glyph-name="fi" unicode="fi" horiz-adv-x="533" 
d="M107 0v472h-68v43h68v53q0 82 40 122q35 35 95 35q29 0 61 -9v-45q-31 10 -61 10q-89 0 -89 -114v-52h148v-43h-148v-472h-46zM399 0v515h47v-515h-47zM395 641v68h56v-68h-56z" />
    <glyph glyph-name="fl" unicode="fl" horiz-adv-x="533" 
d="M107 0v472h-68v43h68v53q0 82 40 122q35 35 95 35q29 0 61 -9v-45q-31 10 -61 10q-89 0 -89 -114v-52h148v-43h-148v-472h-46zM399 0v722h47v-722h-47z" />
    <glyph glyph-name="f_f_i" unicode="ffi" horiz-adv-x="846" 
d="M420 0v472h-67v43h67v53q0 82 40 122q35 35 95 35q29 0 61 -9v-45q-31 10 -60 10q-89 0 -89 -114v-52h147v-43h-147v-472h-47zM107 0v472h-68v43h68v53q0 82 40 122q35 35 95 35q29 0 61 -9v-45q-31 10 -61 10q-89 0 -89 -114v-52h148v-43h-148v-472h-46zM713 0v515h47
v-515h-47zM708 641v68h56v-68h-56z" />
    <glyph glyph-name="f_f_l" unicode="ffl" horiz-adv-x="846" 
d="M420 0v472h-67v43h67v53q0 82 40 122q35 35 95 35q29 0 61 -9v-45q-31 10 -60 10q-89 0 -89 -114v-52h147v-43h-147v-472h-47zM107 0v472h-68v43h68v53q0 82 40 122q35 35 95 35q29 0 61 -9v-45q-31 10 -61 10q-89 0 -89 -114v-52h148v-43h-148v-472h-46zM713 0v722h47
v-722h-47z" />
    <glyph glyph-name=".notdef" horiz-adv-x="500" 
d="M0 -200v1000h500v-1000h-500zM71 750l179 -390l179 390h-358zM50 -76l172 376l-172 376v-752zM450 676l-172 -376l172 -376v752zM250 240l-179 -390h358z" />
    <glyph glyph-name=".null" horiz-adv-x="0" 
 />
    <glyph glyph-name="nonmarkingreturn" horiz-adv-x="333" 
 />
    <glyph glyph-name="space" unicode=" " horiz-adv-x="238" 
 />
    <glyph glyph-name="exclam" unicode="!" horiz-adv-x="234" 
d="M104 183l-15 447v70h56v-70l-15 -447h-26zM85 0v84h64v-84h-64z" />
    <glyph glyph-name="quotedbl" unicode="&#x22;" horiz-adv-x="355" 
d="M218 450l24 250h60v-6l-58 -244h-26zM60 450l25 250h60v-6l-58 -244h-27z" />
    <glyph glyph-name="numbersign" unicode="#" horiz-adv-x="605" 
d="M530 232v-45h-119l-26 -187h-44l26 187h-178l-26 -187h-44l26 187h-104v45h111l34 239h-112v45h118l27 184h44l-26 -184h178l26 184h44l-27 -184h105v-45h-111l-34 -239h112zM230 471l-34 -239h178l34 239h-178z" />
    <glyph glyph-name="dollar" unicode="$" horiz-adv-x="543" 
d="M466 627l-30 -37q-67 59 -141 66v-280q101 -30 144.5 -76t43.5 -117v-1q0 -77 -52 -128t-135 -55v-97h-44v97q-119 8 -207 93l32 38q78 -81 177 -88v293q-98 30 -141.5 73.5t-43.5 115.5v1q0 72 51 121.5t132 53.5v61h44v-61q92 -7 170 -73zM435 181q0 54 -30.5 87.5
t-109.5 56.5v-284q65 4 102.5 43t37.5 96v1zM117 527q0 -53 30 -85t107 -56v271q-62 -3 -99.5 -39.5t-37.5 -89.5v-1z" />
    <glyph glyph-name="percent" unicode="%" horiz-adv-x="725" 
d="M184 357q-60 0 -98.5 49.5t-38.5 122.5v4q0 74 39 124t100 50q59 0 98.5 -49.5t39.5 -122.5v-4q0 -74 -39.5 -124t-100.5 -50zM184 665q-39 0 -64.5 -37t-25.5 -93v-4q0 -58 26.5 -95t65.5 -37t64.5 37t25.5 93v4q0 58 -26.5 95t-65.5 37zM346 359l218 341h49l-235 -361
l-217 -339h-49zM539 -7q-59 0 -98 49.5t-39 122.5v4q0 74 39.5 124t99.5 50t99 -50t39 -122v-4q0 -74 -39.5 -124t-100.5 -50zM541 35q39 0 64.5 37t25.5 93v4q0 58 -26.5 95t-65.5 37t-64.5 -37t-25.5 -93v-4q0 -58 26.5 -95t65.5 -37z" />
    <glyph glyph-name="ampersand" unicode="&#x26;" horiz-adv-x="609" 
d="M543 -12l-101 118q-91 -115 -208 -115q-84 0 -138 53t-54 133v4q0 133 160 211q-40 52 -57.5 89t-17.5 77v3q0 63 44.5 106.5t113.5 43.5q63 0 104.5 -42.5t41.5 -101.5v-3q0 -111 -154 -185l163 -195q42 73 73 167l44 -16q-40 -113 -86 -188l111 -129zM250 411
q132 57 132 152v2q0 43 -28 73t-71 30q-47 0 -77 -30.5t-30 -75.5v-2q0 -33 15.5 -65t58.5 -84zM235 35q97 0 177 106l-183 219q-69 -31 -103 -77.5t-34 -99.5v-3q0 -62 40.5 -103.5t102.5 -41.5z" />
    <glyph glyph-name="quotesingle" unicode="'" horiz-adv-x="195" 
d="M60 450l25 250h60v-6l-58 -244h-27z" />
    <glyph glyph-name="parenleft" unicode="(" horiz-adv-x="370" 
d="M306 -138q-117 71 -181.5 179t-64.5 247t64.5 247.5t181.5 178.5l19 -31q-216 -144 -216 -395t216 -395z" />
    <glyph glyph-name="parenright" unicode=")" horiz-adv-x="370" 
d="M64 -138l-19 31q216 144 216 395t-216 395l19 31q117 -70 181.5 -178.5t64.5 -247.5t-64.5 -247t-181.5 -179z" />
    <glyph glyph-name="asterisk" unicode="*" horiz-adv-x="383" 
d="M172 414l8 124l-99 -69l-21 35l111 54l-111 54l21 35l99 -69l-8 124h40l-9 -124l99 69l21 -35l-110 -54l110 -54l-21 -35l-99 69l9 -124h-40z" />
    <glyph glyph-name="plus" unicode="+" horiz-adv-x="534" 
d="M244 142v187h-188v46h188v187h47v-187h187v-46h-187v-187h-47z" />
    <glyph glyph-name="comma" unicode="," horiz-adv-x="206" 
d="M55 -106l-12 25q32 16 44 34.5t10 46.5h-27v84h65v-73q0 -46 -18 -72.5t-62 -44.5z" />
    <glyph glyph-name="hyphen" unicode="-" horiz-adv-x="365" 
d="M61 271v51h244v-51h-244z" />
    <glyph glyph-name="period" unicode="." horiz-adv-x="206" 
d="M70 0v84h65v-84h-65z" />
    <glyph glyph-name="slash" unicode="/" horiz-adv-x="427" 
d="M-14 -119l395 908h45l-394 -908h-46z" />
    <glyph glyph-name="zero" unicode="0" horiz-adv-x="607" 
d="M303 -11q-112 0 -179 99.5t-67 257.5v6q0 158 67.5 258.5t179.5 100.5t179 -99.5t67 -257.5v-6q0 -158 -67.5 -258.5t-179.5 -100.5zM304 34q88 0 141.5 88.5t53.5 223.5v6q0 135 -54.5 224.5t-141.5 89.5q-88 0 -141.5 -88.5t-53.5 -223.5v-6q0 -135 54 -224.5
t142 -89.5z" />
    <glyph glyph-name="one" unicode="1" horiz-adv-x="296" 
d="M154 0v650l-117 -45l-9 43l135 56h39v-704h-48z" />
    <glyph glyph-name="two" unicode="2" horiz-adv-x="510" 
d="M41 0v36l233 267q67 73 94.5 121.5t27.5 100.5q0 63 -40 101t-101 38q-95 0 -169 -105l-36 26q40 62 89.5 93.5t120.5 31.5q82 0 135.5 -51.5t53.5 -129.5v-3q0 -62 -30.5 -114.5t-107.5 -136.5l-197 -227h341v-48h-414z" />
    <glyph glyph-name="three" unicode="3" horiz-adv-x="516" 
d="M248 -11q-125 0 -208 95l35 35q71 -84 174 -84q67 0 112.5 44t45.5 115v3q0 73 -56 112t-146 39h-21l-9 29l209 275h-316v48h382v-35l-209 -273q95 -9 156 -57t61 -136v-4q0 -91 -61.5 -148.5t-148.5 -57.5z" />
    <glyph glyph-name="four" unicode="4" horiz-adv-x="566" 
d="M379 0v168h-328l-12 37l343 500h44v-494h96v-43h-96v-168h-47zM96 211h283v411z" />
    <glyph glyph-name="five" unicode="5" horiz-adv-x="520" 
d="M247 -11q-109 0 -198 87l31 37q80 -78 169 -78q73 0 120.5 50t47.5 127v2q0 76 -46.5 120.5t-119.5 44.5q-64 0 -131 -36l-37 25l18 332h338v-48h-294l-15 -258q64 30 126 30q91 0 151.5 -56.5t60.5 -150.5v-3q0 -98 -63 -161.5t-158 -63.5z" />
    <glyph glyph-name="six" unicode="6" horiz-adv-x="554" 
d="M285 -11q-88 0 -146 58q-41 41 -61.5 104t-20.5 170v9q0 173 68.5 277t182.5 104q84 0 163 -63l-28 -39q-66 56 -138 56q-92 0 -146 -95t-54 -252v-2q60 116 185 116q87 0 148 -58t61 -153v-2q0 -100 -61.5 -165t-152.5 -65zM288 34q71 0 115.5 53t44.5 130v2
q0 76 -45 122.5t-116 46.5q-70 0 -118 -49t-48 -120v-3q0 -78 46.5 -130t120.5 -52z" />
    <glyph glyph-name="seven" unicode="7" horiz-adv-x="502" 
d="M129 0l270 652h-342v48h396v-38l-271 -662h-53z" />
    <glyph glyph-name="eight" unicode="8" horiz-adv-x="538" 
d="M269 -10q-96 0 -159.5 54.5t-63.5 139.5v4q0 60 37.5 106t98.5 68q-115 51 -115 163v4q0 80 60 130.5t142 50.5q81 0 141.5 -50.5t60.5 -130.5v-4q0 -112 -115 -163q61 -23 98.5 -68.5t37.5 -105.5v-4q0 -85 -63.5 -139.5t-159.5 -54.5zM269 381q64 0 108 41.5t44 103.5
v2q0 60 -43.5 98.5t-108.5 38.5t-108.5 -38.5t-43.5 -98.5v-2q0 -62 44 -103.5t108 -41.5zM269 35q78 0 125 43t47 106v2q0 65 -49.5 108.5t-122.5 43.5t-122.5 -43.5t-49.5 -108.5v-2q0 -63 47 -106t125 -43z" />
    <glyph glyph-name="nine" unicode="9" horiz-adv-x="554" 
d="M247 35q92 0 147 94.5t55 243.5v5q-29 -56 -76.5 -87t-107.5 -31q-91 0 -150.5 59.5t-59.5 155.5v2q0 100 60.5 167t153.5 67q88 0 147 -59q81 -79 81 -273v-9q0 -174 -70 -277.5t-181 -103.5q-87 0 -172 68l28 40q73 -62 145 -62zM267 304q72 0 119 50t47 124v3
q0 79 -46.5 132t-121.5 53q-71 0 -115 -55t-44 -133v-2q0 -78 45.5 -125t115.5 -47z" />
    <glyph glyph-name="colon" unicode=":" horiz-adv-x="216" 
d="M75 431v84h65v-84h-65zM75 0v84h65v-84h-65z" />
    <glyph glyph-name="semicolon" unicode=";" horiz-adv-x="216" 
d="M75 431v84h65v-84h-65zM60 -106l-12 25q32 16 44 34.5t10 46.5h-27v84h65v-73q0 -46 -18 -72.5t-62 -44.5z" />
    <glyph glyph-name="less" unicode="&#x3c;" horiz-adv-x="534" 
d="M454 118l-398 214v40l398 214v-53l-342 -180l342 -182v-53z" />
    <glyph glyph-name="equal" unicode="=" horiz-adv-x="534" 
d="M68 427v48h399v-48h-399zM68 229v48h399v-48h-399z" />
    <glyph glyph-name="greater" unicode="&#x3e;" horiz-adv-x="534" 
d="M80 118v53l343 180l-343 182v53l399 -214v-40z" />
    <glyph glyph-name="question" unicode="?" horiz-adv-x="464" 
d="M192 183l-11 165l5 6q87 8 135 50.5t48 112.5v2q0 62 -41 103t-108 41q-88 0 -161 -81l-32 32q84 94 195 94q88 0 142.5 -53.5t54.5 -132.5v-3q0 -84 -52.5 -135t-135.5 -68l-9 -133h-30zM176 0v84h64v-84h-64z" />
    <glyph glyph-name="at" unicode="@" horiz-adv-x="874" 
d="M438 -153q-168 0 -279.5 116t-111.5 292q0 187 116 321.5t287 134.5q161 0 269 -109.5t108 -262.5q0 -120 -52 -193t-121 -73q-48 0 -78.5 26.5t-37.5 71.5q-70 -99 -156 -99q-63 0 -106 46t-43 119q0 108 64.5 186.5t146.5 78.5q94 0 129 -91l14 76l46 -6l-41 -225
q-8 -41 -8 -71q0 -36 19 -56.5t55 -20.5q55 0 96 65t41 166q0 136 -98.5 238.5t-246.5 102.5q-107 0 -193 -59.5t-132 -156t-46 -207.5q0 -166 101 -273t258 -107q116 0 220 61l14 -24q-110 -67 -234 -67zM391 117q55 0 98 45q29 29 48 73.5t19 92.5q0 55 -31.5 92t-78.5 37
q-54 0 -100 -44q-29 -30 -46.5 -77t-17.5 -94q0 -60 29.5 -92.5t79.5 -32.5z" />
    <glyph glyph-name="A" unicode="A" horiz-adv-x="674" 
d="M39 0l273 705h50l273 -705h-54l-74 196h-343l-74 -196h-51zM182 241h307l-153 403z" />
    <glyph glyph-name="B" unicode="B" horiz-adv-x="615" 
d="M89 0v700h228q109 0 170 -59q45 -45 45 -114v-2q0 -123 -121 -167q151 -38 151 -168v-2q0 -87 -65.5 -137.5t-174.5 -50.5h-233zM482 521v2q0 60 -44 95.5t-122 35.5h-177v-278h170q79 0 126 38t47 107zM512 190q0 67 -51 103.5t-147 36.5h-175v-284h185q87 0 137.5 38
t50.5 104v2z" />
    <glyph glyph-name="C" unicode="C" horiz-adv-x="613" 
d="M361 -10q-129 0 -214 99t-85 258v5q0 157 86.5 257.5t216.5 100.5q115 0 209 -85l-32 -38q-80 77 -179 77q-107 0 -178.5 -88t-71.5 -223v-4q0 -137 71.5 -225t178.5 -88q100 0 184 82l31 -35q-98 -93 -217 -93z" />
    <glyph glyph-name="D" unicode="D" horiz-adv-x="665" 
d="M89 0v700h187q145 0 236 -96t91 -250v-7q0 -154 -91 -250.5t-236 -96.5h-187zM274 654h-135v-608h136q125 0 201.5 83t76.5 217v7q0 133 -76.5 217t-202.5 84z" />
    <glyph glyph-name="E" unicode="E" horiz-adv-x="565" 
d="M89 0v700h419v-46h-369v-278h332v-46h-332v-284h374v-46h-424z" />
    <glyph glyph-name="F" unicode="F" horiz-adv-x="549" 
d="M89 0v700h413v-46h-363v-289h326v-46h-326v-319h-50z" />
    <glyph glyph-name="G" unicode="G" horiz-adv-x="665" 
d="M371 -10q-142 0 -225.5 99t-83.5 257v6q0 153 85.5 255.5t219.5 102.5q117 0 207 -73l-31 -40q-74 67 -177 67q-109 0 -181 -88t-72 -223v-4q0 -142 70.5 -228t189.5 -86q95 0 169 57v224h-194v46h242v-292q-97 -80 -219 -80z" />
    <glyph glyph-name="H" unicode="H" horiz-adv-x="655" 
d="M89 0v700h50v-325h377v325h50v-700h-50v329h-377v-329h-50z" />
    <glyph glyph-name="I" unicode="I" horiz-adv-x="242" 
d="M96 0v700h50v-700h-50z" />
    <glyph glyph-name="J" unicode="J" horiz-adv-x="453" 
d="M197 -9q-111 0 -169 102l38 28q28 -44 59 -64t75 -20q55 0 89.5 40.5t34.5 114.5v508h49v-506q0 -102 -53 -155q-50 -48 -123 -48z" />
    <glyph glyph-name="K" unicode="K" horiz-adv-x="610" 
d="M89 0v700h50v-442l370 442h63l-262 -310l278 -390h-62l-250 350l-137 -158v-192h-50z" />
    <glyph glyph-name="L" unicode="L" horiz-adv-x="517" 
d="M89 0v700h50v-654h339v-46h-389z" />
    <glyph glyph-name="M" unicode="M" horiz-adv-x="749" 
d="M89 0v700h50l235 -409l236 409h50v-700h-50v608l-234 -406h-4l-235 406v-608h-48z" />
    <glyph glyph-name="N" unicode="N" horiz-adv-x="677" 
d="M89 0v700h48l403 -603v603h48v-700h-40l-411 617v-617h-48z" />
    <glyph glyph-name="O" unicode="O" horiz-adv-x="714" 
d="M357 -11q-131 0 -213 101t-82 256v7q0 155 82.5 256.5t213.5 101.5t212.5 -101t81.5 -256v-7q0 -155 -82 -256.5t-213 -101.5zM358 35q105 0 174 88t69 223v7q0 135 -69.5 223.5t-174.5 88.5q-106 0 -175 -88t-69 -223v-7q0 -135 69.5 -223.5t175.5 -88.5z" />
    <glyph glyph-name="P" unicode="P" horiz-adv-x="575" 
d="M89 0v700h203q110 0 176 -57.5t66 -157.5v-2q0 -104 -71 -163.5t-181 -59.5h-143v-260h-50zM139 305h146q92 0 146 47.5t54 128.5v2q0 82 -53 126.5t-143 44.5h-150v-349z" />
    <glyph glyph-name="Q" unicode="Q" horiz-adv-x="714" 
d="M661 15l-35 -36l-84 82q-78 -72 -185 -72q-131 0 -213 101t-82 256v7q0 155 82.5 256.5t213.5 101.5t212.5 -101t81.5 -256v-7q0 -151 -79 -252zM358 35q87 0 149 59l-115 106l35 36l110 -107q64 86 64 217v7q0 135 -69.5 223.5t-174.5 88.5q-106 0 -175 -88t-69 -223v-7
q0 -135 69.5 -223.5t175.5 -88.5z" />
    <glyph glyph-name="R" unicode="R" horiz-adv-x="619" 
d="M89 0v700h231q117 0 181 -64q54 -54 54 -137v-2q0 -82 -49 -133t-130 -66l201 -298h-61l-194 288h-183v-288h-50zM139 333h166q96 0 148.5 43.5t52.5 118.5v2q0 75 -50 116t-139 41h-178v-321z" />
    <glyph glyph-name="S" unicode="S" horiz-adv-x="546" 
d="M281 -10q-132 0 -238 97l33 39q96 -90 206 -90q70 0 114.5 38.5t44.5 96.5v2q0 52 -35.5 87.5t-133.5 69.5q-113 40 -157 85.5t-44 115.5v2q0 75 57.5 126t145.5 51q115 0 204 -76l-31 -40q-79 70 -175 70q-67 0 -109 -36.5t-42 -90.5v-2q0 -53 36 -88.5t138 -70.5
q109 -40 152 -86t43 -114v-2q0 -80 -59 -132t-150 -52z" />
    <glyph glyph-name="T" unicode="T" horiz-adv-x="540" 
d="M245 0v654h-204v46h459v-46h-205v-654h-50z" />
    <glyph glyph-name="U" unicode="U" horiz-adv-x="653" 
d="M326 -11q-111 0 -178 71t-67 197v443h49v-440q0 -107 52.5 -166t145.5 -59q91 0 143 57t52 165v443h50v-439q0 -129 -67.5 -200.5t-179.5 -71.5z" />
    <glyph glyph-name="V" unicode="V" horiz-adv-x="640" 
d="M297 -5l-258 705h54l228 -637l229 637h52l-259 -705h-46z" />
    <glyph glyph-name="W" unicode="W" horiz-adv-x="952" 
d="M257 -5l-213 705h54l183 -619l176 621h41l177 -621l182 619h51l-213 -705h-42l-177 609l-177 -609h-42z" />
    <glyph glyph-name="X" unicode="X" horiz-adv-x="611" 
d="M501 700h56l-222 -340l234 -360h-57l-208 324l-206 -324h-56l234 359l-223 341h57l195 -304z" />
    <glyph glyph-name="Y" unicode="Y" horiz-adv-x="605" 
d="M277 0v285l-253 415h59l220 -367l220 367h57l-253 -414v-286h-50z" />
    <glyph glyph-name="Z" unicode="Z" horiz-adv-x="580" 
d="M56 0v29l403 626h-388v45h455v-29l-403 -626h403v-45h-470z" />
    <glyph glyph-name="bracketleft" unicode="[" horiz-adv-x="376" 
d="M92 -130v830h232v-37h-188v-756h188v-37h-232z" />
    <glyph glyph-name="backslash" unicode="\" horiz-adv-x="427" 
d="M395 -119l-395 908h46l394 -908h-45z" />
    <glyph glyph-name="bracketright" unicode="]" horiz-adv-x="376" 
d="M52 -130v37h187v756h-187v37h232v-830h-232z" />
    <glyph glyph-name="asciicircum" unicode="^" horiz-adv-x="439" 
d="M68 505l131 193h41l131 -193h-49l-104 148l-103 -148h-47z" />
    <glyph glyph-name="underscore" unicode="_" horiz-adv-x="555" 
d="M-2 -160v42h559v-42h-559z" />
    <glyph glyph-name="grave" unicode="`" horiz-adv-x="500" 
d="M269 589l-99 101l56 29l80 -130h-37z" />
    <glyph glyph-name="a" unicode="a" horiz-adv-x="497" 
d="M215 -11q-69 0 -120.5 44t-51.5 117v4q0 76 53.5 121t141.5 45q70 0 142 -21v37q0 69 -38 105.5t-106 36.5q-72 0 -137 -37l-18 41q83 40 158 40q90 0 139 -50q48 -45 48 -133v-339h-46v82q-56 -93 -165 -93zM219 32q67 0 114.5 43.5t47.5 106.5v74q-70 22 -144 22
q-69 0 -107 -33.5t-38 -88.5v-4q0 -54 36.5 -87t90.5 -33z" />
    <glyph glyph-name="b" unicode="b" horiz-adv-x="565" 
d="M305 -11q-113 0 -179 118v-107h-46v722h46v-317q69 121 179 121q84 0 146.5 -71.5t62.5 -192.5v-7q0 -121 -62.5 -193.5t-146.5 -72.5zM300 33q71 0 118 58.5t47 161.5v7q0 102 -48 162t-117 60q-71 0 -124 -61.5t-53 -158.5v-9q0 -97 53 -158.5t124 -61.5z" />
    <glyph glyph-name="c" unicode="c" horiz-adv-x="474" 
d="M275 -11q-96 0 -160.5 74t-64.5 190v6q0 116 65.5 191.5t160.5 75.5q87 0 160 -71l-30 -36q-63 63 -132 63q-73 0 -124 -62.5t-51 -160.5v-5q0 -99 52.5 -160t125.5 -61q72 1 131 64l30 -31q-70 -77 -163 -77z" />
    <glyph glyph-name="d" unicode="d" horiz-adv-x="565" 
d="M261 -11q-85 0 -147 71.5t-62 192.5v8q0 121 62 193t147 72q112 0 178 -118v314h47v-722h-47v110q-67 -121 -178 -121zM266 33q71 0 123.5 61.5t52.5 158.5v10q0 97 -52.5 158t-123.5 61q-72 0 -118.5 -58.5t-46.5 -161.5v-7q0 -102 48 -162t117 -60z" />
    <glyph glyph-name="e" unicode="e" horiz-adv-x="505" 
d="M273 -11q-94 0 -158.5 72.5t-64.5 192.5v4q0 118 59.5 193t149.5 75q91 0 146 -73t55 -191v-24h-362q4 -95 55.5 -150t122.5 -55q80 0 143 63l29 -32q-77 -75 -175 -75zM98 280h313q-3 86 -43.5 144.5t-109.5 58.5q-65 0 -110 -56.5t-50 -146.5z" />
    <glyph glyph-name="f" unicode="f" horiz-adv-x="313" 
d="M107 0v472h-68v43h68v53q0 82 40 122q35 35 95 35q29 0 61 -9v-45q-31 10 -61 10q-89 0 -89 -114v-52h148v-43h-148v-472h-46z" />
    <glyph glyph-name="g" unicode="g" horiz-adv-x="565" 
d="M268 -152q-103 0 -196 60l24 40q79 -56 174 -56q78 0 123.5 43t45.5 124v91q-67 -115 -180 -115q-84 0 -145.5 66.5t-61.5 176.5v4q0 109 61.5 176.5t145.5 67.5q114 0 180 -113v102h47v-457q0 -94 -56 -152q-58 -58 -162 -58zM264 78q70 0 124 56t54 144v4
q0 89 -53.5 144.5t-124.5 55.5q-69 0 -116 -54t-47 -146v-3q0 -90 47.5 -145.5t115.5 -55.5z" />
    <glyph glyph-name="h" unicode="h" horiz-adv-x="533" 
d="M80 0v722h46v-296q53 100 160 100q81 0 128 -52t47 -141v-333h-47v320q0 78 -35.5 121t-100.5 43t-108.5 -47.5t-43.5 -121.5v-315h-46z" />
    <glyph glyph-name="i" unicode="i" horiz-adv-x="219" 
d="M82 641v68h56v-68h-56zM86 0v515h47v-515h-47z" />
    <glyph glyph-name="j" unicode="j" horiz-adv-x="222" 
d="M84 641v68h56v-68h-56zM29 -153q-16 0 -36 5v41q20 -4 33 -4q63 0 63 79v547h46v-550q0 -55 -27 -86.5t-79 -31.5z" />
    <glyph glyph-name="k" unicode="k" horiz-adv-x="482" 
d="M80 0v722h46v-522l262 315h58l-187 -221l196 -294h-57l-171 256l-101 -117v-139h-46z" />
    <glyph glyph-name="l" unicode="l" horiz-adv-x="219" 
d="M86 0v722h47v-722h-47z" />
    <glyph glyph-name="m" unicode="m" horiz-adv-x="830" 
d="M80 0v515h46v-87q53 98 149 98q53 0 91.5 -27.5t57.5 -74.5q57 102 162 102q78 0 123.5 -52t45.5 -143v-331h-46v320q0 79 -33.5 121.5t-94.5 42.5q-59 0 -99.5 -45.5t-40.5 -122.5v-316h-47v322q0 78 -33.5 120t-93.5 42q-59 0 -100 -48.5t-41 -120.5v-315h-46z" />
    <glyph glyph-name="n" unicode="n" horiz-adv-x="533" 
d="M80 0v515h46v-89q53 100 160 100q81 0 128 -52t47 -141v-333h-47v320q0 78 -35.5 121t-100.5 43t-108.5 -47.5t-43.5 -121.5v-315h-46z" />
    <glyph glyph-name="o" unicode="o" horiz-adv-x="547" 
d="M273 -11q-96 0 -159.5 76.5t-63.5 189.5v4q0 113 64 190t160 77q97 0 160.5 -76.5t63.5 -189.5v-4q0 -113 -64 -190t-161 -77zM274 33q75 0 125 63.5t50 158.5v4q0 95 -51.5 159t-124.5 64q-74 0 -124 -63.5t-50 -158.5v-4q0 -95 51 -159t124 -64z" />
    <glyph glyph-name="p" unicode="p" horiz-adv-x="565" 
d="M80 -150v665h46v-110q69 121 179 121q84 0 146.5 -71.5t62.5 -192.5v-7q0 -121 -62.5 -193.5t-146.5 -72.5q-113 0 -179 118v-257h-46zM300 33q71 0 118 58.5t47 161.5v7q0 102 -48 162t-117 60q-71 0 -124 -61.5t-53 -158.5v-9q0 -97 53 -158.5t124 -61.5z" />
    <glyph glyph-name="q" unicode="q" horiz-adv-x="565" 
d="M439 -150v260q-67 -121 -178 -121q-85 0 -147 71.5t-62 192.5v8q0 121 62 193t147 72q112 0 178 -118v107h47v-665h-47zM266 33q71 0 123.5 61.5t52.5 158.5v10q0 97 -52.5 158t-123.5 61q-72 0 -118.5 -58.5t-46.5 -161.5v-7q0 -102 48 -162t117 -60z" />
    <glyph glyph-name="r" unicode="r" horiz-adv-x="345" 
d="M80 0v515h46v-122q26 59 77 95.5t115 33.5v-50h-4q-79 0 -133.5 -57t-54.5 -158v-257h-46z" />
    <glyph glyph-name="s" unicode="s" horiz-adv-x="424" 
d="M213 -9q-101 0 -182 73l29 36q74 -65 156 -65q48 0 80 26.5t32 69.5v2q0 36 -28.5 60t-91.5 50q-77 32 -114 62t-37 83v2q0 59 43 96.5t111 37.5q87 0 159 -56l-27 -37q-65 49 -134 49q-46 0 -75.5 -24t-29.5 -61v-2q0 -34 28.5 -56t94.5 -50q77 -34 112.5 -65.5
t35.5 -85.5v-1q0 -64 -46.5 -104t-115.5 -40z" />
    <glyph glyph-name="t" unicode="t" horiz-adv-x="342" 
d="M229 -7q-57 0 -91.5 30.5t-34.5 92.5v356h-66v43h66v158h47v-158h147v-43h-147v-350q0 -85 86 -85q29 0 61 13v-43q-29 -14 -68 -14z" />
    <glyph glyph-name="u" unicode="u" horiz-adv-x="533" 
d="M247 -11q-81 0 -128 52t-47 141v333h46v-320q0 -78 36 -120.5t101 -42.5q64 0 107.5 47.5t43.5 120.5v315h47v-515h-47v89q-52 -100 -159 -100z" />
    <glyph glyph-name="v" unicode="v" horiz-adv-x="504" 
d="M232 -4l-196 519h53l163 -455l165 455h51l-196 -519h-40z" />
    <glyph glyph-name="w" unicode="w" horiz-adv-x="751" 
d="M205 -4l-162 519h52l130 -450l132 451h39l132 -451l131 450h49l-161 -519h-41l-130 439l-131 -439h-40z" />
    <glyph glyph-name="x" unicode="x" horiz-adv-x="492" 
d="M102 515l144 -216l145 216h53l-170 -251l179 -264h-55l-153 229l-152 -229h-54l178 263l-170 252h55z" />
    <glyph glyph-name="y" unicode="y" horiz-adv-x="507" 
d="M264 59l156 456h50l-187 -525q-28 -78 -63.5 -110.5t-86.5 -32.5q-44 0 -85 21l16 42q32 -19 71 -19q34 0 58 24t48 85l-206 515h52z" />
    <glyph glyph-name="z" unicode="z" horiz-adv-x="466" 
d="M47 0v27l309 447h-296v41h360v-27l-309 -446h308v-42h-372z" />
    <glyph glyph-name="braceleft" unicode="{" horiz-adv-x="415" 
d="M363 -140q-110 18 -150 61.5t-40 116.5q0 16 6 57t6 58q0 117 -117 117h-21v36h21q117 0 117 117q0 17 -6 58t-6 57q0 73 40 116t150 61l6 -32q-92 -19 -120.5 -50.5t-28.5 -99.5q0 -17 6 -54t6 -55q0 -110 -101 -136q101 -28 101 -137q0 -17 -6 -54t-6 -54
q0 -68 28.5 -99.5t120.5 -51.5z" />
    <glyph glyph-name="bar" unicode="|" horiz-adv-x="265" 
d="M112 -119v908h41v-908h-41z" />
    <glyph glyph-name="braceright" unicode="}" horiz-adv-x="415" 
d="M52 -140l-6 32q92 20 120.5 51.5t28.5 99.5q0 17 -6.5 54t-6.5 54q0 111 101 137q-101 29 -101 136q0 18 6.5 55t6.5 54q0 68 -28.5 99.5t-120.5 50.5l6 32q110 -18 150 -61t40 -116q0 -16 -6.5 -57t-6.5 -58q0 -117 118 -117h21v-36h-21q-118 0 -118 -117q0 -17 6.5 -58
t6.5 -57q0 -73 -40 -116.5t-150 -61.5z" />
    <glyph glyph-name="asciitilde" unicode="~" horiz-adv-x="409" 
d="M263 251q-21 0 -61 21q-36 22 -54 22q-15 0 -24.5 -10.5t-18.5 -37.5l-33 8q13 48 30.5 68t44.5 20q21 0 60 -22q36 -22 54 -22q15 0 24.5 11t19.5 38l33 -9q-13 -48 -30.5 -67.5t-44.5 -19.5z" />
    <glyph glyph-name="uni00A0" unicode="&#xa0;" horiz-adv-x="238" 
 />
    <glyph glyph-name="exclamdown" unicode="&#xa1;" horiz-adv-x="234" 
d="M85 616v84h64v-84h-64zM89 0v70l15 447h26l15 -447v-70h-56z" />
    <glyph glyph-name="cent" unicode="&#xa2;" horiz-adv-x="492" 
d="M337 705l-13 -88q65 -12 123 -70l-31 -34q-51 48 -99 59l-60 -441q8 -1 24 -1q77 0 139 66l30 -30q-73 -80 -172 -80q-16 0 -24 1l-13 -93h-46l15 103q-70 24 -113 91.5t-43 161.5v5q0 117 64 192t161 75h1l12 83h45zM103 351q0 -77 31 -132t84 -77l58 435
q-75 -1 -124 -61t-49 -159v-6z" />
    <glyph glyph-name="sterling" unicode="&#xa3;" horiz-adv-x="546" 
d="M58 0v24l75 19v269h-76v44h76v127q0 118 58 176q52 50 131 50q110 0 175 -89l-37 -30q-57 74 -140 74q-58 0 -94 -35q-44 -44 -44 -145v-128h246v-44h-246v-267h316v-45h-440z" />
    <glyph glyph-name="yen" unicode="&#xa5;" horiz-adv-x="581" 
d="M89 270v42h164l-229 388h58l209 -367l210 367h56l-230 -388h165v-42h-178v-98h178v-42h-178v-130h-47v130h-178v42h178v98h-178z" />
    <glyph glyph-name="section" unicode="&#xa7;" horiz-adv-x="549" 
d="M358 220q80 -45 80 -106v-2q0 -54 -44.5 -87.5t-115.5 -33.5q-106 0 -187 73l32 36q68 -63 159 -63q51 0 78 21t27 54v2q0 32 -35 56t-123 52q-99 31 -138 62t-39 77v2q0 43 36.5 75t101.5 42q-79 44 -79 106v2q0 54 44 87.5t116 33.5q106 0 187 -73l-32 -36
q-68 63 -159 63q-51 0 -78 -21t-27 -54v-2q0 -32 35 -56t123 -52q99 -31 138 -62t39 -77v-2q0 -43 -36.5 -75t-102.5 -42zM326 250q52 0 87 24.5t35 58.5v3q0 29 -29.5 52t-105.5 46q-53 16 -90 16q-52 0 -87 -24.5t-35 -58.5v-3q0 -29 29.5 -52t104.5 -46q53 -16 91 -16z
" />
    <glyph glyph-name="dieresis" unicode="&#xa8;" horiz-adv-x="500" 
d="M290 592v75h61v-75h-61zM149 592v75h61v-75h-61z" />
    <glyph glyph-name="copyright" unicode="&#xa9;" horiz-adv-x="736" 
d="M367 -12q-137 0 -230 104t-93 251v13q0 147 93.5 251.5t231.5 104.5q137 0 230 -104t93 -251v-12q0 -147 -93.5 -252t-231.5 -105zM367 16q128 0 212 96t84 233v12q0 136 -83.5 231.5t-210.5 95.5q-128 0 -212 -96t-84 -232v-13q0 -136 83.5 -231.5t210.5 -95.5zM374 162
q-68 0 -113.5 53t-45.5 136v5q0 82 46 136t114 54q61 0 114 -48l-26 -30q-43 39 -89 39q-50 0 -83.5 -42t-33.5 -108v-6q0 -66 34 -108.5t84 -42.5q47 0 91 41l25 -28q-53 -51 -117 -51z" />
    <glyph glyph-name="ordfeminine" unicode="&#xaa;" horiz-adv-x="347" 
d="M154 409q-38 0 -67 24t-29 65v4q0 42 30 67t79 25q38 0 71 -10v13q0 34 -19 52t-53 18q-36 0 -76 -20l-13 33q49 23 91 23q52 0 82 -31q24 -26 24 -74v-184h-36v39q-31 -44 -84 -44zM157 443q34 0 57.5 21.5t23.5 53.5v33q-31 11 -71 11q-33 0 -52 -16.5t-19 -42.5v-3
q0 -26 17.5 -41.5t43.5 -15.5zM56 302v36h226v-36h-226z" />
    <glyph glyph-name="guillemotleft" unicode="&#xab;" horiz-adv-x="461" 
d="M372 42l-148 209v8l148 209l35 -22l-127 -190l127 -192zM193 42l-148 209v8l148 209l35 -22l-127 -190l127 -192z" />
    <glyph glyph-name="registered" unicode="&#xae;" horiz-adv-x="384" 
d="M192 359q-68 0 -113.5 50t-45.5 123v6q0 72 46 123t113 51q68 0 114 -50.5t46 -122.5v-6q0 -72 -46.5 -123t-113.5 -51zM192 377q60 0 100 45.5t40 110.5v6q0 65 -39.5 109.5t-100.5 44.5q-60 0 -100 -45t-40 -110v-6q0 -65 40 -110t100 -45zM134 449v180h65q28 0 46 -15
t18 -41q0 -39 -40 -53l46 -71h-32l-40 66h-37v-66h-26zM160 538h37q39 0 39 34q0 33 -39 33h-37v-67z" />
    <glyph glyph-name="macron" unicode="&#xaf;" horiz-adv-x="500" 
d="M122 610v44h256v-44h-256z" />
    <glyph glyph-name="degree" unicode="&#xb0;" horiz-adv-x="388" 
d="M194 409q-54 0 -94.5 43t-40.5 104v4q0 61 40.5 103.5t94.5 42.5q55 0 95 -42.5t40 -103.5v-4q0 -61 -40 -104t-95 -43zM194 450q39 0 64.5 30.5t25.5 75.5v4q0 44 -25.5 74.5t-64.5 30.5t-64 -30.5t-25 -74.5v-4q0 -45 25 -75.5t64 -30.5z" />
    <glyph glyph-name="plusminus" unicode="&#xb1;" horiz-adv-x="534" 
d="M472 350h-181v-179h-47v179h-181v46h181v179h47v-179h181v-46zM472 30h-409v45h409v-45z" />
    <glyph glyph-name="two.sup" unicode="&#xb2;" 
d="M51 438v30l138 140q35 34 50 58.5t15 50.5q0 30 -21 49t-52 19q-55 0 -98 -61l-27 21q53 75 128 75q47 0 78 -29t31 -72q0 -36 -17.5 -63.5t-58.5 -68.5l-113 -113h193v-36h-246z" />
    <glyph glyph-name="three.sup" unicode="&#xb3;" 
d="M170 430q-76 0 -126 61l26 25q42 -52 102 -52q34 0 58 21.5t24 56.5q0 36 -29.5 56t-79.5 21h-20l-5 23l120 134h-179v36h227v-30l-117 -131q55 -6 88 -33.5t33 -76.5q0 -48 -36 -79.5t-86 -31.5z" />
    <glyph glyph-name="acute" unicode="&#xb4;" horiz-adv-x="500" 
d="M194 589l80 130l56 -29l-99 -101h-37z" />
    <glyph glyph-name="paragraph" unicode="&#xb6;" horiz-adv-x="433" 
d="M300 0v271h-4q-112 0 -182.5 58t-70.5 157v2q0 97 66.5 154.5t174.5 57.5h66v-700h-50z" />
    <glyph glyph-name="periodcentered" unicode="&#xb7;" horiz-adv-x="206" 
d="M70 255v85h66v-85h-66z" />
    <glyph glyph-name="cedilla" unicode="&#xb8;" horiz-adv-x="500" 
d="M223 -135l-53 23l80 122h39z" />
    <glyph glyph-name="one.sup" unicode="&#xb9;" horiz-adv-x="287" 
d="M181 438h-38v337l-83 -35l-7 36l95 40h33v-378z" />
    <glyph glyph-name="ordmasculine" unicode="&#xba;" horiz-adv-x="347" 
d="M173 409q-55 0 -90 41.5t-35 103.5v4q0 62 35.5 104.5t90.5 42.5t90.5 -42t35.5 -103v-5q0 -61 -36 -103.5t-91 -42.5zM50 302v36h248v-36h-248zM174 445q38 0 61.5 31.5t23.5 77.5v4q0 46 -24 77.5t-62 31.5t-61.5 -31t-23.5 -76v-5q0 -46 24 -78t62 -32z" />
    <glyph glyph-name="guillemotright" unicode="&#xbb;" horiz-adv-x="461" 
d="M268 42l-35 22l128 190l-128 192l35 22l148 -209v-8zM89 42l-35 22l128 190l-128 192l35 22l148 -209v-8z" />
    <glyph glyph-name="onequarter" unicode="&#xbc;" horiz-adv-x="729" 
d="M181 326h-38v338l-83 -35l-7 35l95 41h33v-379zM125 0l215 356l203 344h40l-215 -356l-202 -344h-41zM634 84v-86h-36v86h-173l-8 29l173 265h44v-262h49v-32h-49zM598 116v211h-1l-138 -211h139z" />
    <glyph glyph-name="onehalf" unicode="&#xbd;" horiz-adv-x="729" 
d="M431 0v30l138 140q35 34 50 58.5t15 50.5q0 30 -21 49t-52 19q-55 0 -98 -61l-27 21q53 75 128 75q47 0 78 -29t31 -72q0 -36 -17.5 -63.5t-58.5 -68.5l-113 -113h193v-36h-246zM109 0l215 356l203 344h40l-215 -356l-202 -344h-41zM181 326h-38v338l-83 -35l-7 35l95 41
h33v-379z" />
    <glyph glyph-name="threequarters" unicode="&#xbe;" horiz-adv-x="794" 
d="M701 84v-86h-36v86h-173l-8 29l173 265h44v-262h49v-32h-49zM665 116v211h-1l-138 -211h139zM188 0l215 356l203 344h40l-215 -356l-202 -344h-41zM171 318q-76 0 -126 61l26 25q44 -52 102 -52q34 0 58 21.5t24 56.5q0 36 -29.5 56.5t-79.5 20.5h-20l-5 24l120 133h-179
v36h227v-30l-117 -131q55 -6 88 -33.5t33 -76.5q0 -48 -36 -79.5t-86 -31.5z" />
    <glyph glyph-name="questiondown" unicode="&#xbf;" horiz-adv-x="464" 
d="M223 616v84h64v-84h-64zM241 -8q-87 0 -142 53.5t-55 132.5v3q0 84 52.5 135t135.5 68l9 133h31l11 -165l-5 -6q-87 -8 -135 -50t-48 -113v-2q0 -62 41 -103t108 -41q88 0 161 81l31 -32q-84 -94 -195 -94z" />
    <glyph glyph-name="Agrave" unicode="&#xc0;" horiz-adv-x="674" 
d="M39 0l273 705h50l273 -705h-54l-74 196h-343l-74 -196h-51zM182 241h307l-153 403zM356 765h-40l-98 88l55 26z" />
    <glyph glyph-name="Aacute" unicode="&#xc1;" horiz-adv-x="674" 
d="M39 0l273 705h50l273 -705h-54l-74 196h-343l-74 -196h-51zM182 241h307l-153 403zM317 765l83 114l55 -26l-98 -88h-40z" />
    <glyph glyph-name="Acircumflex" unicode="&#xc2;" horiz-adv-x="674" 
d="M39 0l273 705h50l273 -705h-54l-74 196h-343l-74 -196h-51zM182 241h307l-153 403zM220 765l94 104h44l94 -104h-51l-66 60l-66 -60h-49z" />
    <glyph glyph-name="Atilde" unicode="&#xc3;" horiz-adv-x="674" 
d="M39 0l273 705h50l273 -705h-54l-74 196h-343l-74 -196h-51zM182 241h307l-153 403zM398 766q-22 0 -64 21q-36 17 -50 17q-15 0 -24.5 -9.5t-19.5 -33.5l-35 9q25 81 74 81q24 0 64 -21q38 -17 50 -17q15 0 24.5 9.5t19.5 32.5l35 -9q-24 -80 -74 -80z" />
    <glyph glyph-name="Adieresis" unicode="&#xc4;" horiz-adv-x="674" 
d="M39 0l273 705h50l273 -705h-54l-74 196h-343l-74 -196h-51zM182 241h307l-153 403zM380 768v73h66v-73h-66zM227 768v73h67v-73h-67z" />
    <glyph glyph-name="Aring" unicode="&#xc5;" horiz-adv-x="674" 
d="M39 0l258 666q-26 10 -42 31.5t-16 49.5q0 38 28.5 63.5t69.5 25.5q40 0 68.5 -25.5t28.5 -63.5q0 -27 -16 -48.5t-42 -32.5l259 -666h-54l-74 196h-343l-74 -196h-51zM182 241h307l-153 403zM337 690q26 0 44 16.5t18 40.5q0 25 -18 42t-44 17t-44 -17t-18 -42t18 -41
t44 -16z" />
    <glyph glyph-name="AE" unicode="&#xc6;" horiz-adv-x="881" 
d="M15 0l354 700h456v-46h-359v-278h322v-46h-322v-284h363v-46h-413v196h-250l-99 -196h-52zM189 241h227v414h-21z" />
    <glyph glyph-name="Ccedilla" unicode="&#xc7;" horiz-adv-x="613" 
d="M310 -135l-53 23l68 105q-116 14 -189.5 110.5t-73.5 243.5v5q0 157 86.5 257.5t216.5 100.5q115 0 209 -85l-32 -38q-80 77 -179 77q-107 0 -178.5 -88t-71.5 -223v-4q0 -137 71.5 -225t178.5 -88q100 0 184 82l31 -35q-96 -90 -211 -93z" />
    <glyph glyph-name="Egrave" unicode="&#xc8;" horiz-adv-x="565" 
d="M320 757h-40l-98 88l55 26zM89 0v700h419v-46h-369v-278h332v-46h-332v-284h374v-46h-424z" />
    <glyph glyph-name="Eacute" unicode="&#xc9;" horiz-adv-x="565" 
d="M280 757l83 114l55 -26l-98 -88h-40zM89 0v700h419v-46h-369v-278h332v-46h-332v-284h374v-46h-424z" />
    <glyph glyph-name="Ecircumflex" unicode="&#xca;" horiz-adv-x="565" 
d="M89 0v700h419v-46h-369v-278h332v-46h-332v-284h374v-46h-424zM184 759l94 104h44l94 -104h-51l-66 60l-66 -60h-49z" />
    <glyph glyph-name="Edieresis" unicode="&#xcb;" horiz-adv-x="565" 
d="M344 760v73h66v-73h-66zM191 760v73h67v-73h-67zM89 0v700h419v-46h-369v-278h332v-46h-332v-284h374v-46h-424z" />
    <glyph glyph-name="Igrave" unicode="&#xcc;" horiz-adv-x="242" 
d="M96 0v700h50v-700h-50zM141 757h-40l-98 88l55 26z" />
    <glyph glyph-name="Iacute" unicode="&#xcd;" horiz-adv-x="242" 
d="M96 0v700h50v-700h-50zM102 757l83 114l55 -26l-98 -88h-40z" />
    <glyph glyph-name="Icircumflex" unicode="&#xce;" horiz-adv-x="242" 
d="M96 0v700h50v-700h-50zM6 759l94 104h44l94 -104h-51l-66 60l-66 -60h-49z" />
    <glyph glyph-name="Idieresis" unicode="&#xcf;" horiz-adv-x="242" 
d="M96 0v700h50v-700h-50zM166 760v73h66v-73h-66zM13 760v73h67v-73h-67z" />
    <glyph glyph-name="Eth" unicode="&#xd0;" horiz-adv-x="688" 
d="M112 0v329h-69v46h69v325h187q145 0 236 -96t91 -250v-7q0 -154 -91 -250.5t-236 -96.5h-187zM349 329h-187v-283h137q125 0 200.5 83t75.5 217v7q0 133 -76 217t-200 84h-137v-279h187v-46z" />
    <glyph glyph-name="Ntilde" unicode="&#xd1;" horiz-adv-x="677" 
d="M400 753q-22 0 -64 21q-36 17 -50 17q-15 0 -24.5 -9.5t-19.5 -33.5l-35 9q25 81 74 81q24 0 64 -21q38 -17 50 -17q15 0 24.5 9.5t19.5 32.5l35 -9q-24 -80 -74 -80zM89 0v700h48l403 -603v603h48v-700h-40l-411 617v-617h-48z" />
    <glyph glyph-name="Ograve" unicode="&#xd2;" horiz-adv-x="714" 
d="M376 765h-40l-98 88l55 26zM357 -11q-131 0 -213 101t-82 256v7q0 155 82.5 256.5t213.5 101.5t212.5 -101t81.5 -256v-7q0 -155 -82 -256.5t-213 -101.5zM358 35q105 0 174 88t69 223v7q0 135 -69.5 223.5t-174.5 88.5q-106 0 -175 -88t-69 -223v-7q0 -135 69.5 -223.5
t175.5 -88.5z" />
    <glyph glyph-name="Oacute" unicode="&#xd3;" horiz-adv-x="714" 
d="M337 765l83 114l55 -26l-98 -88h-40zM357 -11q-131 0 -213 101t-82 256v7q0 155 82.5 256.5t213.5 101.5t212.5 -101t81.5 -256v-7q0 -155 -82 -256.5t-213 -101.5zM358 35q105 0 174 88t69 223v7q0 135 -69.5 223.5t-174.5 88.5q-106 0 -175 -88t-69 -223v-7
q0 -135 69.5 -223.5t175.5 -88.5z" />
    <glyph glyph-name="Ocircumflex" unicode="&#xd4;" horiz-adv-x="714" 
d="M357 -11q-131 0 -213 101t-82 256v7q0 155 82.5 256.5t213.5 101.5t212.5 -101t81.5 -256v-7q0 -155 -82 -256.5t-213 -101.5zM358 35q105 0 174 88t69 223v7q0 135 -69.5 223.5t-174.5 88.5q-106 0 -175 -88t-69 -223v-7q0 -135 69.5 -223.5t175.5 -88.5zM240 767
l94 104h44l94 -104h-51l-66 60l-66 -60h-49z" />
    <glyph glyph-name="Otilde" unicode="&#xd5;" horiz-adv-x="714" 
d="M418 766q-22 0 -64 21q-36 17 -50 17q-15 0 -24.5 -9.5t-19.5 -33.5l-35 9q25 81 74 81q24 0 64 -21q38 -17 50 -17q15 0 24.5 9.5t19.5 32.5l35 -9q-24 -80 -74 -80zM357 -11q-131 0 -213 101t-82 256v7q0 155 82.5 256.5t213.5 101.5t212.5 -101t81.5 -256v-7
q0 -155 -82 -256.5t-213 -101.5zM358 35q105 0 174 88t69 223v7q0 135 -69.5 223.5t-174.5 88.5q-106 0 -175 -88t-69 -223v-7q0 -135 69.5 -223.5t175.5 -88.5z" />
    <glyph glyph-name="Odieresis" unicode="&#xd6;" horiz-adv-x="714" 
d="M400 768v73h66v-73h-66zM247 768v73h67v-73h-67zM357 -11q-131 0 -213 101t-82 256v7q0 155 82.5 256.5t213.5 101.5t212.5 -101t81.5 -256v-7q0 -155 -82 -256.5t-213 -101.5zM358 35q105 0 174 88t69 223v7q0 135 -69.5 223.5t-174.5 88.5q-106 0 -175 -88t-69 -223v-7
q0 -135 69.5 -223.5t175.5 -88.5z" />
    <glyph glyph-name="multiply" unicode="&#xd7;" horiz-adv-x="534" 
d="M420 162l-153 158l-154 -158l-33 32l157 157l-157 158l34 33l154 -158l154 158l32 -31l-156 -158l156 -158z" />
    <glyph glyph-name="Oslash" unicode="&#xd8;" horiz-adv-x="714" 
d="M604 706h55l-82 -105q75 -100 75 -247v-6q0 -155 -82.5 -257t-213.5 -102q-111 0 -188 75l-57 -70h-55l81 105q-75 98 -75 247v6q0 155 82.5 257t213.5 102q110 0 189 -76zM112 349q0 -123 57 -210l350 456q-69 72 -163 72q-106 0 -175 -88t-69 -225v-5zM358 33
q107 0 176 88t69 225v5q0 124 -58 209l-349 -456q66 -71 162 -71z" />
    <glyph glyph-name="Ugrave" unicode="&#xd9;" horiz-adv-x="653" 
d="M346 752h-40l-98 88l55 26zM326 -11q-111 0 -178 71t-67 197v443h49v-440q0 -107 52.5 -166t145.5 -59q91 0 143 57t52 165v443h50v-439q0 -129 -67.5 -200.5t-179.5 -71.5z" />
    <glyph glyph-name="Uacute" unicode="&#xda;" horiz-adv-x="653" 
d="M306 752l83 114l55 -26l-98 -88h-40zM326 -11q-111 0 -178 71t-67 197v443h49v-440q0 -107 52.5 -166t145.5 -59q91 0 143 57t52 165v443h50v-439q0 -129 -67.5 -200.5t-179.5 -71.5z" />
    <glyph glyph-name="Ucircumflex" unicode="&#xdb;" horiz-adv-x="653" 
d="M326 -11q-111 0 -178 71t-67 197v443h49v-440q0 -107 52.5 -166t145.5 -59q91 0 143 57t52 165v443h50v-439q0 -129 -67.5 -200.5t-179.5 -71.5zM210 754l94 104h44l94 -104h-51l-66 60l-66 -60h-49z" />
    <glyph glyph-name="Udieresis" unicode="&#xdc;" horiz-adv-x="653" 
d="M369 755v73h66v-73h-66zM216 755v73h67v-73h-67zM326 -11q-111 0 -178 71t-67 197v443h49v-440q0 -107 52.5 -166t145.5 -59q91 0 143 57t52 165v443h50v-439q0 -129 -67.5 -200.5t-179.5 -71.5z" />
    <glyph glyph-name="Yacute" unicode="&#xdd;" horiz-adv-x="605" 
d="M277 0v285l-253 415h59l220 -367l220 367h57l-253 -414v-286h-50zM282 752l83 114l55 -26l-98 -88h-40z" />
    <glyph glyph-name="Thorn" unicode="&#xde;" horiz-adv-x="579" 
d="M89 0v700h51v-126h152q110 0 176 -57.5t66 -157.5v-2q0 -104 -71 -163.5t-181 -59.5h-143v-134h-50zM139 179h146q91 0 145.5 48t54.5 128v2q0 82 -53 127t-143 45h-150v-350z" />
    <glyph glyph-name="germandbls" unicode="&#xdf;" horiz-adv-x="534" 
d="M244 -2v41q91 3 140.5 41t49.5 106v2q0 131 -190 155v39q72 23 112 67.5t40 105.5v3q0 57 -35.5 91.5t-91.5 34.5q-64 0 -103.5 -47.5t-39.5 -126.5v-510h-46v508q0 99 52 159.5t139 60.5q77 0 126 -47.5t49 -120.5v-3q0 -67 -40.5 -115.5t-101.5 -71.5
q80 -17 129.5 -61.5t49.5 -117.5v-4q0 -87 -64 -137.5t-175 -51.5z" />
    <glyph glyph-name="agrave" unicode="&#xe0;" horiz-adv-x="497" 
d="M215 -11q-69 0 -120.5 44t-51.5 117v4q0 76 53.5 121t141.5 45q70 0 142 -21v37q0 69 -38 105.5t-106 36.5q-72 0 -137 -37l-18 41q83 40 158 40q90 0 139 -50q48 -45 48 -133v-339h-46v82q-56 -93 -165 -93zM219 32q67 0 114.5 43.5t47.5 106.5v74q-70 22 -144 22
q-69 0 -107 -33.5t-38 -88.5v-4q0 -54 36.5 -87t90.5 -33zM232 589l-99 101l56 29l80 -130h-37z" />
    <glyph glyph-name="aacute" unicode="&#xe1;" horiz-adv-x="497" 
d="M215 -11q-69 0 -120.5 44t-51.5 117v4q0 76 53.5 121t141.5 45q70 0 142 -21v37q0 69 -38 105.5t-106 36.5q-72 0 -137 -37l-18 41q83 40 158 40q90 0 139 -50q48 -45 48 -133v-339h-46v82q-56 -93 -165 -93zM219 32q67 0 114.5 43.5t47.5 106.5v74q-70 22 -144 22
q-69 0 -107 -33.5t-38 -88.5v-4q0 -54 36.5 -87t90.5 -33zM229 589l80 130l56 -29l-99 -101h-37z" />
    <glyph glyph-name="acircumflex" unicode="&#xe2;" horiz-adv-x="497" 
d="M215 -11q-69 0 -120.5 44t-51.5 117v4q0 76 53.5 121t141.5 45q70 0 142 -21v37q0 69 -38 105.5t-106 36.5q-72 0 -137 -37l-18 41q83 40 158 40q90 0 139 -50q48 -45 48 -133v-339h-46v82q-56 -93 -165 -93zM219 32q67 0 114.5 43.5t47.5 106.5v74q-70 22 -144 22
q-69 0 -107 -33.5t-38 -88.5v-4q0 -54 36.5 -87t90.5 -33zM141 590l89 122h38l89 -122h-43l-66 71l-66 -71h-41z" />
    <glyph glyph-name="atilde" unicode="&#xe3;" horiz-adv-x="497" 
d="M215 -11q-69 0 -120.5 44t-51.5 117v4q0 76 53.5 121t141.5 45q70 0 142 -21v37q0 69 -38 105.5t-106 36.5q-72 0 -137 -37l-18 41q83 40 158 40q90 0 139 -50q48 -45 48 -133v-339h-46v82q-56 -93 -165 -93zM219 32q67 0 114.5 43.5t47.5 106.5v74q-70 22 -144 22
q-69 0 -107 -33.5t-38 -88.5v-4q0 -54 36.5 -87t90.5 -33zM307 589q-21 0 -60 22q-34 22 -53 22q-15 0 -24 -10.5t-18 -37.5l-34 8q13 48 30.5 67.5t44.5 19.5q21 0 60 -22q35 -21 53 -21q15 0 24 10.5t18 37.5l34 -9q-13 -47 -30.5 -67t-44.5 -20z" />
    <glyph glyph-name="adieresis" unicode="&#xe4;" horiz-adv-x="497" 
d="M215 -11q-69 0 -120.5 44t-51.5 117v4q0 76 53.5 121t141.5 45q70 0 142 -21v37q0 69 -38 105.5t-106 36.5q-72 0 -137 -37l-18 41q83 40 158 40q90 0 139 -50q48 -45 48 -133v-339h-46v82q-56 -93 -165 -93zM219 32q67 0 114.5 43.5t47.5 106.5v74q-70 22 -144 22
q-69 0 -107 -33.5t-38 -88.5v-4q0 -54 36.5 -87t90.5 -33zM289 592v75h61v-75h-61zM148 592v75h61v-75h-61z" />
    <glyph glyph-name="aring" unicode="&#xe5;" horiz-adv-x="497" 
d="M215 -11q-69 0 -120.5 44t-51.5 117v4q0 76 53.5 121t141.5 45q70 0 142 -21v37q0 69 -38 105.5t-106 36.5q-72 0 -137 -37l-18 41q83 40 158 40q90 0 139 -50q48 -45 48 -133v-339h-46v82q-56 -93 -165 -93zM219 32q67 0 114.5 43.5t47.5 106.5v74q-70 22 -144 22
q-69 0 -107 -33.5t-38 -88.5v-4q0 -54 36.5 -87t90.5 -33zM249 588q-40 0 -68 27.5t-28 65.5t28 65.5t68 27.5t68 -27.5t28 -65.5t-28 -65.5t-68 -27.5zM249 616q26 0 44.5 19t18.5 46q0 26 -18.5 45t-44.5 19t-44.5 -19t-18.5 -45q0 -27 18.5 -46t44.5 -19z" />
    <glyph glyph-name="ae" unicode="&#xe6;" horiz-adv-x="824" 
d="M212 -11q-69 0 -119 44t-50 117v4q0 76 52.5 121t139.5 45q64 0 136 -21v37q0 69 -36.5 105.5t-104.5 36.5q-64 0 -132 -35l-17 41q79 38 151 38q141 0 171 -115q27 56 73 87.5t101 31.5q91 0 146.5 -73.5t55.5 -190.5q0 -19 -1 -24h-361q4 -95 55 -150t122 -55
q81 0 144 63l29 -32q-41 -38 -80.5 -56.5t-94.5 -18.5q-59 0 -108 30t-78 85q-79 -115 -194 -115zM417 280h313q-3 86 -43.5 144.5t-110.5 58.5q-65 0 -109.5 -56t-49.5 -147zM215 32q103 0 172 115q-16 47 -18 110q-74 21 -136 21q-67 0 -104 -33.5t-37 -88.5v-4
q0 -54 35 -87t88 -33z" />
    <glyph glyph-name="ccedilla" unicode="&#xe7;" horiz-adv-x="474" 
d="M224 -135l-53 23l68 104q-83 14 -136 85t-53 176v6q0 116 65.5 191.5t160.5 75.5q87 0 160 -71l-30 -36q-63 63 -132 63q-73 0 -124 -62.5t-51 -160.5v-5q0 -99 52.5 -160t125.5 -61q72 1 131 64l30 -31q-67 -74 -158 -77z" />
    <glyph glyph-name="egrave" unicode="&#xe8;" horiz-adv-x="505" 
d="M273 -11q-94 0 -158.5 72.5t-64.5 192.5v4q0 118 59.5 193t149.5 75q91 0 146 -73t55 -191v-24h-362q4 -95 55.5 -150t122.5 -55q80 0 143 63l29 -32q-77 -75 -175 -75zM98 280h313q-3 86 -43.5 144.5t-109.5 58.5q-65 0 -110 -56.5t-50 -146.5zM242 589l-99 101l56 29
l80 -130h-37z" />
    <glyph glyph-name="eacute" unicode="&#xe9;" horiz-adv-x="505" 
d="M273 -11q-94 0 -158.5 72.5t-64.5 192.5v4q0 118 59.5 193t149.5 75q91 0 146 -73t55 -191v-24h-362q4 -95 55.5 -150t122.5 -55q80 0 143 63l29 -32q-77 -75 -175 -75zM98 280h313q-3 86 -43.5 144.5t-109.5 58.5q-65 0 -110 -56.5t-50 -146.5zM239 589l80 130l56 -29
l-99 -101h-37z" />
    <glyph glyph-name="ecircumflex" unicode="&#xea;" horiz-adv-x="505" 
d="M273 -11q-94 0 -158.5 72.5t-64.5 192.5v4q0 118 59.5 193t149.5 75q91 0 146 -73t55 -191v-24h-362q4 -95 55.5 -150t122.5 -55q80 0 143 63l29 -32q-77 -75 -175 -75zM98 280h313q-3 86 -43.5 144.5t-109.5 58.5q-65 0 -110 -56.5t-50 -146.5zM150 590l89 122h38
l89 -122h-43l-66 71l-66 -71h-41z" />
    <glyph glyph-name="edieresis" unicode="&#xeb;" horiz-adv-x="505" 
d="M273 -11q-94 0 -158.5 72.5t-64.5 192.5v4q0 118 59.5 193t149.5 75q91 0 146 -73t55 -191v-24h-362q4 -95 55.5 -150t122.5 -55q80 0 143 63l29 -32q-77 -75 -175 -75zM98 280h313q-3 86 -43.5 144.5t-109.5 58.5q-65 0 -110 -56.5t-50 -146.5zM298 592v75h61v-75h-61z
M157 592v75h61v-75h-61z" />
    <glyph glyph-name="igrave" unicode="&#xec;" horiz-adv-x="219" 
d="M86 0v515h47v-515h-47zM93 589l-99 101l56 29l80 -130h-37z" />
    <glyph glyph-name="iacute" unicode="&#xed;" horiz-adv-x="219" 
d="M91 589l80 130l56 -29l-99 -101h-37zM86 0v515h47v-515h-47z" />
    <glyph glyph-name="icircumflex" unicode="&#xee;" horiz-adv-x="219" 
d="M2 590l89 122h38l89 -122h-43l-66 71l-66 -71h-41zM86 0v515h47v-515h-47z" />
    <glyph glyph-name="idieresis" unicode="&#xef;" horiz-adv-x="219" 
d="M150 592v75h61v-75h-61zM9 592v75h61v-75h-61zM86 0v515h47v-515h-47z" />
    <glyph glyph-name="eth" unicode="&#xf0;" horiz-adv-x="546" 
d="M412 691l-82 -44q166 -181 166 -365v-6q0 -131 -63.5 -209t-162.5 -78q-92 0 -156 76.5t-64 190.5v4q0 114 63 186t148 72q91 0 160 -76q-35 86 -130 185l-97 -52l-22 34l89 47q-38 37 -73 66h68l46 -44l89 47zM273 33q75 0 124.5 62.5t49.5 159.5v5q0 96 -51.5 155.5
t-129.5 59.5q-73 0 -120 -61t-47 -156v-4q0 -93 50.5 -157t123.5 -64z" />
    <glyph glyph-name="ntilde" unicode="&#xf1;" horiz-adv-x="533" 
d="M80 0v515h46v-89q53 100 160 100q81 0 128 -52t47 -141v-333h-47v320q0 78 -35.5 121t-100.5 43t-108.5 -47.5t-43.5 -121.5v-315h-46zM329 589q-21 0 -60 22q-34 22 -53 22q-15 0 -24 -10.5t-18 -37.5l-34 8q13 48 30.5 67.5t44.5 19.5q21 0 60 -22q35 -21 53 -21
q15 0 24 10.5t18 37.5l34 -9q-13 -47 -30.5 -67t-44.5 -20z" />
    <glyph glyph-name="ograve" unicode="&#xf2;" horiz-adv-x="547" 
d="M273 -11q-96 0 -159.5 76.5t-63.5 189.5v4q0 113 64 190t160 77q97 0 160.5 -76.5t63.5 -189.5v-4q0 -113 -64 -190t-161 -77zM274 33q75 0 125 63.5t50 158.5v4q0 95 -51.5 159t-124.5 64q-74 0 -124 -63.5t-50 -158.5v-4q0 -95 51 -159t124 -64zM257 589l-99 101l56 29
l80 -130h-37z" />
    <glyph glyph-name="oacute" unicode="&#xf3;" horiz-adv-x="547" 
d="M253 589l80 130l56 -29l-99 -101h-37zM273 -11q-96 0 -159.5 76.5t-63.5 189.5v4q0 113 64 190t160 77q97 0 160.5 -76.5t63.5 -189.5v-4q0 -113 -64 -190t-161 -77zM274 33q75 0 125 63.5t50 158.5v4q0 95 -51.5 159t-124.5 64q-74 0 -124 -63.5t-50 -158.5v-4
q0 -95 51 -159t124 -64z" />
    <glyph glyph-name="ocircumflex" unicode="&#xf4;" horiz-adv-x="547" 
d="M165 590l89 122h38l89 -122h-43l-66 71l-66 -71h-41zM273 -11q-96 0 -159.5 76.5t-63.5 189.5v4q0 113 64 190t160 77q97 0 160.5 -76.5t63.5 -189.5v-4q0 -113 -64 -190t-161 -77zM274 33q75 0 125 63.5t50 158.5v4q0 95 -51.5 159t-124.5 64q-74 0 -124 -63.5
t-50 -158.5v-4q0 -95 51 -159t124 -64z" />
    <glyph glyph-name="otilde" unicode="&#xf5;" horiz-adv-x="547" 
d="M273 -11q-96 0 -159.5 76.5t-63.5 189.5v4q0 113 64 190t160 77q97 0 160.5 -76.5t63.5 -189.5v-4q0 -113 -64 -190t-161 -77zM274 33q75 0 125 63.5t50 158.5v4q0 95 -51.5 159t-124.5 64q-74 0 -124 -63.5t-50 -158.5v-4q0 -95 51 -159t124 -64zM333 589q-21 0 -60 22
q-34 22 -53 22q-15 0 -24 -10.5t-18 -37.5l-34 8q13 48 30.5 67.5t44.5 19.5q21 0 60 -22q35 -21 53 -21q15 0 24 10.5t18 37.5l34 -9q-13 -47 -30.5 -67t-44.5 -20z" />
    <glyph glyph-name="odieresis" unicode="&#xf6;" horiz-adv-x="547" 
d="M313 592v75h61v-75h-61zM172 592v75h61v-75h-61zM273 -11q-96 0 -159.5 76.5t-63.5 189.5v4q0 113 64 190t160 77q97 0 160.5 -76.5t63.5 -189.5v-4q0 -113 -64 -190t-161 -77zM274 33q75 0 125 63.5t50 158.5v4q0 95 -51.5 159t-124.5 64q-74 0 -124 -63.5t-50 -158.5
v-4q0 -95 51 -159t124 -64z" />
    <glyph glyph-name="divide" unicode="&#xf7;" horiz-adv-x="534" 
d="M231 483v83h72v-83h-72zM478 328h-422v48h422v-48zM231 138v83h72v-83h-72z" />
    <glyph glyph-name="oslash" unicode="&#xf8;" horiz-adv-x="547" 
d="M455 521h52l-66 -81q57 -74 57 -180v-4q0 -113 -64.5 -190t-160.5 -77q-81 0 -140 56l-41 -50h-51l64 81q-55 72 -55 179v4q0 113 64.5 190t159.5 77q79 0 140 -56zM274 32q76 0 126 64t50 159v3q0 83 -39 145l-252 -321q48 -50 115 -50zM98 257q0 -85 38 -145l252 321
q-48 50 -115 50q-76 0 -125.5 -63.5t-49.5 -159.5v-3z" />
    <glyph glyph-name="ugrave" unicode="&#xf9;" horiz-adv-x="533" 
d="M247 -11q-81 0 -128 52t-47 141v333h46v-320q0 -78 36 -120.5t101 -42.5q64 0 107.5 47.5t43.5 120.5v315h47v-515h-47v89q-52 -100 -159 -100zM245 588l-99 101l56 29l80 -130h-37z" />
    <glyph glyph-name="uacute" unicode="&#xfa;" horiz-adv-x="533" 
d="M242 588l80 130l56 -29l-99 -101h-37zM247 -11q-81 0 -128 52t-47 141v333h46v-320q0 -78 36 -120.5t101 -42.5q64 0 107.5 47.5t43.5 120.5v315h47v-515h-47v89q-52 -100 -159 -100z" />
    <glyph glyph-name="ucircumflex" unicode="&#xfb;" horiz-adv-x="533" 
d="M153 589l89 122h38l89 -122h-43l-66 71l-66 -71h-41zM247 -11q-81 0 -128 52t-47 141v333h46v-320q0 -78 36 -120.5t101 -42.5q64 0 107.5 47.5t43.5 120.5v315h47v-515h-47v89q-52 -100 -159 -100z" />
    <glyph glyph-name="udieresis" unicode="&#xfc;" horiz-adv-x="533" 
d="M301 591v75h61v-75h-61zM160 591v75h61v-75h-61zM247 -11q-81 0 -128 52t-47 141v333h46v-320q0 -78 36 -120.5t101 -42.5q64 0 107.5 47.5t43.5 120.5v315h47v-515h-47v89q-52 -100 -159 -100z" />
    <glyph glyph-name="yacute" unicode="&#xfd;" horiz-adv-x="507" 
d="M264 59l156 456h50l-187 -525q-28 -78 -63.5 -110.5t-86.5 -32.5q-44 0 -85 21l16 42q32 -19 71 -19q34 0 58 24t48 85l-206 515h52zM237 588l80 130l56 -29l-99 -101h-37z" />
    <glyph glyph-name="thorn" unicode="&#xfe;" horiz-adv-x="565" 
d="M80 -150v872h46v-317q69 121 177 121q85 0 148 -72t63 -192v-7q0 -120 -63.5 -193t-147.5 -73q-111 0 -177 118v-257h-46zM298 33q71 0 119 59.5t48 160.5v7q0 100 -49 161t-118 61t-122 -61.5t-53 -158.5v-9q0 -97 53 -158.5t122 -61.5z" />
    <glyph glyph-name="ydieresis" unicode="&#xff;" horiz-adv-x="507" 
d="M264 59l156 456h50l-187 -525q-28 -78 -63.5 -110.5t-86.5 -32.5q-44 0 -85 21l16 42q32 -19 71 -19q34 0 58 24t48 85l-206 515h52zM296 591v75h61v-75h-61zM155 591v75h61v-75h-61z" />
    <glyph glyph-name="Amacron" unicode="&#x100;" horiz-adv-x="674" 
d="M39 0l273 705h50l273 -705h-54l-74 196h-343l-74 -196h-51zM182 241h307l-153 403zM199 787v46h274v-46h-274z" />
    <glyph glyph-name="amacron" unicode="&#x101;" horiz-adv-x="497" 
d="M215 -11q-69 0 -120.5 44t-51.5 117v4q0 76 53.5 121t141.5 45q70 0 142 -21v37q0 69 -38 105.5t-106 36.5q-72 0 -137 -37l-18 41q83 40 158 40q90 0 139 -50q48 -45 48 -133v-339h-46v82q-56 -93 -165 -93zM219 32q67 0 114.5 43.5t47.5 106.5v74q-70 22 -144 22
q-69 0 -107 -33.5t-38 -88.5v-4q0 -54 36.5 -87t90.5 -33zM121 610v44h256v-44h-256z" />
    <glyph glyph-name="Abreve" unicode="&#x102;" horiz-adv-x="674" 
d="M39 0l273 705h50l273 -705h-54l-74 196h-343l-74 -196h-51zM182 241h307l-153 403zM336 765q-50 0 -83.5 24.5t-37.5 68.5h42q16 -47 79 -47t79 47h42q-4 -44 -37.5 -68.5t-83.5 -24.5z" />
    <glyph glyph-name="abreve" unicode="&#x103;" horiz-adv-x="497" 
d="M215 -11q-69 0 -120.5 44t-51.5 117v4q0 76 53.5 121t141.5 45q70 0 142 -21v37q0 69 -38 105.5t-106 36.5q-72 0 -137 -37l-18 41q83 40 158 40q90 0 139 -50q48 -45 48 -133v-339h-46v82q-56 -93 -165 -93zM219 32q67 0 114.5 43.5t47.5 106.5v74q-70 22 -144 22
q-69 0 -107 -33.5t-38 -88.5v-4q0 -54 36.5 -87t90.5 -33zM249 588q-50 0 -83 28t-37 78h38q18 -61 82 -61t82 61h38q-4 -50 -37 -78t-83 -28z" />
    <glyph glyph-name="Aogonek" unicode="&#x104;" horiz-adv-x="674" 
d="M641 -114v-35h-6q-105 3 -105 68q0 41 50 83l-73 194h-343l-74 -196h-51l273 705h50l273 -705h-11q-48 -45 -48 -73q0 -37 65 -41zM182 241h307l-153 403z" />
    <glyph glyph-name="aogonek" unicode="&#x105;" horiz-adv-x="497" 
d="M438 -114v-35h-6q-105 3 -105 68q0 43 53 85v78q-56 -93 -165 -93q-69 0 -120.5 44t-51.5 117v4q0 76 53.5 121t141.5 45q70 0 142 -21v37q0 69 -38 105.5t-106 36.5q-72 0 -137 -37l-18 41q83 40 158 40q90 0 139 -50q48 -45 48 -133v-339h-5q-48 -45 -48 -73
q0 -37 65 -41zM219 32q67 0 114.5 43.5t47.5 106.5v74q-70 22 -144 22q-69 0 -107 -33.5t-38 -88.5v-4q0 -54 36.5 -87t90.5 -33z" />
    <glyph glyph-name="Cacute" unicode="&#x106;" horiz-adv-x="613" 
d="M361 -10q-129 0 -214 99t-85 258v5q0 157 86.5 257.5t216.5 100.5q115 0 209 -85l-32 -38q-80 77 -179 77q-107 0 -178.5 -88t-71.5 -223v-4q0 -137 71.5 -225t178.5 -88q100 0 184 82l31 -35q-98 -93 -217 -93zM333 765l83 114l55 -26l-98 -88h-40z" />
    <glyph glyph-name="cacute" unicode="&#x107;" horiz-adv-x="474" 
d="M247 589l80 130l56 -29l-99 -101h-37zM275 -11q-96 0 -160.5 74t-64.5 190v6q0 116 65.5 191.5t160.5 75.5q87 0 160 -71l-30 -36q-63 63 -132 63q-73 0 -124 -62.5t-51 -160.5v-5q0 -99 52.5 -160t125.5 -61q72 1 131 64l30 -31q-70 -77 -163 -77z" />
    <glyph glyph-name="Cdotaccent" unicode="&#x10a;" horiz-adv-x="613" 
d="M318 768v73h68v-73h-68zM361 -10q-129 0 -214 99t-85 258v5q0 157 86.5 257.5t216.5 100.5q115 0 209 -85l-32 -38q-80 77 -179 77q-107 0 -178.5 -88t-71.5 -223v-4q0 -137 71.5 -225t178.5 -88q100 0 184 82l31 -35q-98 -93 -217 -93z" />
    <glyph glyph-name="cdotaccent" unicode="&#x10b;" horiz-adv-x="474" 
d="M275 -11q-96 0 -160.5 74t-64.5 190v6q0 116 65.5 191.5t160.5 75.5q87 0 160 -71l-30 -36q-63 63 -132 63q-73 0 -124 -62.5t-51 -160.5v-5q0 -99 52.5 -160t125.5 -61q72 1 131 64l30 -31q-70 -77 -163 -77zM235 592v76h64v-76h-64z" />
    <glyph glyph-name="Ccaron" unicode="&#x10c;" horiz-adv-x="613" 
d="M361 -10q-129 0 -214 99t-85 258v5q0 157 86.5 257.5t216.5 100.5q115 0 209 -85l-32 -38q-80 77 -179 77q-107 0 -178.5 -88t-71.5 -223v-4q0 -137 71.5 -225t178.5 -88q100 0 184 82l31 -35q-98 -93 -217 -93zM468 871l-94 -104h-44l-94 104h51l66 -60l66 60h49z" />
    <glyph glyph-name="ccaron" unicode="&#x10d;" horiz-adv-x="474" 
d="M375 712l-89 -122h-38l-89 122h43l66 -70l66 70h41zM275 -11q-96 0 -160.5 74t-64.5 190v6q0 116 65.5 191.5t160.5 75.5q87 0 160 -71l-30 -36q-63 63 -132 63q-73 0 -124 -62.5t-51 -160.5v-5q0 -99 52.5 -160t125.5 -61q72 1 131 64l30 -31q-70 -77 -163 -77z" />
    <glyph glyph-name="Dcaron" unicode="&#x10e;" horiz-adv-x="665" 
d="M89 0v700h187q145 0 236 -96t91 -250v-7q0 -154 -91 -250.5t-236 -96.5h-187zM274 654h-135v-608h136q125 0 201.5 83t76.5 217v7q0 133 -76.5 217t-202.5 84zM435 863l-94 -104h-44l-94 104h51l66 -60l66 60h49z" />
    <glyph glyph-name="dcaron" unicode="&#x10f;" horiz-adv-x="565" 
d="M543 574l14 149h53v-3l-41 -146h-26zM261 -11q-85 0 -147 71.5t-62 192.5v8q0 121 62 193t147 72q112 0 178 -118v314h47v-722h-47v110q-67 -121 -178 -121zM266 33q71 0 123.5 61.5t52.5 158.5v10q0 97 -52.5 158t-123.5 61q-72 0 -118.5 -58.5t-46.5 -161.5v-7
q0 -102 48 -162t117 -60z" />
    <glyph glyph-name="Dcroat" unicode="&#x110;" horiz-adv-x="688" 
d="M112 0v329h-69v46h69v325h187q145 0 236 -96t91 -250v-7q0 -154 -91 -250.5t-236 -96.5h-187zM349 329h-187v-283h137q125 0 200.5 83t75.5 217v7q0 133 -76 217t-200 84h-137v-279h187v-46z" />
    <glyph glyph-name="dcroat" unicode="&#x111;" horiz-adv-x="565" 
d="M280 612v42h159v68h47v-68h62v-42h-62v-612h-47v110q-67 -121 -177 -121q-84 0 -147 72t-63 192v8q0 119 63 192t147 73q111 0 177 -118v204h-159zM267 33q70 0 122.5 61.5t52.5 158.5v9q0 97 -52.5 158.5t-122.5 61.5q-71 0 -118.5 -59.5t-47.5 -160.5v-7
q0 -100 48.5 -161t117.5 -61z" />
    <glyph glyph-name="Emacron" unicode="&#x112;" horiz-adv-x="565" 
d="M163 779v46h274v-46h-274zM89 0v700h419v-46h-369v-278h332v-46h-332v-284h374v-46h-424z" />
    <glyph glyph-name="emacron" unicode="&#x113;" horiz-adv-x="505" 
d="M273 -11q-94 0 -158.5 72.5t-64.5 192.5v4q0 118 59.5 193t149.5 75q91 0 146 -73t55 -191v-24h-362q4 -95 55.5 -150t122.5 -55q80 0 143 63l29 -32q-77 -75 -175 -75zM98 280h313q-3 86 -43.5 144.5t-109.5 58.5q-65 0 -110 -56.5t-50 -146.5zM130 610v44h256v-44h-256
z" />
    <glyph glyph-name="Ebreve" unicode="&#x114;" horiz-adv-x="565" 
d="M300 757q-50 0 -83.5 24.5t-37.5 68.5h42q16 -47 79 -47t79 47h42q-4 -44 -37.5 -68.5t-83.5 -24.5zM89 0v700h419v-46h-369v-278h332v-46h-332v-284h374v-46h-424z" />
    <glyph glyph-name="ebreve" unicode="&#x115;" horiz-adv-x="505" 
d="M273 -11q-94 0 -158.5 72.5t-64.5 192.5v4q0 118 59.5 193t149.5 75q91 0 146 -73t55 -191v-24h-362q4 -95 55.5 -150t122.5 -55q80 0 143 63l29 -32q-77 -75 -175 -75zM98 280h313q-3 86 -43.5 144.5t-109.5 58.5q-65 0 -110 -56.5t-50 -146.5zM258 588q-50 0 -83 28
t-37 78h38q18 -61 82 -61t82 61h38q-4 -50 -37 -78t-83 -28z" />
    <glyph glyph-name="Edotaccent" unicode="&#x116;" horiz-adv-x="565" 
d="M266 760v73h68v-73h-68zM89 0v700h419v-46h-369v-278h332v-46h-332v-284h374v-46h-424z" />
    <glyph glyph-name="edotaccent" unicode="&#x117;" horiz-adv-x="505" 
d="M273 -11q-94 0 -158.5 72.5t-64.5 192.5v4q0 118 59.5 193t149.5 75q91 0 146 -73t55 -191v-24h-362q4 -95 55.5 -150t122.5 -55q80 0 143 63l29 -32q-77 -75 -175 -75zM98 280h313q-3 86 -43.5 144.5t-109.5 58.5q-65 0 -110 -56.5t-50 -146.5zM226 592v76h64v-76h-64z
" />
    <glyph glyph-name="Eogonek" unicode="&#x118;" horiz-adv-x="565" 
d="M89 0v700h419v-46h-369v-278h332v-46h-332v-284h374v-46h-20q-48 -45 -48 -73q0 -37 65 -41v-35h-6q-105 3 -105 68q0 40 47 81h-357z" />
    <glyph glyph-name="eogonek" unicode="&#x119;" horiz-adv-x="505" 
d="M419 96l29 -32q-20 -20 -41 -38q-64 -55 -64 -96q0 -21 15 -31t50 -13v-35h-7q-104 3 -104 71q0 36 39 75q-32 -8 -63 -8q-94 0 -158.5 72.5t-64.5 192.5v4q0 118 59.5 193t149.5 75q91 0 146 -73t55 -191v-24h-362q4 -95 55.5 -150t122.5 -55q80 0 143 63zM98 280h313
q-3 86 -43.5 144.5t-109.5 58.5q-65 0 -110 -56.5t-50 -146.5z" />
    <glyph glyph-name="Ecaron" unicode="&#x11a;" horiz-adv-x="565" 
d="M416 863l-94 -104h-44l-94 104h51l66 -60l66 60h49zM89 0v700h419v-46h-369v-278h332v-46h-332v-284h374v-46h-424z" />
    <glyph glyph-name="ecaron" unicode="&#x11b;" horiz-adv-x="505" 
d="M273 -11q-94 0 -158.5 72.5t-64.5 192.5v4q0 118 59.5 193t149.5 75q91 0 146 -73t55 -191v-24h-362q4 -95 55.5 -150t122.5 -55q80 0 143 63l29 -32q-77 -75 -175 -75zM98 280h313q-3 86 -43.5 144.5t-109.5 58.5q-65 0 -110 -56.5t-50 -146.5zM366 712l-89 -122h-38
l-89 122h43l66 -70l66 70h41z" />
    <glyph glyph-name="Gbreve" unicode="&#x11e;" horiz-adv-x="665" 
d="M354 765q-50 0 -83.5 24.5t-37.5 68.5h42q16 -47 79 -47t79 47h42q-4 -44 -37.5 -68.5t-83.5 -24.5zM371 -10q-142 0 -225.5 99t-83.5 257v6q0 153 85.5 255.5t219.5 102.5q117 0 207 -73l-31 -40q-74 67 -177 67q-109 0 -181 -88t-72 -223v-4q0 -142 70.5 -228
t189.5 -86q95 0 169 57v224h-194v46h242v-292q-97 -80 -219 -80z" />
    <glyph glyph-name="gbreve" unicode="&#x11f;" horiz-adv-x="565" 
d="M268 -152q-103 0 -196 60l24 40q79 -56 174 -56q78 0 123.5 43t45.5 124v91q-67 -115 -180 -115q-84 0 -145.5 66.5t-61.5 176.5v4q0 109 61.5 176.5t145.5 67.5q114 0 180 -113v102h47v-457q0 -94 -56 -152q-58 -58 -162 -58zM264 78q70 0 124 56t54 144v4
q0 89 -53.5 144.5t-124.5 55.5q-69 0 -116 -54t-47 -146v-3q0 -90 47.5 -145.5t115.5 -55.5zM285 588q-50 0 -83 28t-37 78h38q18 -61 82 -61t82 61h38q-4 -50 -37 -78t-83 -28z" />
    <glyph glyph-name="Gdotaccent" unicode="&#x120;" horiz-adv-x="665" 
d="M320 768v73h68v-73h-68zM371 -10q-142 0 -225.5 99t-83.5 257v6q0 153 85.5 255.5t219.5 102.5q117 0 207 -73l-31 -40q-74 67 -177 67q-109 0 -181 -88t-72 -223v-4q0 -142 70.5 -228t189.5 -86q95 0 169 57v224h-194v46h242v-292q-97 -80 -219 -80z" />
    <glyph glyph-name="gdotaccent" unicode="&#x121;" horiz-adv-x="565" 
d="M268 -152q-103 0 -196 60l24 40q79 -56 174 -56q78 0 123.5 43t45.5 124v91q-67 -115 -180 -115q-84 0 -145.5 66.5t-61.5 176.5v4q0 109 61.5 176.5t145.5 67.5q114 0 180 -113v102h47v-457q0 -94 -56 -152q-58 -58 -162 -58zM264 78q70 0 124 56t54 144v4
q0 89 -53.5 144.5t-124.5 55.5q-69 0 -116 -54t-47 -146v-3q0 -90 47.5 -145.5t115.5 -55.5zM253 592v76h64v-76h-64z" />
    <glyph glyph-name="Gcommaaccent" unicode="&#x122;" horiz-adv-x="665" 
d="M310 -213l-8 22q50 14 46 55h-27v67h64v-60q0 -67 -75 -84zM371 -10q-142 0 -225.5 99t-83.5 257v6q0 153 85.5 255.5t219.5 102.5q117 0 207 -73l-31 -40q-74 67 -177 67q-109 0 -181 -88t-72 -223v-4q0 -142 70.5 -228t189.5 -86q95 0 169 57v224h-194v46h242v-292
q-97 -80 -219 -80z" />
    <glyph glyph-name="gcommaaccent" unicode="&#x123;" horiz-adv-x="565" 
d="M327 740l8 -22q-50 -14 -46 -55h27v-67h-64v60q0 67 75 84zM268 -152q-103 0 -196 60l24 40q79 -56 174 -56q78 0 123.5 43t45.5 124v91q-67 -115 -180 -115q-84 0 -145.5 66.5t-61.5 176.5v4q0 109 61.5 176.5t145.5 67.5q114 0 180 -113v102h47v-457q0 -94 -56 -152
q-58 -58 -162 -58zM264 78q70 0 124 56t54 144v4q0 89 -53.5 144.5t-124.5 55.5q-69 0 -116 -54t-47 -146v-3q0 -90 47.5 -145.5t115.5 -55.5z" />
    <glyph glyph-name="Hbar" unicode="&#x126;" horiz-adv-x="700" 
d="M43 523v43h69v134h50v-134h377v134h49v-134h69v-43h-69v-523h-49v326h-377v-326h-50v523h-69zM162 371h377v153h-377v-153z" />
    <glyph glyph-name="hbar" unicode="&#x127;" horiz-adv-x="533" 
d="M285 612h-159v-186q53 100 159 100q81 0 128.5 -53.5t47.5 -142.5v-330h-47v323q0 75 -35.5 118t-100.5 43t-108.5 -47.5t-43.5 -121.5v-315h-46v612h-63v42h63v68h46v-68h159v-42z" />
    <glyph glyph-name="Imacron" unicode="&#x12a;" horiz-adv-x="242" 
d="M96 0v700h50v-700h-50zM-15 779v46h274v-46h-274z" />
    <glyph glyph-name="imacron" unicode="&#x12b;" horiz-adv-x="219" 
d="M86 0v515h47v-515h-47zM-18 610v44h256v-44h-256z" />
    <glyph glyph-name="Ibreve" unicode="&#x12c;" horiz-adv-x="242" 
d="M96 0v700h50v-700h-50zM122 757q-50 0 -83.5 24.5t-37.5 68.5h42q16 -47 79 -47t79 47h42q-4 -44 -37.5 -68.5t-83.5 -24.5z" />
    <glyph glyph-name="ibreve" unicode="&#x12d;" horiz-adv-x="219" 
d="M86 0v515h47v-515h-47zM110 588q-50 0 -83 28t-37 78h38q18 -61 82 -61t82 61h38q-4 -50 -37 -78t-83 -28z" />
    <glyph glyph-name="Iogonek" unicode="&#x12e;" horiz-adv-x="242" 
d="M159 -114v-35h-6q-105 3 -105 68q0 41 48 81v700h50v-700h-4q-48 -45 -48 -73q0 -37 65 -41z" />
    <glyph glyph-name="iogonek" unicode="&#x12f;" horiz-adv-x="219" 
d="M148 -114v-35h-6q-105 3 -105 68q0 41 49 82v514h47v-515h-2q-48 -45 -48 -73q0 -37 65 -41zM82 641v68h56v-68h-56z" />
    <glyph glyph-name="Idotaccent" unicode="&#x130;" horiz-adv-x="242" 
d="M96 0v700h50v-700h-50zM88 760v73h68v-73h-68z" />
    <glyph glyph-name="dotlessi" unicode="&#x131;" horiz-adv-x="219" 
d="M86 0v515h47v-515h-47z" />
    <glyph glyph-name="Kcommaaccent" unicode="&#x136;" horiz-adv-x="610" 
d="M265 -207l-8 22q50 14 46 55h-27v67h64v-60q0 -67 -75 -84zM89 0v700h50v-442l370 442h63l-262 -310l278 -390h-62l-250 350l-137 -158v-192h-50z" />
    <glyph glyph-name="kcommaaccent" unicode="&#x137;" horiz-adv-x="482" 
d="M210 -211l-8 22q50 14 46 55h-27v67h64v-60q0 -67 -75 -84zM80 0v722h46v-522l262 315h58l-187 -221l196 -294h-57l-171 256l-101 -117v-139h-46z" />
    <glyph glyph-name="Lacute" unicode="&#x139;" horiz-adv-x="517" 
d="M104 757l83 114l55 -26l-98 -88h-40zM89 0v700h50v-654h339v-46h-389z" />
    <glyph glyph-name="lacute" unicode="&#x13a;" horiz-adv-x="219" 
d="M91 772l83 114l55 -26l-98 -88h-40zM86 0v722h47v-722h-47z" />
    <glyph glyph-name="Lcommaaccent" unicode="&#x13b;" horiz-adv-x="517" 
d="M235 -212l-8 22q50 14 46 55h-27v67h64v-60q0 -67 -75 -84zM89 0v700h50v-654h339v-46h-389z" />
    <glyph glyph-name="lcommaaccent" unicode="&#x13c;" horiz-adv-x="219" 
d="M66 -212l-8 22q50 14 46 55h-27v67h64v-60q0 -67 -75 -84zM86 0v722h47v-722h-47z" />
    <glyph glyph-name="Lcaron" unicode="&#x13d;" horiz-adv-x="517" 
d="M221 552l14 149h53v-3l-41 -146h-26zM89 0v700h50v-654h339v-46h-389z" />
    <glyph glyph-name="lcaron" unicode="&#x13e;" horiz-adv-x="219" 
d="M192 574l14 149h53v-3l-41 -146h-26zM86 0v722h47v-722h-47z" />
    <glyph glyph-name="Ldot" unicode="&#x13f;" horiz-adv-x="517" 
d="M351 323v77h65v-77h-65zM89 0v700h50v-654h339v-46h-389z" />
    <glyph glyph-name="ldot" unicode="&#x140;" horiz-adv-x="275" 
d="M216 323v79h64v-79h-64zM86 0v722h47v-722h-47z" />
    <glyph glyph-name="Lslash" unicode="&#x141;" horiz-adv-x="539" 
d="M319 402l-158 -82v-274h340v-46h-389v294l-69 -35v51l69 36v354h49v-328l158 82v-52z" />
    <glyph glyph-name="lslash" unicode="&#x142;" horiz-adv-x="262" 
d="M225 395l-70 -42v-353h-47v326l-70 -41v51l70 41v345h47v-318l70 43v-52z" />
    <glyph glyph-name="Nacute" unicode="&#x143;" horiz-adv-x="677" 
d="M319 752l83 114l55 -26l-98 -88h-40zM89 0v700h48l403 -603v603h48v-700h-40l-411 617v-617h-48z" />
    <glyph glyph-name="nacute" unicode="&#x144;" horiz-adv-x="533" 
d="M250 589l80 130l56 -29l-99 -101h-37zM80 0v515h46v-89q53 100 160 100q81 0 128 -52t47 -141v-333h-47v320q0 78 -35.5 121t-100.5 43t-108.5 -47.5t-43.5 -121.5v-315h-46z" />
    <glyph glyph-name="Ncommaaccent" unicode="&#x145;" horiz-adv-x="677" 
d="M294 -207l-8 22q50 14 46 55h-27v67h64v-60q0 -67 -75 -84zM89 0v700h48l403 -603v603h48v-700h-40l-411 617v-617h-48z" />
    <glyph glyph-name="ncommaaccent" unicode="&#x146;" horiz-adv-x="533" 
d="M225 -211l-8 22q50 14 46 55h-27v67h64v-60q0 -67 -75 -84zM80 0v515h46v-89q53 100 160 100q81 0 128 -52t47 -141v-333h-47v320q0 78 -35.5 121t-100.5 43t-108.5 -47.5t-43.5 -121.5v-315h-46z" />
    <glyph glyph-name="Ncaron" unicode="&#x147;" horiz-adv-x="677" 
d="M454 858l-94 -104h-44l-94 104h51l66 -60l66 60h49zM89 0v700h48l403 -603v603h48v-700h-40l-411 617v-617h-48z" />
    <glyph glyph-name="ncaron" unicode="&#x148;" horiz-adv-x="533" 
d="M377 712l-89 -122h-38l-89 122h43l66 -70l66 70h41zM80 0v515h46v-89q53 100 160 100q81 0 128 -52t47 -141v-333h-47v320q0 78 -35.5 121t-100.5 43t-108.5 -47.5t-43.5 -121.5v-315h-46z" />
    <glyph glyph-name="Omacron" unicode="&#x14c;" horiz-adv-x="714" 
d="M219 787v46h274v-46h-274zM357 -11q-131 0 -213 101t-82 256v7q0 155 82.5 256.5t213.5 101.5t212.5 -101t81.5 -256v-7q0 -155 -82 -256.5t-213 -101.5zM358 35q105 0 174 88t69 223v7q0 135 -69.5 223.5t-174.5 88.5q-106 0 -175 -88t-69 -223v-7q0 -135 69.5 -223.5
t175.5 -88.5z" />
    <glyph glyph-name="omacron" unicode="&#x14d;" horiz-adv-x="547" 
d="M145 610v44h256v-44h-256zM273 -11q-96 0 -159.5 76.5t-63.5 189.5v4q0 113 64 190t160 77q97 0 160.5 -76.5t63.5 -189.5v-4q0 -113 -64 -190t-161 -77zM274 33q75 0 125 63.5t50 158.5v4q0 95 -51.5 159t-124.5 64q-74 0 -124 -63.5t-50 -158.5v-4q0 -95 51 -159
t124 -64z" />
    <glyph glyph-name="Obreve" unicode="&#x14e;" horiz-adv-x="714" 
d="M356 765q-50 0 -83.5 24.5t-37.5 68.5h42q16 -47 79 -47t79 47h42q-4 -44 -37.5 -68.5t-83.5 -24.5zM357 -11q-131 0 -213 101t-82 256v7q0 155 82.5 256.5t213.5 101.5t212.5 -101t81.5 -256v-7q0 -155 -82 -256.5t-213 -101.5zM358 35q105 0 174 88t69 223v7
q0 135 -69.5 223.5t-174.5 88.5q-106 0 -175 -88t-69 -223v-7q0 -135 69.5 -223.5t175.5 -88.5z" />
    <glyph glyph-name="obreve" unicode="&#x14f;" horiz-adv-x="547" 
d="M273 -11q-96 0 -159.5 76.5t-63.5 189.5v4q0 113 64 190t160 77q97 0 160.5 -76.5t63.5 -189.5v-4q0 -113 -64 -190t-161 -77zM274 33q75 0 125 63.5t50 158.5v4q0 95 -51.5 159t-124.5 64q-74 0 -124 -63.5t-50 -158.5v-4q0 -95 51 -159t124 -64zM273 588q-50 0 -83 28
t-37 78h38q18 -61 82 -61t82 61h38q-4 -50 -37 -78t-83 -28z" />
    <glyph glyph-name="Ohungarumlaut" unicode="&#x150;" horiz-adv-x="714" 
d="M357 -11q-131 0 -213 101t-82 256v7q0 155 82.5 256.5t213.5 101.5t212.5 -101t81.5 -256v-7q0 -155 -82 -256.5t-213 -101.5zM358 35q105 0 174 88t69 223v7q0 135 -69.5 223.5t-174.5 88.5q-106 0 -175 -88t-69 -223v-7q0 -135 69.5 -223.5t175.5 -88.5zM266 765
l83 114l55 -26l-97 -88h-41zM390 765l84 114l55 -26l-98 -88h-41z" />
    <glyph glyph-name="ohungarumlaut" unicode="&#x151;" horiz-adv-x="547" 
d="M308 589l80 130l51 -27l-93 -103h-38zM186 589l80 130l52 -27l-94 -103h-38zM273 -11q-96 0 -159.5 76.5t-63.5 189.5v4q0 113 64 190t160 77q97 0 160.5 -76.5t63.5 -189.5v-4q0 -113 -64 -190t-161 -77zM274 33q75 0 125 63.5t50 158.5v4q0 95 -51.5 159t-124.5 64
q-74 0 -124 -63.5t-50 -158.5v-4q0 -95 51 -159t124 -64z" />
    <glyph glyph-name="OE" unicode="&#x152;" horiz-adv-x="971" 
d="M389 0q-145 0 -236 96t-91 250v7q0 154 91 250.5t236 96.5h525v-46h-358v-278h322v-46h-322v-284h362v-46h-529zM389 46h117v608h-117q-125 0 -200.5 -83t-75.5 -217v-7q0 -133 76 -217t200 -84z" />
    <glyph glyph-name="oe" unicode="&#x153;" horiz-adv-x="903" 
d="M272 -11q-95 0 -158.5 76.5t-63.5 189.5v4q0 113 64.5 190t159.5 77q66 0 118.5 -40t78.5 -107q25 68 74.5 107.5t111.5 39.5q90 0 145.5 -73.5t55.5 -190.5v-24h-362q5 -95 55.5 -150t121.5 -55q83 0 144 63l29 -32q-41 -38 -80.5 -56.5t-93.5 -18.5q-67 0 -121 40
t-79 109q-27 -68 -80 -108.5t-120 -40.5zM274 33q75 0 125 63.5t50 158.5v4q0 95 -51 159t-125 64q-75 0 -124.5 -63.5t-49.5 -158.5v-4q0 -95 50.5 -159t124.5 -64zM496 280h314q-4 87 -44.5 145t-110.5 58q-64 0 -108.5 -56t-50.5 -147z" />
    <glyph glyph-name="Racute" unicode="&#x154;" horiz-adv-x="619" 
d="M89 0v700h231q117 0 181 -64q54 -54 54 -137v-2q0 -82 -49 -133t-130 -66l201 -298h-61l-194 288h-183v-288h-50zM139 333h166q96 0 148.5 43.5t52.5 118.5v2q0 75 -50 116t-139 41h-178v-321zM277 757l83 114l55 -26l-98 -88h-40z" />
    <glyph glyph-name="racute" unicode="&#x155;" horiz-adv-x="345" 
d="M164 589l80 130l56 -29l-99 -101h-37zM80 0v515h46v-122q26 59 77 95.5t115 33.5v-50h-4q-79 0 -133.5 -57t-54.5 -158v-257h-46z" />
    <glyph glyph-name="Rcommaaccent" unicode="&#x156;" horiz-adv-x="619" 
d="M89 0v700h231q117 0 181 -64q54 -54 54 -137v-2q0 -82 -49 -133t-130 -66l201 -298h-61l-194 288h-183v-288h-50zM139 333h166q96 0 148.5 43.5t52.5 118.5v2q0 75 -50 116t-139 41h-178v-321zM255 -207l-8 22q50 14 46 55h-27v67h64v-60q0 -67 -75 -84z" />
    <glyph glyph-name="rcommaaccent" unicode="&#x157;" horiz-adv-x="345" 
d="M66 -212l-8 22q50 14 46 55h-27v67h64v-60q0 -67 -75 -84zM80 0v515h46v-122q26 59 77 95.5t115 33.5v-50h-4q-79 0 -133.5 -57t-54.5 -158v-257h-46z" />
    <glyph glyph-name="Rcaron" unicode="&#x158;" horiz-adv-x="619" 
d="M89 0v700h231q117 0 181 -64q54 -54 54 -137v-2q0 -82 -49 -133t-130 -66l201 -298h-61l-194 288h-183v-288h-50zM139 333h166q96 0 148.5 43.5t52.5 118.5v2q0 75 -50 116t-139 41h-178v-321zM413 863l-94 -104h-44l-94 104h51l66 -60l66 60h49z" />
    <glyph glyph-name="rcaron" unicode="&#x159;" horiz-adv-x="345" 
d="M291 712l-89 -122h-38l-89 122h43l66 -70l66 70h41zM80 0v515h46v-122q26 59 77 95.5t115 33.5v-50h-4q-79 0 -133.5 -57t-54.5 -158v-257h-46z" />
    <glyph glyph-name="Sacute" unicode="&#x15a;" horiz-adv-x="546" 
d="M281 -10q-132 0 -238 97l33 39q96 -90 206 -90q70 0 114.5 38.5t44.5 96.5v2q0 52 -35.5 87.5t-133.5 69.5q-113 40 -157 85.5t-44 115.5v2q0 75 57.5 126t145.5 51q115 0 204 -76l-31 -40q-79 70 -175 70q-67 0 -109 -36.5t-42 -90.5v-2q0 -53 36 -88.5t138 -70.5
q109 -40 152 -86t43 -114v-2q0 -80 -59 -132t-150 -52zM260 765l83 114l55 -26l-98 -88h-40z" />
    <glyph glyph-name="sacute" unicode="&#x15b;" horiz-adv-x="424" 
d="M195 589l80 130l56 -29l-99 -101h-37zM213 -9q-101 0 -182 73l29 36q74 -65 156 -65q48 0 80 26.5t32 69.5v2q0 36 -28.5 60t-91.5 50q-77 32 -114 62t-37 83v2q0 59 43 96.5t111 37.5q87 0 159 -56l-27 -37q-65 49 -134 49q-46 0 -75.5 -24t-29.5 -61v-2q0 -34 28.5 -56
t94.5 -50q77 -34 112.5 -65.5t35.5 -85.5v-1q0 -64 -46.5 -104t-115.5 -40z" />
    <glyph glyph-name="Scedilla" unicode="&#x15e;" horiz-adv-x="546" 
d="M246 -135l-53 23l67 103q-120 6 -217 96l33 39q96 -90 206 -90q70 0 114.5 38.5t44.5 96.5v2q0 52 -35.5 87.5t-133.5 69.5q-113 40 -157 85.5t-44 115.5v2q0 75 57.5 126t145.5 51q115 0 204 -76l-31 -40q-79 70 -175 70q-67 0 -109 -36.5t-42 -90.5v-2q0 -53 36 -88.5
t138 -70.5q109 -40 152 -86t43 -114v-2q0 -75 -52 -125.5t-135 -57.5z" />
    <glyph glyph-name="scedilla" unicode="&#x15f;" horiz-adv-x="424" 
d="M173 -135l-53 23l68 105q-89 10 -157 71l29 36q74 -65 156 -65q48 0 80 26.5t32 69.5v2q0 36 -28.5 60t-91.5 50q-77 32 -114 62t-37 83v2q0 59 43 96.5t111 37.5q87 0 159 -56l-27 -37q-65 49 -134 49q-46 0 -75.5 -24t-29.5 -61v-2q0 -34 28.5 -56t94.5 -50
q77 -34 112.5 -65.5t35.5 -85.5v-1q0 -60 -41 -99t-104 -44z" />
    <glyph glyph-name="Scaron" unicode="&#x160;" horiz-adv-x="546" 
d="M281 -10q-132 0 -238 97l33 39q96 -90 206 -90q70 0 114.5 38.5t44.5 96.5v2q0 52 -35.5 87.5t-133.5 69.5q-113 40 -157 85.5t-44 115.5v2q0 75 57.5 126t145.5 51q115 0 204 -76l-31 -40q-79 70 -175 70q-67 0 -109 -36.5t-42 -90.5v-2q0 -53 36 -88.5t138 -70.5
q109 -40 152 -86t43 -114v-2q0 -80 -59 -132t-150 -52zM397 871l-94 -104h-44l-94 104h51l66 -60l66 60h49z" />
    <glyph glyph-name="scaron" unicode="&#x161;" horiz-adv-x="424" 
d="M323 712l-89 -122h-38l-89 122h43l66 -70l66 70h41zM213 -9q-101 0 -182 73l29 36q74 -65 156 -65q48 0 80 26.5t32 69.5v2q0 36 -28.5 60t-91.5 50q-77 32 -114 62t-37 83v2q0 59 43 96.5t111 37.5q87 0 159 -56l-27 -37q-65 49 -134 49q-46 0 -75.5 -24t-29.5 -61v-2
q0 -34 28.5 -56t94.5 -50q77 -34 112.5 -65.5t35.5 -85.5v-1q0 -64 -46.5 -104t-115.5 -40z" />
    <glyph glyph-name="Tcommaaccent" unicode="&#x162;" horiz-adv-x="540" 
d="M226 -212l-8 22q50 14 46 55h-27v67h64v-60q0 -67 -75 -84zM245 0v654h-204v46h459v-46h-205v-654h-50z" />
    <glyph glyph-name="tcommaaccent" unicode="&#x163;" horiz-adv-x="342" 
d="M152 -212l-8 22q50 14 46 55h-27v67h64v-60q0 -67 -75 -84zM229 -7q-57 0 -91.5 30.5t-34.5 92.5v356h-66v43h66v158h47v-158h147v-43h-147v-350q0 -85 86 -85q29 0 61 13v-43q-29 -14 -68 -14z" />
    <glyph glyph-name="Tcaron" unicode="&#x164;" horiz-adv-x="540" 
d="M386 863l-94 -104h-44l-94 104h51l66 -60l66 60h49zM245 0v654h-204v46h459v-46h-205v-654h-50z" />
    <glyph glyph-name="tcaron" unicode="&#x165;" horiz-adv-x="342" 
d="M231 574l14 149h53v-3l-41 -146h-26zM229 -7q-57 0 -91.5 30.5t-34.5 92.5v356h-66v43h66v158h47v-158h147v-43h-147v-350q0 -85 86 -85q29 0 61 13v-43q-29 -14 -68 -14z" />
    <glyph glyph-name="Umacron" unicode="&#x16a;" horiz-adv-x="653" 
d="M189 774v46h274v-46h-274zM326 -11q-111 0 -178 71t-67 197v443h49v-440q0 -107 52.5 -166t145.5 -59q91 0 143 57t52 165v443h50v-439q0 -129 -67.5 -200.5t-179.5 -71.5z" />
    <glyph glyph-name="umacron" unicode="&#x16b;" horiz-adv-x="533" 
d="M247 -11q-81 0 -128 52t-47 141v333h46v-320q0 -78 36 -120.5t101 -42.5q64 0 107.5 47.5t43.5 120.5v315h47v-515h-47v89q-52 -100 -159 -100zM133 609v44h256v-44h-256z" />
    <glyph glyph-name="Ubreve" unicode="&#x16c;" horiz-adv-x="653" 
d="M326 752q-50 0 -83.5 24.5t-37.5 68.5h42q16 -47 79 -47t79 47h42q-4 -44 -37.5 -68.5t-83.5 -24.5zM326 -11q-111 0 -178 71t-67 197v443h49v-440q0 -107 52.5 -166t145.5 -59q91 0 143 57t52 165v443h50v-439q0 -129 -67.5 -200.5t-179.5 -71.5z" />
    <glyph glyph-name="ubreve" unicode="&#x16d;" horiz-adv-x="533" 
d="M247 -11q-81 0 -128 52t-47 141v333h46v-320q0 -78 36 -120.5t101 -42.5q64 0 107.5 47.5t43.5 120.5v315h47v-515h-47v89q-52 -100 -159 -100zM261 587q-50 0 -83 28t-37 78h38q18 -61 82 -61t82 61h38q-4 -50 -37 -78t-83 -28z" />
    <glyph glyph-name="Uring" unicode="&#x16e;" horiz-adv-x="653" 
d="M326 -11q-111 0 -178 71t-67 197v443h49v-440q0 -107 52.5 -166t145.5 -59q91 0 143 57t52 165v443h50v-439q0 -129 -67.5 -200.5t-179.5 -71.5zM326 741q-41 0 -69.5 26t-28.5 63t29 62.5t69 25.5q41 0 69.5 -25.5t28.5 -62.5t-29 -63t-69 -26zM326 772q26 0 44 16.5
t18 41.5t-18 41.5t-44 16.5t-44 -16.5t-18 -41.5t18 -41.5t44 -16.5z" />
    <glyph glyph-name="uring" unicode="&#x16f;" horiz-adv-x="533" 
d="M261 577q-40 0 -68 27.5t-28 65.5t28 65.5t68 27.5t68 -27.5t28 -65.5t-28 -65.5t-68 -27.5zM261 605q26 0 44.5 19t18.5 46q0 26 -18.5 45t-44.5 19t-44.5 -19t-18.5 -45q0 -27 18.5 -46t44.5 -19zM247 -11q-81 0 -128 52t-47 141v333h46v-320q0 -78 36 -120.5
t101 -42.5q64 0 107.5 47.5t43.5 120.5v315h47v-515h-47v89q-52 -100 -159 -100z" />
    <glyph glyph-name="Uhungarumlaut" unicode="&#x170;" horiz-adv-x="653" 
d="M326 -11q-111 0 -178 71t-67 197v443h49v-440q0 -107 52.5 -166t145.5 -59q91 0 143 57t52 165v443h50v-439q0 -129 -67.5 -200.5t-179.5 -71.5zM236 752l83 114l55 -26l-97 -88h-41zM360 752l84 114l55 -26l-98 -88h-41z" />
    <glyph glyph-name="uhungarumlaut" unicode="&#x171;" horiz-adv-x="533" 
d="M247 -11q-81 0 -128 52t-47 141v333h46v-320q0 -78 36 -120.5t101 -42.5q64 0 107.5 47.5t43.5 120.5v315h47v-515h-47v89q-52 -100 -159 -100zM296 588l80 130l51 -27l-93 -103h-38zM174 588l80 130l52 -27l-94 -103h-38z" />
    <glyph glyph-name="Uogonek" unicode="&#x172;" horiz-adv-x="653" 
d="M376 -114v-35h-6q-105 3 -105 68q0 36 36 71q-100 8 -160 78t-60 189v443h49v-440q0 -107 52.5 -166t145.5 -59q91 0 143 57t52 165v443h50v-439q0 -122 -61 -193t-164 -78q-37 -37 -37 -63q0 -37 65 -41z" />
    <glyph glyph-name="uogonek" unicode="&#x173;" horiz-adv-x="533" 
d="M247 -11q-81 0 -128 52t-47 141v333h46v-320q0 -78 36 -120.5t101 -42.5q64 0 107.5 47.5t43.5 120.5v315h47v-515h-5q-48 -45 -48 -73q0 -37 65 -41v-35h-6q-105 3 -105 68q0 41 52 85v85q-52 -100 -159 -100z" />
    <glyph glyph-name="Wcircumflex" unicode="&#x174;" horiz-adv-x="952" 
d="M257 -5l-213 705h54l183 -619l176 621h41l177 -621l182 619h51l-213 -705h-42l-177 609l-177 -609h-42zM359 759l94 104h44l94 -104h-51l-66 60l-66 -60h-49z" />
    <glyph glyph-name="wcircumflex" unicode="&#x175;" horiz-adv-x="751" 
d="M267 589l89 122h38l89 -122h-43l-66 71l-66 -71h-41zM205 -4l-162 519h52l130 -450l132 451h39l132 -451l131 450h49l-161 -519h-41l-130 439l-131 -439h-40z" />
    <glyph glyph-name="Ycircumflex" unicode="&#x176;" horiz-adv-x="605" 
d="M277 0v285l-253 415h59l220 -367l220 367h57l-253 -414v-286h-50zM186 754l94 104h44l94 -104h-51l-66 60l-66 -60h-49z" />
    <glyph glyph-name="ycircumflex" unicode="&#x177;" horiz-adv-x="507" 
d="M264 59l156 456h50l-187 -525q-28 -78 -63.5 -110.5t-86.5 -32.5q-44 0 -85 21l16 42q32 -19 71 -19q34 0 58 24t48 85l-206 515h52zM148 589l89 122h38l89 -122h-43l-66 71l-66 -71h-41z" />
    <glyph glyph-name="Ydieresis" unicode="&#x178;" horiz-adv-x="605" 
d="M277 0v285l-253 415h59l220 -367l220 367h57l-253 -414v-286h-50zM346 755v73h66v-73h-66zM193 755v73h67v-73h-67z" />
    <glyph glyph-name="Zacute" unicode="&#x179;" horiz-adv-x="580" 
d="M56 0v29l403 626h-388v45h455v-29l-403 -626h403v-45h-470zM277 757l83 114l55 -26l-98 -88h-40z" />
    <glyph glyph-name="zacute" unicode="&#x17a;" horiz-adv-x="466" 
d="M218 589l80 130l56 -29l-99 -101h-37zM47 0v27l309 447h-296v41h360v-27l-309 -446h308v-42h-372z" />
    <glyph glyph-name="Zdotaccent" unicode="&#x17b;" horiz-adv-x="580" 
d="M264 760v73h68v-73h-68zM56 0v29l403 626h-388v45h455v-29l-403 -626h403v-45h-470z" />
    <glyph glyph-name="zdotaccent" unicode="&#x17c;" horiz-adv-x="466" 
d="M47 0v27l309 447h-296v41h360v-27l-309 -446h308v-42h-372zM206 592v76h64v-76h-64z" />
    <glyph glyph-name="Zcaron" unicode="&#x17d;" horiz-adv-x="580" 
d="M414 863l-94 -104h-44l-94 104h51l66 -60l66 60h49zM56 0v29l403 626h-388v45h455v-29l-403 -626h403v-45h-470z" />
    <glyph glyph-name="zcaron" unicode="&#x17e;" horiz-adv-x="466" 
d="M346 712l-89 -122h-38l-89 122h43l66 -70l66 70h41zM47 0v27l309 447h-296v41h360v-27l-309 -446h308v-42h-372z" />
    <glyph glyph-name="florin" unicode="&#x192;" horiz-adv-x="450" 
d="M77 -5q-26 0 -46 5v43q22 -5 44 -5q62 0 74 80l43 267h-93v43h99l23 145q12 68 43.5 100t87.5 32q39 0 69 -10v-44q-37 10 -66 10q-36 0 -56 -21.5t-28 -70.5l-22 -141h138v-43h-145l-43 -270q-21 -120 -122 -120z" />
    <glyph glyph-name="Aringacute" unicode="&#x1fa;" horiz-adv-x="674" 
d="M39 0l258 666q-26 10 -42 31.5t-16 49.5q0 38 28.5 63.5t69.5 25.5q40 0 68.5 -25.5t28.5 -63.5q0 -27 -16 -48.5t-42 -32.5l259 -666h-54l-74 196h-343l-74 -196h-51zM182 241h307l-153 403zM337 690q26 0 44 16.5t18 40.5q0 25 -18 42t-44 17t-44 -17t-18 -42t18 -41
t44 -16zM315 863l84 101l53 -26l-96 -75h-41z" />
    <glyph glyph-name="aringacute" unicode="&#x1fb;" horiz-adv-x="497" 
d="M227 802l82 112l54 -28l-96 -84h-40zM215 -11q-69 0 -120.5 44t-51.5 117v4q0 76 53.5 121t141.5 45q70 0 142 -21v37q0 69 -38 105.5t-106 36.5q-72 0 -137 -37l-18 41q83 40 158 40q90 0 139 -50q48 -45 48 -133v-339h-46v82q-56 -93 -165 -93zM219 32q67 0 114.5 43.5
t47.5 106.5v74q-70 22 -144 22q-69 0 -107 -33.5t-38 -88.5v-4q0 -54 36.5 -87t90.5 -33zM249 588q-40 0 -68 27.5t-28 65.5t28 65.5t68 27.5t68 -27.5t28 -65.5t-28 -65.5t-68 -27.5zM249 616q26 0 44.5 19t18.5 46q0 26 -18.5 45t-44.5 19t-44.5 -19t-18.5 -45
q0 -27 18.5 -46t44.5 -19z" />
    <glyph glyph-name="AEacute" unicode="&#x1fc;" horiz-adv-x="881" 
d="M506 757l83 114l55 -26l-98 -88h-40zM15 0l354 700h456v-46h-359v-278h322v-46h-322v-284h363v-46h-413v196h-250l-99 -196h-52zM189 241h227v414h-21z" />
    <glyph glyph-name="aeacute" unicode="&#x1fd;" horiz-adv-x="824" 
d="M391 589l80 130l56 -29l-99 -101h-37zM212 -11q-69 0 -119 44t-50 117v4q0 76 52.5 121t139.5 45q64 0 136 -21v37q0 69 -36.5 105.5t-104.5 36.5q-64 0 -132 -35l-17 41q79 38 151 38q141 0 171 -115q27 56 73 87.5t101 31.5q91 0 146.5 -73.5t55.5 -190.5q0 -19 -1 -24
h-361q4 -95 55 -150t122 -55q81 0 144 63l29 -32q-41 -38 -80.5 -56.5t-94.5 -18.5q-59 0 -108 30t-78 85q-79 -115 -194 -115zM417 280h313q-3 86 -43.5 144.5t-110.5 58.5q-65 0 -109.5 -56t-49.5 -147zM215 32q103 0 172 115q-16 47 -18 110q-74 21 -136 21
q-67 0 -104 -33.5t-37 -88.5v-4q0 -54 35 -87t88 -33z" />
    <glyph glyph-name="Oslashacute" unicode="&#x1fe;" horiz-adv-x="714" 
d="M604 706h55l-82 -105q75 -100 75 -247v-6q0 -155 -82.5 -257t-213.5 -102q-111 0 -188 75l-57 -70h-55l81 105q-75 98 -75 247v6q0 155 82.5 257t213.5 102q110 0 189 -76zM112 349q0 -123 57 -210l350 456q-69 72 -163 72q-106 0 -175 -88t-69 -225v-5zM358 33
q107 0 176 88t69 225v5q0 124 -58 209l-349 -456q66 -71 162 -71zM338 765l83 114l55 -26l-98 -88h-40z" />
    <glyph glyph-name="oslashacute" unicode="&#x1ff;" horiz-adv-x="547" 
d="M455 521h52l-66 -81q57 -74 57 -180v-4q0 -113 -64.5 -190t-160.5 -77q-81 0 -140 56l-41 -50h-51l64 81q-55 72 -55 179v4q0 113 64.5 190t159.5 77q79 0 140 -56zM274 32q76 0 126 64t50 159v3q0 83 -39 145l-252 -321q48 -50 115 -50zM98 257q0 -85 38 -145l252 321
q-48 50 -115 50q-76 0 -125.5 -63.5t-49.5 -159.5v-3zM253 589l80 130l56 -29l-99 -101h-37z" />
    <glyph glyph-name="Scommaaccent" unicode="&#x218;" horiz-adv-x="546" 
d="M231 -212l-8 22q50 14 46 55h-27v67h64v-60q0 -67 -75 -84zM281 -10q-132 0 -238 97l33 39q96 -90 206 -90q70 0 114.5 38.5t44.5 96.5v2q0 52 -35.5 87.5t-133.5 69.5q-113 40 -157 85.5t-44 115.5v2q0 75 57.5 126t145.5 51q115 0 204 -76l-31 -40q-79 70 -175 70
q-67 0 -109 -36.5t-42 -90.5v-2q0 -53 36 -88.5t138 -70.5q109 -40 152 -86t43 -114v-2q0 -80 -59 -132t-150 -52z" />
    <glyph glyph-name="scommaaccent" unicode="&#x219;" horiz-adv-x="424" 
d="M170 -212l-8 22q50 14 46 55h-27v67h64v-60q0 -67 -75 -84zM213 -9q-101 0 -182 73l29 36q74 -65 156 -65q48 0 80 26.5t32 69.5v2q0 36 -28.5 60t-91.5 50q-77 32 -114 62t-37 83v2q0 59 43 96.5t111 37.5q87 0 159 -56l-27 -37q-65 49 -134 49q-46 0 -75.5 -24
t-29.5 -61v-2q0 -34 28.5 -56t94.5 -50q77 -34 112.5 -65.5t35.5 -85.5v-1q0 -64 -46.5 -104t-115.5 -40z" />
    <glyph glyph-name="schwa" unicode="&#x259;" horiz-adv-x="505" 
d="M232 525q94 0 158.5 -72.5t64.5 -192.5v-4q0 -118 -59.5 -193t-149.5 -75q-91 0 -146 73t-55 191v24h362q-4 95 -55.5 150t-122.5 55q-80 0 -143 -63l-29 32q77 75 175 75zM407 234h-313q3 -86 43.5 -144.5t109.5 -58.5q65 0 110 56.5t50 146.5z" />
    <glyph glyph-name="circumflex" unicode="&#x2c6;" horiz-adv-x="500" 
d="M142 590l89 122h38l89 -122h-43l-66 71l-66 -71h-41z" />
    <glyph glyph-name="caron" unicode="&#x2c7;" horiz-adv-x="500" 
d="M358 712l-89 -122h-38l-89 122h43l66 -70l66 70h41z" />
    <glyph glyph-name="breve" unicode="&#x2d8;" horiz-adv-x="500" 
d="M250 588q-50 0 -83 28t-37 78h38q18 -61 82 -61t82 61h38q-4 -50 -37 -78t-83 -28z" />
    <glyph glyph-name="dotaccent" unicode="&#x2d9;" horiz-adv-x="500" 
d="M218 592v76h64v-76h-64z" />
    <glyph glyph-name="ring" unicode="&#x2da;" horiz-adv-x="500" 
d="M250 588q-40 0 -68 27.5t-28 65.5t28 65.5t68 27.5t68 -27.5t28 -65.5t-28 -65.5t-68 -27.5zM250 616q26 0 44.5 19t18.5 46q0 26 -18.5 45t-44.5 19t-44.5 -19t-18.5 -45q0 -27 18.5 -46t44.5 -19z" />
    <glyph glyph-name="ogonek" unicode="&#x2db;" horiz-adv-x="500" 
d="M310 -114v-35h-6q-105 3 -105 68q0 43 63 94l33 -11q-50 -47 -50 -75q0 -37 65 -41z" />
    <glyph glyph-name="tilde" unicode="&#x2dc;" horiz-adv-x="500" 
d="M307 589q-21 0 -60 22q-34 22 -53 22q-15 0 -24 -10.5t-18 -37.5l-34 8q13 48 30.5 67.5t44.5 19.5q21 0 60 -22q35 -21 53 -21q15 0 24 10.5t18 37.5l34 -9q-13 -47 -30.5 -67t-44.5 -20z" />
    <glyph glyph-name="hungarumlaut" unicode="&#x2dd;" horiz-adv-x="500" 
d="M244 589l80 130l51 -27l-93 -103h-38zM122 589l80 130l52 -27l-94 -103h-38z" />
    <glyph glyph-name="commaaccent" unicode="&#x326;" horiz-adv-x="500" 
d="M208 -212l-8 22q50 14 46 55h-27v67h64v-60q0 -67 -75 -84z" />
    <glyph glyph-name="baht" unicode="&#xe3f;" horiz-adv-x="552" 
d="M309 779h43l-14 -87q65 -15 102.5 -58.5t37.5 -106.5v-1q0 -128 -130 -169q70 -16 111 -58t41 -111v-1q0 -86 -63 -136.5t-169 -50.5h-33l-18 -118h-43l18 118h-106v700h185q4 0 12.5 -0.5t12.5 -0.5zM453 187q0 66 -44 103t-127 41l-42 -287h29q86 0 135 37t49 105v1z
M134 374h117l41 281q-4 0 -11 0.5t-11 0.5h-136v-282zM134 44h68l43 288h-111v-288zM430 521q0 49 -26.5 82t-74.5 46l-40 -274q67 8 104 45.5t37 100.5z" />
    <glyph glyph-name="Wgrave" unicode="&#x1e80;" horiz-adv-x="952" 
d="M494 757h-40l-98 88l55 26zM257 -5l-213 705h54l183 -619l176 621h41l177 -621l182 619h51l-213 -705h-42l-177 609l-177 -609h-42z" />
    <glyph glyph-name="wgrave" unicode="&#x1e81;" horiz-adv-x="751" 
d="M205 -4l-162 519h52l130 -450l132 451h39l132 -451l131 450h49l-161 -519h-41l-130 439l-131 -439h-40zM357 589l-99 101l56 29l80 -130h-37z" />
    <glyph glyph-name="Wacute" unicode="&#x1e82;" horiz-adv-x="952" 
d="M456 757l83 114l55 -26l-98 -88h-40zM257 -5l-213 705h54l183 -619l176 621h41l177 -621l182 619h51l-213 -705h-42l-177 609l-177 -609h-42z" />
    <glyph glyph-name="wacute" unicode="&#x1e83;" horiz-adv-x="751" 
d="M355 589l80 130l56 -29l-99 -101h-37zM205 -4l-162 519h52l130 -450l132 451h39l132 -451l131 450h49l-161 -519h-41l-130 439l-131 -439h-40z" />
    <glyph glyph-name="Wdieresis" unicode="&#x1e84;" horiz-adv-x="952" 
d="M519 760v73h66v-73h-66zM366 760v73h67v-73h-67zM257 -5l-213 705h54l183 -619l176 621h41l177 -621l182 619h51l-213 -705h-42l-177 609l-177 -609h-42z" />
    <glyph glyph-name="wdieresis" unicode="&#x1e85;" horiz-adv-x="751" 
d="M415 592v75h61v-75h-61zM274 592v75h61v-75h-61zM205 -4l-162 519h52l130 -450l132 451h39l132 -451l131 450h49l-161 -519h-41l-130 439l-131 -439h-40z" />
    <glyph glyph-name="Ygrave" unicode="&#x1ef2;" horiz-adv-x="605" 
d="M277 0v285l-253 415h59l220 -367l220 367h57l-253 -414v-286h-50zM322 752h-40l-98 88l55 26z" />
    <glyph glyph-name="ygrave" unicode="&#x1ef3;" horiz-adv-x="507" 
d="M264 59l156 456h50l-187 -525q-28 -78 -63.5 -110.5t-86.5 -32.5q-44 0 -85 21l16 42q32 -19 71 -19q34 0 58 24t48 85l-206 515h52zM239 588l-99 101l56 29l80 -130h-37z" />
    <glyph glyph-name="enspace" unicode="&#x2002;" horiz-adv-x="500" 
 />
    <glyph glyph-name="emspace" unicode="&#x2003;" horiz-adv-x="1000" 
 />
    <glyph glyph-name="threeperemspace" unicode="&#x2004;" horiz-adv-x="333" 
 />
    <glyph glyph-name="fourperemspace" unicode="&#x2005;" horiz-adv-x="250" 
 />
    <glyph glyph-name="figurespace" unicode="&#x2007;" horiz-adv-x="530" 
 />
    <glyph glyph-name="thinspace" unicode="&#x2009;" horiz-adv-x="123" 
 />
    <glyph glyph-name="hairspace" unicode="&#x200a;" horiz-adv-x="67" 
 />
    <glyph glyph-name="endash" unicode="&#x2013;" horiz-adv-x="489" 
d="M61 272v49h366v-49h-366z" />
    <glyph glyph-name="emdash" unicode="&#x2014;" horiz-adv-x="800" 
d="M61 272v49h679v-49h-679z" />
    <glyph glyph-name="quoteleft" unicode="&#x2018;" horiz-adv-x="206" 
d="M66 513v74q0 46 18 72.5t62 44.5l12 -25q-31 -16 -43.5 -34.5t-10.5 -46.5h27v-85h-65z" />
    <glyph glyph-name="quoteright" unicode="&#x2019;" horiz-adv-x="206" 
d="M59 510l-12 25q31 15 43.5 33.5t10.5 47.5h-27v84h65v-73q0 -46 -18 -72.5t-62 -44.5z" />
    <glyph glyph-name="quotesinglbase" unicode="&#x201a;" horiz-adv-x="206" 
d="M55 -106l-12 25q32 16 44 34.5t10 46.5h-27v84h65v-73q0 -46 -18 -72.5t-62 -44.5z" />
    <glyph glyph-name="quotedblleft" unicode="&#x201c;" horiz-adv-x="371" 
d="M231 513v74q0 46 18 72.5t62 44.5l12 -25q-31 -16 -43.5 -34.5t-10.5 -46.5h27v-85h-65zM66 513v74q0 46 18 72.5t62 44.5l12 -25q-31 -16 -43.5 -34.5t-10.5 -46.5h27v-85h-65z" />
    <glyph glyph-name="quotedblright" unicode="&#x201d;" horiz-adv-x="371" 
d="M224 510l-12 25q31 15 43.5 33.5t10.5 47.5h-27v84h65v-73q0 -46 -18 -72.5t-62 -44.5zM59 510l-12 25q31 15 43.5 33.5t10.5 47.5h-27v84h65v-73q0 -46 -18 -72.5t-62 -44.5z" />
    <glyph glyph-name="quotedblbase" unicode="&#x201e;" horiz-adv-x="371" 
d="M220 -106l-12 25q31 16 43.5 34.5t10.5 46.5h-27v84h65v-73q0 -46 -18 -72.5t-62 -44.5zM55 -106l-12 25q32 16 44 34.5t10 46.5h-27v84h65v-73q0 -46 -18 -72.5t-62 -44.5z" />
    <glyph glyph-name="dagger" unicode="&#x2020;" horiz-adv-x="355" 
d="M156 238l6 287l-113 -8v45l112 -8l-8 146h50l-9 -146l112 8v-45l-112 8l6 -287h-44z" />
    <glyph glyph-name="daggerdbl" unicode="&#x2021;" horiz-adv-x="376" 
d="M163 0l9 146l-112 -8v45l113 -8l-7 175l7 175l-113 -8v45l112 -8l-8 146h49l-8 -146l112 8v-45l-113 8l7 -175l-7 -175l113 8v-45l-112 8l8 -146h-50z" />
    <glyph glyph-name="bullet" unicode="&#x2022;" horiz-adv-x="422" 
d="M211 233q-47 0 -79 33t-32 84v5q0 51 32.5 84t78.5 33q45 0 78 -33t33 -84v-5q0 -50 -32.5 -83.5t-78.5 -33.5z" />
    <glyph glyph-name="ellipsis" unicode="&#x2026;" horiz-adv-x="616" 
d="M482 0v83h64v-83h-64zM276 0v83h64v-83h-64zM70 0v83h64v-83h-64z" />
    <glyph glyph-name="perthousand" unicode="&#x2030;" horiz-adv-x="1063" 
d="M186 399q39 0 64.5 37t25.5 93v4q0 58 -26.5 95t-65.5 37t-64.5 -37t-25.5 -93v-4q0 -58 26.5 -95t65.5 -37zM184 357q-60 0 -98.5 49.5t-38.5 122.5v4q0 74 39 124t100 50q59 0 98.5 -49.5t39.5 -122.5v-4q0 -74 -39.5 -124t-100.5 -50zM613 700l-235 -361l-217 -339
h-49l234 359l218 341h49zM541 35q39 0 64.5 37t25.5 93v4q0 58 -26.5 95t-65.5 37t-64.5 -37t-25.5 -93v-4q0 -58 26.5 -95t65.5 -37zM539 -7q-59 0 -98 49.5t-39 122.5v4q0 74 39.5 124t99.5 50t99 -50t39 -122v-4q0 -74 -39.5 -124t-100.5 -50zM879 35q40 0 65 36.5
t25 93.5v4q0 58 -26 95t-65 37q-40 0 -65.5 -37t-25.5 -93v-4q0 -58 27 -95t65 -37zM878 -7q-60 0 -99 49.5t-39 122.5v4q0 74 39.5 124t99.5 50t99 -50t39 -122v-4q0 -74 -39.5 -124t-99.5 -50z" />
    <glyph glyph-name="guilsinglleft" unicode="&#x2039;" horiz-adv-x="282" 
d="M193 42l-148 209v8l148 209l35 -22l-127 -190l127 -192z" />
    <glyph glyph-name="guilsinglright" unicode="&#x203a;" horiz-adv-x="282" 
d="M89 42l-35 22l128 190l-128 192l35 22l148 -209v-8z" />
    <glyph glyph-name="fraction" unicode="&#x2044;" horiz-adv-x="88" 
d="M-185 0l215 356l203 344h40l-215 -356l-202 -344h-41z" />
    <glyph glyph-name="zero.sup" unicode="&#x2070;" 
d="M176 430q-58 0 -91.5 52t-33.5 140v4q0 89 33.5 141.5t92.5 52.5q58 0 91.5 -52t33.5 -141v-3q0 -88 -34 -141t-92 -53zM176 785q-41 0 -64 -43t-23 -115v-4q0 -72 23.5 -115.5t64.5 -43.5t64 43.5t23 115.5v3q0 72 -23.5 115.5t-64.5 43.5z" />
    <glyph glyph-name="four.sup" unicode="&#x2074;" 
d="M263 522v-86h-36v86h-173l-8 29l173 265h44v-262h49v-32h-49zM227 554v211h-1l-138 -211h139z" />
    <glyph glyph-name="five.sup" unicode="&#x2075;" 
d="M171 430q-71 0 -122 56l25 27q46 -49 98 -49q41 0 64.5 25t23.5 62q0 38 -24.5 58.5t-63.5 20.5q-37 0 -77 -19l-26 14l12 187h201v-38h-168l-9 -123q35 14 71 14q53 0 88 -30.5t35 -81.5q0 -54 -36.5 -88.5t-91.5 -34.5z" />
    <glyph glyph-name="six.sup" unicode="&#x2076;" 
d="M175 430q-50 0 -82 32q-43 43 -43 144v6q0 96 39 152t102 56q53 0 94 -38l-22 -29q-34 32 -73 32q-44 0 -73 -43t-30 -116q34 49 95 49q48 0 81 -32t33 -87q0 -54 -35 -90t-86 -36zM175 464q37 0 60.5 25t23.5 66t-22 63.5t-59 22.5q-36 0 -60.5 -23.5t-24.5 -62.5
q0 -40 23.5 -65.5t58.5 -25.5z" />
    <glyph glyph-name="seven.sup" unicode="&#x2077;" 
d="M139 436h-43l159 338h-196v38h238v-29z" />
    <glyph glyph-name="eight.sup" unicode="&#x2078;" 
d="M177 430q-56 0 -91 29.5t-35 77.5q0 64 68 94q-57 27 -57 87q0 45 34.5 73.5t81.5 28.5t81 -28.5t34 -73.5q0 -59 -58 -87q31 -12 49.5 -36.5t18.5 -55.5q0 -49 -35 -79t-91 -30zM177 786q-34 0 -56 -19t-22 -49q0 -31 22 -51.5t56 -20.5t56.5 20.5t22.5 51.5
q0 30 -22 49t-57 19zM177 614q-39 0 -64 -22t-25 -55q0 -32 24.5 -52.5t64.5 -20.5q41 0 65.5 20.5t24.5 52.5q0 33 -25 55t-65 22z" />
    <glyph glyph-name="nine.sup" unicode="&#x2079;" 
d="M179 819q50 0 81 -31q43 -43 43 -144v-6q0 -98 -39 -153t-101 -55q-56 0 -99 40l22 28q39 -34 78 -34q43 0 72.5 42.5t30.5 113.5q-34 -50 -95 -50q-48 0 -81 33t-33 89q0 55 34.5 91t86.5 36zM176 604q36 0 60.5 24.5t24.5 65.5q0 40 -23 65.5t-59 25.5q-38 0 -61 -25
t-23 -67q0 -41 22 -65t59 -24z" />
    <glyph glyph-name="zero.inf" unicode="&#x2080;" 
d="M176 -140q-58 0 -91.5 52t-33.5 140v4q0 89 33.5 141.5t92.5 52.5q58 0 91.5 -52t33.5 -141v-3q0 -88 -34 -141t-92 -53zM176 215q-41 0 -64 -43t-23 -115v-4q0 -72 23.5 -115.5t64.5 -43.5t64 43.5t23 115.5v3q0 72 -23.5 115.5t-64.5 43.5z" />
    <glyph glyph-name="one.inf" unicode="&#x2081;" horiz-adv-x="287" 
d="M181 -132h-38v337l-83 -35l-7 36l95 40h33v-378z" />
    <glyph glyph-name="two.inf" unicode="&#x2082;" 
d="M51 -132v30l138 140q35 34 50 58.5t15 50.5q0 30 -21 49t-52 19q-55 0 -98 -61l-27 21q53 75 128 75q47 0 78 -29t31 -72q0 -36 -17.5 -63.5t-58.5 -68.5l-113 -113h193v-36h-246z" />
    <glyph glyph-name="three.inf" unicode="&#x2083;" 
d="M170 -140q-76 0 -126 61l26 25q42 -52 102 -52q34 0 58 21.5t24 56.5q0 36 -29.5 56t-79.5 21h-20l-5 23l120 134h-179v36h227v-30l-117 -131q55 -6 88 -33.5t33 -76.5q0 -48 -36 -79.5t-86 -31.5z" />
    <glyph glyph-name="four.inf" unicode="&#x2084;" 
d="M263 -48v-86h-36v86h-173l-8 29l173 265h44v-262h49v-32h-49zM227 -16v211h-1l-138 -211h139z" />
    <glyph glyph-name="five.inf" unicode="&#x2085;" 
d="M171 -140q-71 0 -122 56l25 27q46 -49 98 -49q41 0 64.5 25t23.5 62q0 38 -24.5 58.5t-63.5 20.5q-37 0 -77 -19l-26 14l12 187h201v-38h-168l-9 -123q35 14 71 14q53 0 88 -30.5t35 -81.5q0 -54 -36.5 -88.5t-91.5 -34.5z" />
    <glyph glyph-name="six.inf" unicode="&#x2086;" 
d="M175 -140q-50 0 -82 32q-43 43 -43 144v6q0 96 39 152t102 56q53 0 94 -38l-22 -29q-34 32 -73 32q-44 0 -73 -43t-30 -116q34 49 95 49q48 0 81 -32t33 -87q0 -54 -35 -90t-86 -36zM175 -106q37 0 60.5 25t23.5 66t-22 63.5t-59 22.5q-36 0 -60.5 -23.5t-24.5 -62.5
q0 -40 23.5 -65.5t58.5 -25.5z" />
    <glyph glyph-name="seven.inf" unicode="&#x2087;" 
d="M139 -134h-43l159 338h-196v38h238v-29z" />
    <glyph glyph-name="eight.inf" unicode="&#x2088;" 
d="M177 -140q-56 0 -91 29.5t-35 77.5q0 64 68 94q-57 27 -57 87q0 45 34.5 73.5t81.5 28.5t81 -28.5t34 -73.5q0 -59 -58 -87q31 -12 49.5 -36.5t18.5 -55.5q0 -49 -35 -79t-91 -30zM177 216q-34 0 -56 -19t-22 -49q0 -31 22 -51.5t56 -20.5t56.5 20.5t22.5 51.5
q0 30 -22 49t-57 19zM177 44q-39 0 -64 -22t-25 -55q0 -32 24.5 -52.5t64.5 -20.5q41 0 65.5 20.5t24.5 52.5q0 33 -25 55t-65 22z" />
    <glyph glyph-name="nine.inf" unicode="&#x2089;" 
d="M179 249q50 0 81 -31q43 -43 43 -144v-6q0 -98 -39 -153t-101 -55q-56 0 -99 40l22 28q39 -34 78 -34q43 0 72.5 42.5t30.5 113.5q-34 -50 -95 -50q-48 0 -81 33t-33 89q0 55 34.5 91t86.5 36zM176 34q36 0 60.5 24.5t24.5 65.5q0 40 -23 65.5t-59 25.5q-38 0 -61 -25
t-23 -67q0 -41 22 -65t59 -24z" />
    <glyph glyph-name="colonmonetary" unicode="&#x20a1;" horiz-adv-x="526" 
d="M416 779h42l-17 -109q19 -10 51 -37l-28 -35q-18 16 -34 27l-89 -585q65 6 125 63l27 -32q-72 -67 -156 -73l-18 -116h-41l18 116q-42 3 -84 22l-21 -138h-42l25 161q-56 43 -88 120.5t-32 181.5v10q0 143 61.5 234.5t160.5 109.5l12 80h42l-12 -76h1q46 0 83 -14z
M218 69q41 -27 87 -30l92 605q-34 17 -78 17h-10zM101 345q0 -163 84 -249l87 559q-77 -20 -124 -99t-47 -201v-10z" />
    <glyph glyph-name="naira" unicode="&#x20a6;" horiz-adv-x="716" 
d="M676 239h-90v-239h-67l-125 239h-218v-239h-46v239h-90v40h90v146h-90v40h90v235h73l122 -235h215v235h46v-235h90v-40h-90v-146h90v-40zM176 425v-146h198l-78 146h-120zM345 425l77 -146h118v146h-195zM176 653v-190h100zM442 241l98 -185v185h-98z" />
    <glyph glyph-name="rupee" unicode="&#x20a8;" horiz-adv-x="928" 
d="M73 0v700h182q102 0 162.5 -56t60.5 -149v-2q0 -78 -43 -130.5t-113 -71.5l177 -291h-58l-170 282h-151v-282h-47zM120 323h135q79 0 127 45t48 124v2q0 77 -47.5 119.5t-130.5 42.5h-132v-333zM726 -9q-99 0 -175 67l28 38q70 -61 149 -61q47 0 77.5 26t30.5 67v2
q0 34 -25.5 58t-89.5 52q-81 36 -114.5 69t-33.5 82v2q0 56 42.5 93.5t107.5 37.5q81 0 153 -51l-26 -40q-62 48 -129 48q-46 0 -73.5 -24.5t-27.5 -61.5v-2q0 -33 26.5 -57t92.5 -52q78 -35 110.5 -69t32.5 -84v-2q0 -62 -44 -100t-112 -38z" />
    <glyph glyph-name="won" unicode="&#x20a9;" horiz-adv-x="953" 
d="M873 700l-57 -235h105v-39h-114l-36 -148h150v-39h-159l-58 -242h-58l-63 242h-213l-63 -242h-58l-58 242h-159v39h149l-35 148h-114v39h104l-56 235h53l53 -235h201l60 237h63l59 -237h200l55 235h49zM418 426l-37 -148h191l-37 148h-117zM194 426l33 -148h112l37 148
h-182zM580 426l36 -148h112l32 148h-180zM278 45h4l48 194h-95zM674 45h3l42 194h-93zM475 649l-47 -184h97l-46 184h-4z" />
    <glyph glyph-name="sheqel" unicode="&#x20aa;" horiz-adv-x="552" 
d="M210 139l-29 210h43l29 -199q8 -56 31.5 -81.5t71.5 -25.5h84v467h45v-510h-132q-65 0 -99 34t-44 105zM315 358q0 58 -24 83.5t-77 25.5h-102v-467h-45v510h150q71 0 106 -35.5t35 -114.5v-189h-43v187z" />
    <glyph glyph-name="Euro" unicode="&#x20ac;" horiz-adv-x="610" 
d="M562 603l-35 -28q-35 46 -71 68t-88 22q-69 0 -120 -57t-71 -148h246v-44h-253q-4 -28 -4 -64v-4q0 -29 3 -56h254v-45h-247q20 -97 73 -154.5t126 -57.5q88 0 155 97l34 -27q-80 -115 -191 -115q-94 0 -160.5 70.5t-87.5 186.5h-81v45h75q-2 17 -2 54v6q0 33 3 64h-76
v44h83q23 110 87.5 180t154.5 70q115 0 193 -107z" />
    <glyph glyph-name="peso" unicode="&#x20b1;" horiz-adv-x="616" 
d="M117 0v458h-89v41h89v201h153q106 0 171.5 -54t70.5 -147h90v-41h-91q-7 -97 -77 -152t-174 -55h-94v-251h-49zM263 296q87 0 140.5 44.5t58.5 118.5h-296v-163h97zM166 655v-157h296q-5 75 -57.5 116t-137.5 41h-101z" />
    <glyph glyph-name="published" unicode="&#x2117;" horiz-adv-x="736" 
d="M367 -12q-137 0 -230 104t-93 251v13q0 147 93.5 251.5t231.5 104.5q137 0 230 -104t93 -251v-12q0 -147 -93.5 -252t-231.5 -105zM367 16q128 0 212 96t84 233v12q0 136 -83.5 231.5t-210.5 95.5q-128 0 -212 -96t-84 -232v-13q0 -136 83.5 -231.5t210.5 -95.5zM265 172
v371h115q60 0 96.5 -31t36.5 -86v-2q0 -58 -39.5 -89.5t-98.5 -32.5h-69v-130h-41zM306 341h70q44 0 69.5 21t25.5 60v2q0 40 -25 60.5t-68 20.5h-72v-164z" />
    <glyph glyph-name="servicemark" unicode="&#x2120;" horiz-adv-x="619" 
d="M306 390v310h38l98 -174l98 174h37v-310h-34v249l-99 -177h-5l-100 177v-249h-33zM141 385q-61 0 -110 44l20 26q44 -39 91 -39q27 0 44.5 14.5t17.5 36.5q0 21 -14.5 35t-55.5 30q-49 19 -70 39t-21 52q0 35 27.5 58.5t68.5 23.5q52 0 97 -35l-20 -26q-35 29 -78 29
q-27 0 -43.5 -13.5t-16.5 -34.5q0 -20 15 -33.5t57 -29.5q47 -19 68 -40t21 -53q0 -37 -28.5 -60.5t-69.5 -23.5z" />
    <glyph glyph-name="trademark" unicode="&#x2122;" horiz-adv-x="598" 
d="M286 390v310h37l98 -174l98 174h37v-310h-33v249l-100 -177h-5l-99 177v-249h-33zM105 390v277h-86v33h205v-33h-85v-277h-34z" />
    <glyph glyph-name="onethird" unicode="&#x2153;" horiz-adv-x="729" 
d="M554 -8q-76 0 -126 61l26 25q42 -52 102 -52q34 0 58 21.5t24 56.5q0 36 -29.5 56t-79.5 21h-20l-5 23l120 134h-179v36h227v-30l-117 -131q55 -6 88 -33.5t33 -76.5q0 -48 -36 -79.5t-86 -31.5zM181 326h-38v338l-83 -35l-7 35l95 41h33v-379zM99 0l215 356l203 344h40
l-215 -356l-202 -344h-41z" />
    <glyph glyph-name="twothirds" unicode="&#x2154;" horiz-adv-x="794" 
d="M621 -8q-76 0 -126 61l26 25q42 -52 102 -52q34 0 58 21.5t24 56.5q0 36 -29.5 56t-79.5 21h-20l-5 23l120 134h-179v36h227v-30l-117 -131q55 -6 88 -33.5t33 -76.5q0 -48 -36 -79.5t-86 -31.5zM45 326v30l138 140q35 34 50 58.5t15 51.5q0 30 -21 48.5t-52 18.5
q-55 0 -98 -61l-27 21q53 75 128 75q47 0 78 -29t31 -72q0 -36 -17 -63t-59 -69l-113 -113h193v-36h-246zM169 0l215 356l203 344h40l-215 -356l-202 -344h-41z" />
    <glyph glyph-name="onefifth" unicode="&#x2155;" horiz-adv-x="729" 
d="M552 -8q-71 0 -122 56l25 27q46 -49 98 -49q41 0 64.5 25t23.5 62q0 38 -24.5 58.5t-63.5 20.5q-37 0 -77 -19l-26 14l12 187h201v-38h-168l-9 -123q35 14 71 14q53 0 88 -30.5t35 -81.5q0 -54 -36.5 -88.5t-91.5 -34.5zM181 326h-38v338l-83 -35l-7 35l95 41h33v-379z
M103 0l215 356l203 344h40l-215 -356l-202 -344h-41z" />
    <glyph glyph-name="twofifths" unicode="&#x2156;" horiz-adv-x="794" 
d="M624 -8q-71 0 -122 56l25 27q46 -49 98 -49q41 0 64.5 25t23.5 62q0 38 -24.5 58.5t-63.5 20.5q-37 0 -77 -19l-26 14l12 187h201v-38h-168l-9 -123q35 14 71 14q53 0 88 -30.5t35 -81.5q0 -54 -36.5 -88.5t-91.5 -34.5zM177 0l215 356l203 344h40l-215 -356l-202 -344
h-41zM45 326v30l138 140q35 34 50 58.5t15 51.5q0 30 -21 48.5t-52 18.5q-55 0 -98 -61l-27 21q53 75 128 75q47 0 78 -29t31 -72q0 -36 -17 -63t-59 -69l-113 -113h193v-36h-246z" />
    <glyph glyph-name="threefifths" unicode="&#x2157;" horiz-adv-x="794" 
d="M624 -8q-71 0 -122 56l25 27q46 -49 98 -49q41 0 64.5 25t23.5 62q0 38 -24.5 58.5t-63.5 20.5q-37 0 -77 -19l-26 14l12 187h201v-38h-168l-9 -123q35 14 71 14q53 0 88 -30.5t35 -81.5q0 -54 -36.5 -88.5t-91.5 -34.5zM164 0l215 356l203 344h40l-215 -356l-202 -344
h-41zM162 318q-76 0 -126 61l26 25q44 -52 102 -52q34 0 58 21.5t24 56.5q0 36 -29.5 56.5t-79.5 20.5h-20l-5 24l120 133h-179v36h227v-30l-117 -131q55 -6 88 -33.5t33 -76.5q0 -48 -36 -79.5t-86 -31.5z" />
    <glyph glyph-name="fourfifths" unicode="&#x2158;" horiz-adv-x="794" 
d="M256 410v-85h-36v85h-173l-8 30l173 265h44v-262h49v-33h-49zM220 443v210h-1l-138 -210h139zM624 -8q-71 0 -122 56l25 27q46 -49 98 -49q41 0 64.5 25t23.5 62q0 38 -24.5 58.5t-63.5 20.5q-37 0 -77 -19l-26 14l12 187h201v-38h-168l-9 -123q35 14 71 14
q53 0 88 -30.5t35 -81.5q0 -54 -36.5 -88.5t-91.5 -34.5zM175 0l215 356l203 344h40l-215 -356l-202 -344h-41z" />
    <glyph glyph-name="onesixth" unicode="&#x2159;" horiz-adv-x="729" 
d="M553 -8q-50 0 -82 32q-43 43 -43 144v6q0 96 39 152t102 56q53 0 94 -38l-22 -29q-34 32 -73 32q-44 0 -73 -43t-30 -116q34 49 95 49q48 0 81 -32t33 -87q0 -54 -35 -90t-86 -36zM110 0l215 356l203 344h40l-215 -356l-202 -344h-41zM553 26q37 0 60.5 25t23.5 66
t-22 63.5t-59 22.5q-36 0 -60.5 -23.5t-24.5 -62.5q0 -40 23.5 -65.5t58.5 -25.5zM181 326h-38v338l-83 -35l-7 35l95 41h33v-379z" />
    <glyph glyph-name="fivesixths" unicode="&#x215a;" horiz-adv-x="794" 
d="M625 -8q-50 0 -82 32q-43 43 -43 144v6q0 96 39 152t102 56q53 0 94 -38l-22 -29q-34 32 -73 32q-44 0 -73 -43t-30 -116q34 49 95 49q48 0 81 -32t33 -87q0 -54 -35 -90t-86 -36zM165 318q-69 0 -122 56l25 27q46 -49 98 -49q41 0 64.5 25t23.5 62q0 38 -24.5 59
t-63.5 21q-35 0 -77 -20l-26 14l12 187h201v-38h-168l-9 -123q33 15 71 15q53 0 88 -31t35 -82q0 -54 -36.5 -88.5t-91.5 -34.5zM168 0l215 356l203 344h40l-215 -356l-202 -344h-41zM625 26q37 0 60.5 25t23.5 66t-22 63.5t-59 22.5q-36 0 -60.5 -23.5t-24.5 -62.5
q0 -40 23.5 -65.5t58.5 -25.5z" />
    <glyph glyph-name="oneeighth" unicode="&#x215b;" horiz-adv-x="729" 
d="M555 -8q-56 0 -91 29.5t-35 77.5q0 64 68 94q-57 27 -57 87q0 45 34.5 73.5t81.5 28.5t81 -28.5t34 -73.5q0 -59 -58 -87q31 -12 49.5 -36.5t18.5 -55.5q0 -49 -35 -79t-91 -30zM555 348q-34 0 -56 -19t-22 -49q0 -31 22 -51.5t56 -20.5t56.5 20.5t22.5 51.5q0 30 -22 49
t-57 19zM555 176q-39 0 -64 -22t-25 -55q0 -32 24.5 -52.5t64.5 -20.5q41 0 65.5 20.5t24.5 52.5q0 33 -25 55t-65 22zM181 326h-38v338l-83 -35l-7 35l95 41h33v-379zM110 0l215 356l203 344h40l-215 -356l-202 -344h-41z" />
    <glyph glyph-name="threeeighths" unicode="&#x215c;" horiz-adv-x="794" 
d="M627 -8q-56 0 -91 29.5t-35 77.5q0 64 68 94q-57 27 -57 87q0 45 34.5 73.5t81.5 28.5t81 -28.5t34 -73.5q0 -59 -58 -87q31 -12 49.5 -36.5t18.5 -55.5q0 -49 -35 -79t-91 -30zM627 348q-34 0 -56 -19t-22 -49q0 -31 22 -51.5t56 -20.5t56.5 20.5t22.5 51.5q0 30 -22 49
t-57 19zM627 176q-39 0 -64 -22t-25 -55q0 -32 24.5 -52.5t64.5 -20.5q41 0 65.5 20.5t24.5 52.5q0 33 -25 55t-65 22zM168 0l215 356l203 344h40l-215 -356l-202 -344h-41zM164 318q-76 0 -126 61l26 25q44 -52 102 -52q34 0 58 21.5t24 56.5q0 36 -29.5 56.5t-79.5 20.5
h-20l-5 24l120 133h-179v36h227v-30l-117 -131q55 -6 88 -33.5t33 -76.5q0 -48 -36 -79.5t-86 -31.5z" />
    <glyph glyph-name="fiveeighths" unicode="&#x215d;" horiz-adv-x="794" 
d="M627 -8q-56 0 -91 29.5t-35 77.5q0 64 68 94q-57 27 -57 87q0 45 34.5 73.5t81.5 28.5t81 -28.5t34 -73.5q0 -59 -58 -87q31 -12 49.5 -36.5t18.5 -55.5q0 -49 -35 -79t-91 -30zM627 348q-34 0 -56 -19t-22 -49q0 -31 22 -51.5t56 -20.5t56.5 20.5t22.5 51.5q0 30 -22 49
t-57 19zM627 176q-39 0 -64 -22t-25 -55q0 -32 24.5 -52.5t64.5 -20.5q41 0 65.5 20.5t24.5 52.5q0 33 -25 55t-65 22zM168 0l215 356l203 344h40l-215 -356l-202 -344h-41zM165 318q-69 0 -122 56l25 27q46 -49 98 -49q41 0 64.5 25t23.5 62q0 38 -24.5 59t-63.5 21
q-35 0 -77 -20l-26 14l12 187h201v-38h-168l-9 -123q33 15 71 15q53 0 88 -31t35 -82q0 -54 -36.5 -88.5t-91.5 -34.5z" />
    <glyph glyph-name="seveneighths" unicode="&#x215e;" horiz-adv-x="794" 
d="M621 -8q-56 0 -91 29.5t-35 77.5q0 64 68 94q-57 27 -57 87q0 45 34.5 73.5t81.5 28.5t81 -28.5t34 -73.5q0 -59 -58 -87q31 -12 49.5 -36.5t18.5 -55.5q0 -49 -35 -79t-91 -30zM621 348q-34 0 -56 -19t-22 -49q0 -31 22 -51.5t56 -20.5t56.5 20.5t22.5 51.5q0 30 -22 49
t-57 19zM621 176q-39 0 -64 -22t-25 -55q0 -32 24.5 -52.5t64.5 -20.5q41 0 65.5 20.5t24.5 52.5q0 33 -25 55t-65 22zM140 325h-43l159 337h-196v38h238v-29zM136 0l215 356l203 344h40l-215 -356l-202 -344h-41z" />
    <glyph glyph-name="minus" unicode="&#x2212;" horiz-adv-x="534" 
d="M478 328h-422v48h422v-48z" />
    <glyph glyph-name="Q.alt" horiz-adv-x="714" 
d="M613 -100l-123 123q-60 -34 -133 -34q-131 0 -213 101t-82 256v7q0 155 82.5 256.5t213.5 101.5t212.5 -101t81.5 -256v-7q0 -93 -31.5 -169.5t-88.5 -124.5l148 -151v-2h-67zM358 35q105 0 174 88t69 223v7q0 135 -69.5 223.5t-174.5 88.5q-106 0 -175 -88t-69 -223v-7
q0 -135 69.5 -223.5t175.5 -88.5z" />
    <glyph glyph-name="a.alt" horiz-adv-x="565" 
d="M261 -11q-85 0 -147 71.5t-62 192.5v8q0 121 62 193t147 72q112 0 178 -118v107h47v-515h-47v110q-67 -121 -178 -121zM266 33q71 0 123.5 61.5t52.5 158.5v10q0 97 -52.5 158t-123.5 61q-72 0 -118.5 -58.5t-46.5 -161.5v-7q0 -102 48 -162t117 -60z" />
    <glyph glyph-name="aacute.alt" horiz-adv-x="565" 
d="M265 589l80 130l56 -29l-99 -101h-37zM261 -11q-85 0 -147 71.5t-62 192.5v8q0 121 62 193t147 72q112 0 178 -118v107h47v-515h-47v110q-67 -121 -178 -121zM266 33q71 0 123.5 61.5t52.5 158.5v10q0 97 -52.5 158t-123.5 61q-72 0 -118.5 -58.5t-46.5 -161.5v-7
q0 -102 48 -162t117 -60z" />
    <glyph glyph-name="abreve.alt" horiz-adv-x="565" 
d="M261 -11q-85 0 -147 71.5t-62 192.5v8q0 121 62 193t147 72q112 0 178 -118v107h47v-515h-47v110q-67 -121 -178 -121zM266 33q71 0 123.5 61.5t52.5 158.5v10q0 97 -52.5 158t-123.5 61q-72 0 -118.5 -58.5t-46.5 -161.5v-7q0 -102 48 -162t117 -60zM285 588
q-50 0 -83 28t-37 78h38q18 -61 82 -61t82 61h38q-4 -50 -37 -78t-83 -28z" />
    <glyph glyph-name="acircumflex.alt" horiz-adv-x="565" 
d="M177 590l89 122h38l89 -122h-43l-66 71l-66 -71h-41zM261 -11q-85 0 -147 71.5t-62 192.5v8q0 121 62 193t147 72q112 0 178 -118v107h47v-515h-47v110q-67 -121 -178 -121zM266 33q71 0 123.5 61.5t52.5 158.5v10q0 97 -52.5 158t-123.5 61q-72 0 -118.5 -58.5
t-46.5 -161.5v-7q0 -102 48 -162t117 -60z" />
    <glyph glyph-name="adieresis.alt" horiz-adv-x="565" 
d="M325 592v75h61v-75h-61zM184 592v75h61v-75h-61zM261 -11q-85 0 -147 71.5t-62 192.5v8q0 121 62 193t147 72q112 0 178 -118v107h47v-515h-47v110q-67 -121 -178 -121zM266 33q71 0 123.5 61.5t52.5 158.5v10q0 97 -52.5 158t-123.5 61q-72 0 -118.5 -58.5t-46.5 -161.5
v-7q0 -102 48 -162t117 -60z" />
    <glyph glyph-name="agrave.alt" horiz-adv-x="565" 
d="M261 -11q-85 0 -147 71.5t-62 192.5v8q0 121 62 193t147 72q112 0 178 -118v107h47v-515h-47v110q-67 -121 -178 -121zM266 33q71 0 123.5 61.5t52.5 158.5v10q0 97 -52.5 158t-123.5 61q-72 0 -118.5 -58.5t-46.5 -161.5v-7q0 -102 48 -162t117 -60zM269 589l-99 101
l56 29l80 -130h-37z" />
    <glyph glyph-name="amacron.alt" horiz-adv-x="565" 
d="M261 -11q-85 0 -147 71.5t-62 192.5v8q0 121 62 193t147 72q112 0 178 -118v107h47v-515h-47v110q-67 -121 -178 -121zM266 33q71 0 123.5 61.5t52.5 158.5v10q0 97 -52.5 158t-123.5 61q-72 0 -118.5 -58.5t-46.5 -161.5v-7q0 -102 48 -162t117 -60zM157 610v44h256v-44
h-256z" />
    <glyph glyph-name="aogonek.alt" horiz-adv-x="565" 
d="M498 -114v-35h-6q-105 3 -105 68q0 41 52 85v106q-67 -121 -178 -121q-85 0 -147 71.5t-62 192.5v8q0 121 62 193t147 72q112 0 178 -118v107h47v-515h-5q-48 -45 -48 -73q0 -37 65 -41zM266 33q71 0 123.5 61.5t52.5 158.5v10q0 97 -52.5 158t-123.5 61
q-72 0 -118.5 -58.5t-46.5 -161.5v-7q0 -102 48 -162t117 -60z" />
    <glyph glyph-name="aring.alt" horiz-adv-x="565" 
d="M285 588q-40 0 -68 27.5t-28 65.5t28 65.5t68 27.5t68 -27.5t28 -65.5t-28 -65.5t-68 -27.5zM285 616q26 0 44.5 19t18.5 46q0 26 -18.5 45t-44.5 19t-44.5 -19t-18.5 -45q0 -27 18.5 -46t44.5 -19zM261 -11q-85 0 -147 71.5t-62 192.5v8q0 121 62 193t147 72
q112 0 178 -118v107h47v-515h-47v110q-67 -121 -178 -121zM266 33q71 0 123.5 61.5t52.5 158.5v10q0 97 -52.5 158t-123.5 61q-72 0 -118.5 -58.5t-46.5 -161.5v-7q0 -102 48 -162t117 -60z" />
    <glyph glyph-name="aring.alt2" horiz-adv-x="497" 
d="M215 -11q-69 0 -120.5 44t-51.5 117v4q0 76 53.5 121t141.5 45q70 0 142 -21v37q0 69 -38 105.5t-106 36.5q-72 0 -137 -37l-18 41q55 26 103 35q-32 27 -32 70q0 38 28 65.5t68 27.5t68 -27.5t28 -65.5q0 -45 -38 -74q43 -11 73 -41q47 -47 47 -133v-339h-46v82
q-56 -93 -165 -93zM219 32q67 0 114.5 43.5t47.5 106.5v74q-70 22 -144 22q-69 0 -107 -33.5t-38 -88.5v-4q0 -54 36.5 -87t90.5 -33zM248 522q26 0 44.5 19t18.5 46q0 26 -18.5 45t-44.5 19t-44.5 -19t-18.5 -45q0 -27 18.5 -46t44.5 -19z" />
    <glyph glyph-name="aringacute.alt" horiz-adv-x="565" 
d="M264 802l82 112l54 -28l-96 -84h-40zM285 588q-40 0 -68 27.5t-28 65.5t28 65.5t68 27.5t68 -27.5t28 -65.5t-28 -65.5t-68 -27.5zM285 616q26 0 44.5 19t18.5 46q0 26 -18.5 45t-44.5 19t-44.5 -19t-18.5 -45q0 -27 18.5 -46t44.5 -19zM261 -11q-85 0 -147 71.5
t-62 192.5v8q0 121 62 193t147 72q112 0 178 -118v107h47v-515h-47v110q-67 -121 -178 -121zM266 33q71 0 123.5 61.5t52.5 158.5v10q0 97 -52.5 158t-123.5 61q-72 0 -118.5 -58.5t-46.5 -161.5v-7q0 -102 48 -162t117 -60z" />
    <glyph glyph-name="aringacute.alt2" horiz-adv-x="497" 
d="M227 709l82 112l54 -27l-96 -85h-40zM215 -11q-69 0 -120.5 44t-51.5 117v4q0 76 53.5 121t141.5 45q70 0 142 -21v37q0 69 -38 105.5t-106 36.5q-72 0 -137 -37l-18 41q55 26 103 35q-32 27 -32 70q0 38 28 65.5t68 27.5t68 -27.5t28 -65.5q0 -45 -38 -74q43 -11 73 -41
q47 -47 47 -133v-339h-46v82q-56 -93 -165 -93zM219 32q67 0 114.5 43.5t47.5 106.5v74q-70 22 -144 22q-69 0 -107 -33.5t-38 -88.5v-4q0 -54 36.5 -87t90.5 -33zM248 522q26 0 44.5 19t18.5 46q0 26 -18.5 45t-44.5 19t-44.5 -19t-18.5 -45q0 -27 18.5 -46t44.5 -19z" />
    <glyph glyph-name="atilde.alt" horiz-adv-x="565" 
d="M261 -11q-85 0 -147 71.5t-62 192.5v8q0 121 62 193t147 72q112 0 178 -118v107h47v-515h-47v110q-67 -121 -178 -121zM266 33q71 0 123.5 61.5t52.5 158.5v10q0 97 -52.5 158t-123.5 61q-72 0 -118.5 -58.5t-46.5 -161.5v-7q0 -102 48 -162t117 -60zM345 589
q-21 0 -60 22q-34 22 -53 22q-15 0 -24 -10.5t-18 -37.5l-34 8q13 48 30.5 67.5t44.5 19.5q21 0 60 -22q35 -21 53 -21q15 0 24 10.5t18 37.5l34 -9q-13 -47 -30.5 -67t-44.5 -20z" />
    <glyph glyph-name="three.alt" horiz-adv-x="510" 
d="M240 -11q-128 0 -207 98l36 33q68 -85 173 -85q70 0 116.5 41.5t46.5 109.5v2q0 70 -51 108.5t-145 38.5h-43v43h44q80 0 131 41t51 109v2q0 60 -41 97.5t-107 37.5q-95 0 -162 -83l-34 27q76 102 197 102q87 0 142 -51t55 -126v-3q0 -124 -130 -170q67 -19 106 -62.5
t39 -110.5v-2q0 -83 -61.5 -140t-155.5 -57z" />
    <glyph glyph-name="registered.alt" horiz-adv-x="736" 
d="M367 -12q-137 0 -230 104t-93 251v13q0 147 93.5 251.5t231.5 104.5q137 0 230 -104t93 -251v-12q0 -147 -93.5 -252t-231.5 -105zM367 16q128 0 212 96t84 233v12q0 136 -83.5 231.5t-210.5 95.5q-128 0 -212 -96t-84 -232v-13q0 -136 83.5 -231.5t210.5 -95.5zM249 173
v372h132q64 0 99 -35q29 -29 29 -73v-2q0 -84 -88 -106l106 -156h-51l-99 148h-88v-148h-40zM289 358h88q40 0 65 19.5t25 55.5v2q0 33 -24 52t-64 19h-90v-148z" />
    <glyph glyph-name="R_p" horiz-adv-x="1022" 
d="M588 -151v670h46v-106q59 115 157 115q76 0 132.5 -72t56.5 -192v-10q0 -119 -56.5 -191.5t-132.5 -72.5q-98 0 -157 112v-253h-46zM73 0v700h182q102 0 162.5 -56t60.5 -149v-2q0 -78 -43 -130.5t-113 -71.5l177 -291h-58l-170 282h-151v-282h-47zM786 32q63 0 105 59.5
t42 161.5v10q0 102 -42.5 163t-104.5 61q-61 0 -108 -61.5t-47 -159.5v-14q0 -98 47 -159t108 -61zM120 323h135q79 0 127 45t48 124v2q0 77 -47.5 119.5t-130.5 42.5h-132v-333z" />
    <glyph glyph-name="onehalf.alt" horiz-adv-x="794" 
d="M302 326h-242v34h106v305l-96 -38l-7 36l108 43h33v-346h98v-34zM501 0v30l138 140q35 34 50 58.5t15 50.5q0 30 -21 49t-52 19q-55 0 -98 -61l-27 21q53 75 128 75q47 0 78 -29t31 -72q0 -36 -17.5 -63.5t-58.5 -68.5l-113 -113h193v-36h-246zM184 0l215 356l203 344h40
l-215 -356l-202 -344h-41z" />
    <glyph glyph-name="onethird.alt" horiz-adv-x="794" 
d="M302 326h-242v34h106v305l-96 -38l-7 36l108 43h33v-346h98v-34zM621 -8q-76 0 -126 61l26 25q42 -52 102 -52q34 0 58 21.5t24 56.5q0 36 -29.5 56t-79.5 21h-20l-5 23l120 134h-179v36h227v-30l-117 -131q55 -6 88 -33.5t33 -76.5q0 -48 -36 -79.5t-86 -31.5zM176 0
l215 356l203 344h40l-215 -356l-202 -344h-41z" />
    <glyph glyph-name="onequarter.alt" horiz-adv-x="794" 
d="M303 326h-242v34h106v305l-96 -38l-7 36l108 43h33v-346h98v-34zM191 0l215 356l203 344h40l-215 -356l-202 -344h-41zM703 84v-86h-36v86h-173l-8 29l173 265h44v-262h49v-32h-49zM667 116v211h-1l-138 -211h139z" />
    <glyph glyph-name="onefifth.alt" horiz-adv-x="794" 
d="M302 326h-242v34h106v305l-96 -38l-7 36l108 43h33v-346h98v-34zM622 -8q-71 0 -122 56l25 27q46 -49 98 -49q41 0 64.5 25t23.5 62q0 38 -24.5 58.5t-63.5 20.5q-37 0 -77 -19l-26 14l12 187h201v-38h-168l-9 -123q35 14 71 14q53 0 88 -30.5t35 -81.5
q0 -54 -36.5 -88.5t-91.5 -34.5zM181 0l215 356l203 344h40l-215 -356l-202 -344h-41z" />
    <glyph glyph-name="onesixth.alt" horiz-adv-x="794" 
d="M626 -8q-50 0 -82 32q-43 43 -43 144v6q0 96 39 152t102 56q53 0 94 -38l-22 -29q-34 32 -73 32q-44 0 -73 -43t-30 -116q34 49 95 49q48 0 81 -32t33 -87q0 -54 -35 -90t-86 -36zM183 0l215 356l203 344h40l-215 -356l-202 -344h-41zM302 326h-242v34h106v305l-96 -38
l-7 36l108 43h33v-346h98v-34zM626 26q37 0 60.5 25t23.5 66t-22 63.5t-59 22.5q-36 0 -60.5 -23.5t-24.5 -62.5q0 -40 23.5 -65.5t58.5 -25.5z" />
    <glyph glyph-name="oneeighth.alt" horiz-adv-x="794" 
d="M302 326h-242v34h106v305l-96 -38l-7 36l108 43h33v-346h98v-34zM628 -8q-56 0 -91 29.5t-35 77.5q0 64 68 94q-57 27 -57 87q0 45 34.5 73.5t81.5 28.5t81 -28.5t34 -73.5q0 -59 -58 -87q31 -12 49.5 -36.5t18.5 -55.5q0 -49 -35 -79t-91 -30zM628 348q-34 0 -56 -19
t-22 -49q0 -31 22 -51.5t56 -20.5t56.5 20.5t22.5 51.5q0 30 -22 49t-57 19zM628 176q-39 0 -64 -22t-25 -55q0 -32 24.5 -52.5t64.5 -20.5q41 0 65.5 20.5t24.5 52.5q0 33 -25 55t-65 22zM183 0l215 356l203 344h40l-215 -356l-202 -344h-41z" />
    <glyph glyph-name="one.sup_alt" 
d="M308 438h-242v34h106v304l-96 -38l-7 36l108 43h33v-345h98v-34z" />
    <glyph glyph-name="one.inf_alt" 
d="M308 -132h-242v34h106v304l-96 -38l-7 36l108 43h33v-345h98v-34z" />
    <glyph glyph-name="zero.tab" horiz-adv-x="530" 
d="M264 -11q-96 0 -154.5 93t-58.5 263v8q0 170 59 264t155 94t154.5 -93t58.5 -263v-8q0 -170 -59 -264t-155 -94zM265 666q-74 0 -119 -82t-45 -229v-8q0 -148 45 -230.5t119 -82.5q73 0 118 82t45 229v8q0 148 -44.5 230.5t-118.5 82.5z" />
    <glyph glyph-name="one.tab" horiz-adv-x="530" 
d="M492 0h-413v46h191v602l-173 -72l-10 46l192 82h40v-658h173v-46z" />
    <glyph glyph-name="two.tab" horiz-adv-x="530" 
d="M468 0h-420v36l235 265q70 76 98 125t28 99q0 62 -40 100.5t-98 38.5q-54 0 -94.5 -27.5t-79.5 -84.5l-37 26q44 66 93 99t120 33q82 0 135 -51.5t53 -129.5v-3q0 -61 -31.5 -113t-110.5 -138l-200 -227h349v-48z" />
    <glyph glyph-name="three.tab" horiz-adv-x="530" 
d="M253 -11q-124 0 -207 100l35 34q76 -88 175 -88q68 0 114 43.5t46 116.5v3q0 70 -51 108t-140 38h-35l-13 33l221 275h-328v48h389v-42l-218 -271q98 -2 162.5 -49.5t64.5 -137.5v-3q0 -92 -63.5 -150t-151.5 -58z" />
    <glyph glyph-name="three.tab_alt" horiz-adv-x="530" 
d="M254 -11q-131 0 -211 105l35 30q73 -91 177 -91q73 0 118.5 41.5t45.5 111.5q0 71 -51.5 109.5t-143.5 38.5h-47v44h51q79 0 130.5 41.5t51.5 112.5q0 61 -41 98t-108 37q-101 0 -170 -91l-35 26q84 109 207 109q88 0 142.5 -50.5t54.5 -127.5q0 -125 -133 -175
q142 -42 142 -172q0 -84 -60.5 -140.5t-154.5 -56.5z" />
    <glyph glyph-name="four.tab" horiz-adv-x="530" 
d="M361 0v167h-314l-10 40l313 497h57v-495h89v-42h-89v-167h-46zM361 209v428h-1l-272 -428h273z" />
    <glyph glyph-name="five.tab" horiz-adv-x="530" 
d="M254 -11q-115 0 -203 92l33 35q77 -82 172 -82q75 0 121 49.5t46 126.5v2q0 76 -45.5 120t-118.5 44q-72 0 -137 -40l-37 24l22 340h337v-48h-295l-17 -264q61 34 132 34q91 0 150.5 -56t59.5 -151v-3q0 -98 -62.5 -160.5t-157.5 -62.5z" />
    <glyph glyph-name="six.tab" horiz-adv-x="530" 
d="M282 440q84 0 141.5 -58.5t57.5 -157.5v-3q0 -100 -59.5 -166t-145.5 -66q-85 0 -139 56q-40 39 -59.5 101.5t-19.5 171.5v10q0 176 66 279.5t179 103.5q81 0 151 -61l-28 -38q-59 54 -126 54q-91 0 -143 -94t-52 -244q26 54 72 83t105 29zM276 33q71 0 113 53.5
t42 133.5v2q0 81 -42.5 127.5t-109.5 46.5q-72 0 -116 -50t-44 -126v-2q0 -81 43.5 -133t113.5 -52z" />
    <glyph glyph-name="seven.tab" horiz-adv-x="530" 
d="M418 652h-353v48h407v-38l-281 -662h-53z" />
    <glyph glyph-name="eight.tab" horiz-adv-x="530" 
d="M265 -10q-94 0 -154.5 54t-60.5 139v4q0 60 36 106.5t95 68.5q-112 51 -112 164v4q0 80 58 130t138 50t138 -50t58 -130v-4q0 -58 -31 -99.5t-82 -64.5q60 -22 96 -68.5t36 -106.5v-4q0 -84 -61 -138.5t-154 -54.5zM265 381q62 0 104 41.5t42 103.5v2q0 61 -41 100
t-105 39t-105 -39t-41 -100v-2q0 -62 42 -103.5t104 -41.5zM265 33q76 0 120.5 43t44.5 107v2q0 66 -47.5 109.5t-117.5 43.5t-118 -43.5t-48 -109.5v-2q0 -64 45 -107t121 -43z" />
    <glyph glyph-name="nine.tab" horiz-adv-x="530" 
d="M249 254q-84 0 -141 59t-57 160v3q0 102 59 168.5t146 66.5q83 0 139 -56q40 -40 59.5 -102.5t19.5 -170.5v-10q0 -176 -66.5 -279.5t-179.5 -103.5q-81 0 -161 66l28 38q70 -59 136 -59q90 0 141.5 92t53.5 237q-27 -52 -73 -80.5t-104 -28.5zM255 667
q-70 0 -112.5 -54.5t-42.5 -135.5v-2q0 -82 42.5 -129.5t108.5 -47.5q72 0 116.5 50.5t44.5 128.5v2q0 82 -43.5 135t-113.5 53z" />
    <glyph glyph-name="period.tab" horiz-adv-x="265" 
d="M93 0v94h79v-94h-79z" />
    <glyph glyph-name="comma.tab" horiz-adv-x="265" 
d="M85 -106l-12 25q32 16 44 34.5t10 46.5h-34v94h79v-83q0 -45 -21 -71.5t-66 -45.5z" />
    <glyph glyph-name="colon.tab" horiz-adv-x="265" 
d="M93 421v93h79v-93h-79zM93 0v94h79v-94h-79z" />
    <glyph glyph-name="semicolon.tab" horiz-adv-x="265" 
d="M93 421v93h79v-93h-79zM85 -106l-12 25q32 16 44 34.5t10 46.5h-34v94h79v-83q0 -45 -21 -71.5t-66 -45.5z" />
    <glyph glyph-name="twodotleader.tab" horiz-adv-x="530" 
d="M359 0v88h75v-88h-75zM95 0v88h76v-88h-76z" />
    <glyph glyph-name="periodcentered.tab" horiz-adv-x="265" 
d="M93 251v94h79v-94h-79z" />
    <glyph glyph-name="slash.tab" horiz-adv-x="530" 
d="M503 789l-444 -908h-47l444 908h47z" />
    <glyph glyph-name="bar.tab" horiz-adv-x="265" 
d="M112 -119v908h41v-908h-41z" />
    <glyph glyph-name="underscore.tab" horiz-adv-x="530" 
d="M-1 -160v42h531v-42h-531z" />
    <glyph glyph-name="dollar.tab" horiz-adv-x="530" 
d="M335 780l-8 -84q69 -14 133 -63l-27 -39q-57 46 -114 59l-28 -279q98 -32 142 -77t44 -117v-1q0 -77 -58.5 -129t-150.5 -52h-13l-12 -115h-43l12 120q-97 16 -169 81l29 38q65 -62 147 -77l29 291q-93 28 -137 73t-44 117v1q0 76 56 125.5t142 49.5q13 0 19 -1l8 79h43z
M429 178q0 56 -32 89.5t-111 57.5l-28 -284h12q73 0 116 39t43 97v1zM115 528q0 -53 31 -86.5t107 -56.5l28 273q-6 1 -18 1q-67 0 -107.5 -36t-40.5 -94v-1z" />
    <glyph glyph-name="sterling.tab" horiz-adv-x="530" 
d="M130 357v130q0 114 58 172q50 50 130 50q98 0 166 -82l-34 -32q-61 70 -134 70q-57 0 -93 -36q-44 -44 -44 -140v-132h238v-43h-238v-270h305v-44h-426v23l72 20v271h-74v43h74z" />
    <glyph glyph-name="Euro.tab" horiz-adv-x="530" 
d="M34 416v41h76q20 115 80 184t146 69q87 0 151 -78l-33 -31q-52 65 -120 65q-66 0 -112 -56.5t-64 -152.5h220v-41h-226q-3 -30 -3 -61v-9q0 -20 2 -56h227v-41h-221q17 -98 63 -156.5t113 -58.5q40 0 68.5 17t56.5 52l31 -29q-67 -84 -158 -84q-85 0 -145 69.5t-78 189.5
h-74v41h69q-2 34 -2 54v12q0 30 3 60h-70z" />
    <glyph glyph-name="yen.tab" horiz-adv-x="530" 
d="M83 165h159v106h-159v41h147l-207 388h56l187 -364l187 364h53l-207 -388h148v-41h-159v-106h159v-40h-159v-125h-46v125h-159v40z" />
    <glyph glyph-name="cent.tab" horiz-adv-x="530" 
d="M353 705l-13 -88q75 -15 133 -80l-31 -32q-55 57 -111 69l-61 -445h17q90 0 158 77l30 -29q-78 -91 -190 -91q-14 0 -20 1l-14 -93h-45l15 101q-75 22 -119 90t-44 164v3q0 117 66 193.5t168 76.5h4l13 83h44zM106 350q0 -82 33.5 -137.5t90.5 -74.5l60 440
q-82 -1 -133 -62.5t-51 -162.5v-3z" />
    <glyph glyph-name="numbersign.tab" horiz-adv-x="530" 
d="M30 231h97l27 241h-94v44h99l21 184h41l-21 -184h167l21 184h41l-21 -184h91v-44h-96l-28 -241h95v-43h-100l-21 -188h-41l21 188h-167l-20 -188h-41l21 188h-92v43zM195 472l-28 -241h167l28 241h-167z" />
    <glyph glyph-name="paragraph.tab" horiz-adv-x="530" 
d="M376 0v271h-59q-115 0 -184.5 57.5t-69.5 155.5v1q0 100 70.5 157.5t188.5 57.5h104v-700h-50z" />
    <glyph glyph-name="section.tab" horiz-adv-x="530" 
d="M268 -9q-103 0 -177 69l29 36q70 -61 153 -61q45 0 71.5 21t26.5 54v1q0 33 -31 57.5t-105 50.5q-105 35 -145 67t-40 78v1q0 43 36 75t101 40q-78 47 -78 107v1q0 54 43 87.5t109 33.5q103 0 177 -69l-29 -36q-68 61 -152 61q-46 0 -72.5 -21t-26.5 -54v-1
q0 -33 31.5 -57.5t105.5 -50.5q104 -35 144 -67t40 -78v-1q0 -44 -35.5 -75.5t-100.5 -39.5q77 -47 77 -107v-1q0 -54 -43 -87.5t-109 -33.5zM214 450q-50 1 -83 -23t-33 -58v-2q0 -31 28 -54t98 -46q57 -17 92 -17q50 -1 83 23t33 58v2q0 31 -28 54t-98 46q-57 17 -92 17z
" />
    <glyph glyph-name="degree.tab" horiz-adv-x="530" 
d="M264 317q-74 0 -126 55.5t-52 137.5v3q0 83 53 138.5t126 55.5q74 0 126 -55.5t52 -138.5v-3q0 -82 -52.5 -137.5t-126.5 -55.5zM265 357q58 0 95.5 43.5t37.5 109.5v3q0 67 -38 110.5t-96 43.5t-95 -43.5t-37 -110.5v-3q0 -66 37.5 -109.5t95.5 -43.5z" />
    <glyph glyph-name="percent.tab" horiz-adv-x="530" 
d="M390 322q49 0 79 -45.5t30 -115.5v-4q0 -71 -30 -117.5t-79 -46.5t-79 45.5t-30 116.5v4q0 71 30 117t79 46zM140 707q49 0 79 -45.5t30 -116.5v-4q0 -71 -30 -117t-79 -46t-79 45.5t-30 115.5v4q0 71 30 117.5t79 46.5zM390 286q-33 0 -51 -35.5t-18 -89.5v-7
q0 -53 18 -89t51 -36t50.5 35.5t17.5 89.5v7q0 54 -17.5 89.5t-50.5 35.5zM140 671q-33 0 -50.5 -35.5t-17.5 -89.5v-7q0 -54 17.5 -89.5t50.5 -35.5t50.5 35.5t17.5 89.5v7q0 54 -17.5 89.5t-50.5 35.5zM419 700h40l-180 -358l-169 -342h-39l179 357z" />
    <glyph glyph-name="quotedbl.tab" horiz-adv-x="530" 
d="M309 449l51 251h62l-1 -6l-85 -245h-27zM123 449l51 251h62l-1 -6l-85 -245h-27z" />
    <glyph glyph-name="quotesingle.tab" horiz-adv-x="265" 
d="M85 449l51 251h61v-6l-85 -245h-27z" />
    <glyph glyph-name="plus.tab" horiz-adv-x="530" 
d="M470 329h-182v-187h-47v187h-181v46h181v187h47v-187h182v-46z" />
    <glyph glyph-name="minus.tab" horiz-adv-x="530" 
d="M470 328h-410v48h410v-48z" />
    <glyph glyph-name="divide.tab" horiz-adv-x="530" 
d="M229 484v84h72v-84h-72zM470 328h-410v48h410v-48zM229 137v83h72v-83h-72z" />
    <glyph glyph-name="equal.tab" horiz-adv-x="530" 
d="M457 427h-384v47h384v-47zM457 230h-384v47h384v-47z" />
    <glyph glyph-name="multiply.tab" horiz-adv-x="530" 
d="M419 161l-155 159l-154 -159l-34 31l158 159l-158 159l35 33l154 -159l155 159l33 -31l-158 -159l158 -159z" />
    <glyph glyph-name="less.tab" horiz-adv-x="530" 
d="M444 121l-382 212v38l382 212v-51l-330 -179l330 -181v-51z" />
    <glyph glyph-name="greater.tab" horiz-adv-x="530" 
d="M468 333l-383 -212v51l331 179l-331 181v51l383 -212v-38z" />
    <glyph glyph-name="plusminus.tab" horiz-adv-x="530" 
d="M470 350h-182v-179h-47v179h-181v46h181v180h47v-180h182v-46zM470 28h-410v46h410v-46z" />
    <glyph glyph-name="space.tab" horiz-adv-x="265" 
 />
    <glyph glyph-name="NUL" horiz-adv-x="0" 
 />
    <glyph glyph-name="hfjslug" horiz-adv-x="694" 
d="M644 -200h-208l-8 14h-163l-8 -14h-207v303q14 0 23 9.5t9 22.5t-9.5 22.5t-22.5 9.5v554h100l30 79h334l29 -79h101v-921zM400 563v-172h15v78h38v14h-38v66h43v14h-58zM184 563v-172h15v79h47v-79h15v172h-15v-79h-47v79h-15zM460 394q10 -4 21 -4q31 0 31 36v137h-16
v-137q0 -22 -16 -22q-8 0 -20 5v-15zM371 465l-13 3q-4 -18 -8 -30h-1l-16 31q23 21 23 42q0 31 -27 31q-12 0 -20 -9t-8 -22t14 -39q-23 -18 -23 -47q0 -16 8 -26.5t21 -10.5q19 0 29 24h1l12 -24l12 6l-17 32q6 14 13 39zM523 323v-46h8v12l8 8l15 -20h10l-20 26l18 20
h-10l-20 -24h-1v24h-8zM488 292l10 -15h9l-12 17q10 4 10 14q0 15 -17 15h-20v-46h8v15h12zM426 276q10 0 17 7t7 17q0 9 -7 16.5t-17 7.5t-17 -7.5t-7 -16.5q0 -10 7 -17t17 -7zM370 301l-13 22h-9l18 -29v-17h8v17l18 29h-9zM193 323v-46h34v7h-26v13h23v7h-23v12h26v7
h-34zM132 323v-46h8v32l25 -32h7v46h-8v-32l-25 32h-7zM241 323l14 -47h8l11 34h1l11 -34h8l14 47h-8l-10 -35h-1l-11 35h-7l-11 -35h-1l-10 35h-8zM327 479q-12 22 -12 32q0 19 14 19q13 0 13 -19q0 -15 -15 -32zM342 423q-8 -21 -20 -21q-16 0 -16 25q0 19 16 35zM487 299
h-11v17h11q10 0 10 -8q0 -9 -10 -9zM426 283q-16 0 -16 17q0 6 4.5 11.5t11.5 5.5t11.5 -5.5t4.5 -11.5q0 -17 -16 -17z" />
    <glyph glyph-name="i.dot" horiz-adv-x="219" 
d="M82 641v68h56v-68h-56zM86 0v515h47v-515h-47z" />
    <glyph glyph-name="zero.num" 
d="M176 318q-58 0 -91.5 52t-33.5 141v3q0 89 33.5 141.5t92.5 52.5q58 0 91.5 -52t33.5 -140v-4q0 -88 -34 -141t-92 -53zM176 674q-41 0 -64 -43.5t-23 -115.5v-3q0 -72 23.5 -115.5t64.5 -43.5t64 43t23 115v4q0 72 -23.5 115.5t-64.5 43.5z" />
    <glyph glyph-name="one.num" horiz-adv-x="287" 
d="M181 326h-38v338l-83 -35l-7 35l95 41h33v-379z" />
    <glyph glyph-name="one.num_alt" 
d="M308 326h-242v34h106v305l-96 -38l-7 36l108 43h33v-346h98v-34z" />
    <glyph glyph-name="two.num" 
d="M51 326v30l138 140q35 34 50 58.5t15 51.5q0 30 -21 48.5t-52 18.5q-55 0 -98 -61l-27 21q53 75 128 75q47 0 78 -29t31 -72q0 -36 -17 -63t-59 -69l-113 -113h193v-36h-246z" />
    <glyph glyph-name="three.num" 
d="M170 318q-76 0 -126 61l26 25q44 -52 102 -52q34 0 58 21.5t24 56.5q0 36 -29.5 56.5t-79.5 20.5h-20l-5 24l120 133h-179v36h227v-30l-117 -131q55 -6 88 -33.5t33 -76.5q0 -48 -36 -79.5t-86 -31.5z" />
    <glyph glyph-name="four.num" 
d="M263 410v-85h-36v85h-173l-8 30l173 265h44v-262h49v-33h-49zM227 443v210h-1l-138 -210h139z" />
    <glyph glyph-name="five.num" 
d="M171 318q-69 0 -122 56l25 27q46 -49 98 -49q41 0 64.5 25t23.5 62q0 38 -24.5 59t-63.5 21q-35 0 -77 -20l-26 14l12 187h201v-38h-168l-9 -123q33 15 71 15q53 0 88 -31t35 -82q0 -54 -36.5 -88.5t-91.5 -34.5z" />
    <glyph glyph-name="six.num" 
d="M175 319q-51 0 -82 31q-43 45 -43 144v6q0 96 39 152t102 56q53 0 94 -38l-22 -28q-36 32 -73 32q-44 0 -73 -43.5t-30 -116.5q34 50 95 50q48 0 81 -32.5t33 -87.5q0 -54 -35 -89.5t-86 -35.5zM175 353q38 0 61 25t23 65q0 41 -22 64t-59 23q-36 0 -60.5 -24t-24.5 -63
q0 -40 23.5 -65t58.5 -25z" />
    <glyph glyph-name="seven.num" 
d="M139 325h-43l159 337h-196v38h238v-29z" />
    <glyph glyph-name="eight.num" 
d="M177 318q-56 0 -91 30t-35 78q0 66 68 93q-58 29 -58 87q0 45 34.5 73.5t82.5 28.5q47 0 81 -28.5t34 -73.5q0 -59 -58 -87q31 -11 49.5 -36t18.5 -56q0 -49 -35 -79t-91 -30zM177 674q-35 0 -57 -19t-22 -49t22.5 -50.5t56.5 -20.5t56.5 20.5t22.5 50.5t-22 49t-57 19z
M177 502q-40 0 -65 -22t-25 -55q0 -32 25 -52.5t65 -20.5q41 0 65.5 20.5t24.5 52.5q0 33 -25 55t-65 22z" />
    <glyph glyph-name="nine.num" 
d="M179 708q49 0 81 -32q43 -43 43 -144v-6q0 -98 -39 -153t-101 -55q-56 0 -99 40l22 29q37 -34 78 -34q43 0 72.5 42t30.5 113q-34 -49 -95 -49q-49 0 -81.5 32.5t-32.5 88.5q0 55 34.5 91.5t86.5 36.5zM176 493q36 0 60.5 24t24.5 65q0 40 -23.5 66t-58.5 26
q-38 0 -61 -25.5t-23 -67.5q0 -41 22 -64.5t59 -23.5z" />
    <glyph glyph-name="zero.den" 
d="M176 -8q-58 0 -91.5 52t-33.5 140v4q0 89 33.5 141.5t92.5 52.5q58 0 91.5 -52t33.5 -141v-3q0 -88 -34 -141t-92 -53zM176 347q-41 0 -64 -43t-23 -115v-4q0 -72 23.5 -115.5t64.5 -43.5t64 43.5t23 115.5v3q0 72 -23.5 115.5t-64.5 43.5z" />
    <glyph glyph-name="one.den" horiz-adv-x="287" 
d="M181 0h-38v337l-83 -35l-7 36l95 40h33v-378z" />
    <glyph glyph-name="one.den_alt" 
d="M308 0h-242v34h106v304l-96 -38l-7 36l108 43h33v-345h98v-34z" />
    <glyph glyph-name="two.den" 
d="M51 0v30l138 140q35 34 50 58.5t15 50.5q0 30 -21 49t-52 19q-55 0 -98 -61l-27 21q53 75 128 75q47 0 78 -29t31 -72q0 -36 -17.5 -63.5t-58.5 -68.5l-113 -113h193v-36h-246z" />
    <glyph glyph-name="three.den" 
d="M170 -8q-76 0 -126 61l26 25q42 -52 102 -52q34 0 58 21.5t24 56.5q0 36 -29.5 56t-79.5 21h-20l-5 23l120 134h-179v36h227v-30l-117 -131q55 -6 88 -33.5t33 -76.5q0 -48 -36 -79.5t-86 -31.5z" />
    <glyph glyph-name="four.den" 
d="M263 84v-86h-36v86h-173l-8 29l173 265h44v-262h49v-32h-49zM227 116v211h-1l-138 -211h139z" />
    <glyph glyph-name="five.den" 
d="M171 -8q-71 0 -122 56l25 27q46 -49 98 -49q41 0 64.5 25t23.5 62q0 38 -24.5 58.5t-63.5 20.5q-37 0 -77 -19l-26 14l12 187h201v-38h-168l-9 -123q35 14 71 14q53 0 88 -30.5t35 -81.5q0 -54 -36.5 -88.5t-91.5 -34.5z" />
    <glyph glyph-name="six.den" 
d="M175 -8q-50 0 -82 32q-43 43 -43 144v6q0 96 39 152t102 56q53 0 94 -38l-22 -29q-34 32 -73 32q-44 0 -73 -43t-30 -116q34 49 95 49q48 0 81 -32t33 -87q0 -54 -35 -90t-86 -36zM175 26q37 0 60.5 25t23.5 66t-22 63.5t-59 22.5q-36 0 -60.5 -23.5t-24.5 -62.5
q0 -40 23.5 -65.5t58.5 -25.5z" />
    <glyph glyph-name="seven.den" 
d="M139 -2h-43l159 338h-196v38h238v-29z" />
    <glyph glyph-name="eight.den" 
d="M177 -8q-56 0 -91 29.5t-35 77.5q0 64 68 94q-57 27 -57 87q0 45 34.5 73.5t81.5 28.5t81 -28.5t34 -73.5q0 -59 -58 -87q31 -12 49.5 -36.5t18.5 -55.5q0 -49 -35 -79t-91 -30zM177 348q-34 0 -56 -19t-22 -49q0 -31 22 -51.5t56 -20.5t56.5 20.5t22.5 51.5q0 30 -22 49
t-57 19zM177 176q-39 0 -64 -22t-25 -55q0 -32 24.5 -52.5t64.5 -20.5q41 0 65.5 20.5t24.5 52.5q0 33 -25 55t-65 22z" />
    <glyph glyph-name="nine.den" 
d="M179 381q50 0 81 -31q43 -43 43 -144v-6q0 -98 -39 -153t-101 -55q-56 0 -99 40l22 28q39 -34 78 -34q43 0 72.5 42.5t30.5 113.5q-34 -50 -95 -50q-48 0 -81 33t-33 89q0 55 34.5 91t86.5 36zM176 166q36 0 60.5 24.5t24.5 65.5q0 40 -23 65.5t-59 25.5q-38 0 -61 -25
t-23 -67q0 -41 22 -65t59 -24z" />
    <glyph glyph-name="caron.alt" horiz-adv-x="500" 
d="M207 574l14 149h53v-3l-41 -146h-26z" />
    <glyph glyph-name="acute.cap" horiz-adv-x="500" 
d="M191 757l83 114l55 -26l-98 -88h-40z" />
    <glyph glyph-name="hungarumlaut.cap" horiz-adv-x="500" 
d="M118 757l83 114l55 -26l-97 -88h-41zM242 757l84 114l55 -26l-98 -88h-41z" />
    <glyph glyph-name="grave.cap" horiz-adv-x="500" 
d="M309 757h-40l-98 88l55 26z" />
    <glyph glyph-name="circumflex.cap" horiz-adv-x="500" 
d="M134 759l94 104h44l94 -104h-51l-66 60l-66 -60h-49z" />
    <glyph glyph-name="caron.cap" horiz-adv-x="500" 
d="M366 863l-94 -104h-44l-94 104h51l66 -60l66 60h49z" />
    <glyph glyph-name="breve.cap" horiz-adv-x="500" 
d="M250 757q-50 0 -83.5 24.5t-37.5 68.5h42q16 -47 79 -47t79 47h42q-4 -44 -37.5 -68.5t-83.5 -24.5z" />
    <glyph glyph-name="tilde.cap" horiz-adv-x="500" 
d="M309 758q-22 0 -64 21q-36 17 -50 17q-15 0 -24.5 -9.5t-19.5 -33.5l-35 9q25 81 74 81q24 0 64 -21q38 -17 50 -17q15 0 24.5 9.5t19.5 32.5l35 -9q-24 -80 -74 -80z" />
    <glyph glyph-name="macron.cap" horiz-adv-x="500" 
d="M113 779v46h274v-46h-274z" />
    <glyph glyph-name="dieresis.cap" horiz-adv-x="500" 
d="M293 760v73h66v-73h-66zM140 760v73h67v-73h-67z" />
    <glyph glyph-name="dotaccent.cap" horiz-adv-x="500" 
d="M216 760v73h68v-73h-68z" />
    <glyph glyph-name="ring.cap" horiz-adv-x="500" 
d="M250 756q-41 0 -69.5 26t-28.5 63t29 62.5t69 25.5q41 0 69.5 -25.5t28.5 -62.5t-29 -63t-69 -26zM250 787q26 0 44 16.5t18 41.5t-18 41.5t-44 16.5t-44 -16.5t-18 -41.5t18 -41.5t44 -16.5z" />
    </font>
</defs>
</svg>
