<?xml version="1.0" standalone="no"?>
<!DOCTYPE svg PUBLIC "-//W3C//DTD SVG 1.1//EN" "http://www.w3.org/Graphics/SVG/1.1/DTD/svg11.dtd" >
<svg xmlns="http://www.w3.org/2000/svg" xmlns:xlink="http://www.w3.org/1999/xlink" version="1.1">
<metadata>
Created by FontForge 20161003 at Mon Jul 17 05:44:58 2017
 By www-data
Copyright (C) 2005, 2008 Hoefler &#38; Frere-Jones. http://www.typography.com
</metadata>
<defs>
<font id="GothamNarrowBookItalic" horiz-adv-x="353" >
  <font-face 
    font-family="GothamNarrowBookItalic"
    font-weight="325"
    font-style="italic"
    font-stretch="condensed"
    units-per-em="1000"
    panose-1="0 0 0 0 0 0 0 0 0 0"
    ascent="800"
    descent="-200"
    x-height="522"
    cap-height="700"
    bbox="-277 -231 1042 972"
    underline-thickness="50"
    underline-position="-150"
    slope="-14"
    unicode-range="U+0020-FB04"
  />
<missing-glyph horiz-adv-x="500" 
d="M0 -200v1000h500v-1000h-500zM50 -76l172 376l-172 376v-752zM71 -150h358l-179 390zM250 360l179 390h-358zM450 -76v752l-172 -376z" />
    <glyph glyph-name="f_f" unicode="ff" horiz-adv-x="652" 
d="M35 0l111 456h-64l17 66h63l14 55q19 75 55 109q41 39 106 39q47 0 84 -17l-17 -64q-34 15 -66 15q-67 0 -89 -88l-12 -49h137l-18 -66h-135l-111 -456h-75zM361 0l111 456h-64l17 66h63l14 55q19 75 55 109q41 39 106 39q47 0 84 -17l-17 -64q-34 15 -66 15
q-67 0 -89 -88l-12 -49h137l-18 -66h-135l-111 -456h-75z" />
    <glyph glyph-name="fi" unicode="fi" horiz-adv-x="560" 
d="M35 0l111 456h-64l17 66h63l14 55q19 75 55 109q41 39 106 39q47 0 84 -17l-17 -64q-34 15 -66 15q-67 0 -89 -88l-12 -49h137l-18 -66h-135l-111 -456h-75zM341 0l128 522h74l-127 -522h-75zM490 628l22 86h83l-22 -86h-83z" />
    <glyph glyph-name="fl" unicode="fl" horiz-adv-x="560" 
d="M35 0l111 456h-64l17 66h63l14 55q19 75 55 109q41 39 106 39q47 0 84 -17l-17 -64q-34 15 -66 15q-67 0 -89 -88l-12 -49h137l-18 -66h-135l-111 -456h-75zM341 0l177 722h74l-176 -722h-75z" />
    <glyph glyph-name="f_f_i" unicode="ffi" horiz-adv-x="886" 
d="M35 0l111 456h-64l17 66h63l14 55q19 75 55 109q41 39 106 39q47 0 84 -17l-17 -64q-34 15 -66 15q-67 0 -89 -88l-12 -49h137l-18 -66h-135l-111 -456h-75zM361 0l111 456h-64l17 66h63l14 55q19 75 55 109q41 39 106 39q47 0 84 -17l-17 -64q-34 15 -66 15
q-67 0 -89 -88l-12 -49h137l-18 -66h-135l-111 -456h-75zM668 0l128 522h74l-127 -522h-75zM817 628l22 86h83l-22 -86h-83z" />
    <glyph glyph-name="f_f_l" unicode="ffl" horiz-adv-x="886" 
d="M35 0l111 456h-64l17 66h63l14 55q19 75 55 109q41 39 106 39q47 0 84 -17l-17 -64q-34 15 -66 15q-67 0 -89 -88l-12 -49h137l-18 -66h-135l-111 -456h-75zM361 0l111 456h-64l17 66h63l14 55q19 75 55 109q41 39 106 39q47 0 84 -17l-17 -64q-34 15 -66 15
q-67 0 -89 -88l-12 -49h137l-18 -66h-135l-111 -456h-75zM668 0l177 722h74l-176 -722h-75z" />
    <glyph glyph-name=".notdef" horiz-adv-x="500" 
d="M0 -200v1000h500v-1000h-500zM50 -76l172 376l-172 376v-752zM71 -150h358l-179 390zM250 360l179 390h-358zM450 -76v752l-172 -376z" />
    <glyph glyph-name=".null" horiz-adv-x="0" 
 />
    <glyph glyph-name="nonmarkingreturn" horiz-adv-x="333" 
 />
    <glyph glyph-name="space" unicode=" " horiz-adv-x="234" 
 />
    <glyph glyph-name="exclam" unicode="!" horiz-adv-x="253" 
d="M90 198l86 446l14 56h88l-13 -56l-133 -446h-42zM18 0l25 104h90l-25 -104h-90z" />
    <glyph glyph-name="quotedbl" unicode="&#x22;" horiz-adv-x="387" 
d="M94 432l76 268h88l-1 -6l-123 -262h-40zM268 432l76 268h88l-1 -6l-123 -262h-40z" />
    <glyph glyph-name="numbersign" unicode="#" horiz-adv-x="593" 
d="M64 0l53 176h-95l15 67h100l65 216h-103l17 67h106l53 174h68l-53 -174h160l53 174h67l-52 -174h95l-16 -67h-100l-66 -216h105l-16 -67h-108l-53 -176h-68l54 176h-161l-53 -176h-67zM204 243h161l65 216h-161z" />
    <glyph glyph-name="dollar" unicode="$" horiz-adv-x="538" 
d="M370 761h59l-18 -69q84 -20 149 -83l-53 -53q-52 52 -116 70l-62 -243q75 -39 110.5 -81.5t35.5 -99.5q0 -89 -65 -146.5t-168 -57.5h-10l-25 -96h-60l27 102q-114 23 -183 108l56 49q60 -72 148 -90l65 259q-78 39 -112.5 80.5t-34.5 98.5q0 82 62.5 137t159.5 55
q12 0 18 -1zM397 196q0 33 -19.5 58.5t-68.5 52.5l-61 -241h2q68 0 107.5 37.5t39.5 92.5zM191 517q0 -32 20 -57.5t69 -53.5l58 228h-9q-62 0 -100 -34t-38 -83z" />
    <glyph glyph-name="percent" unicode="%" horiz-adv-x="736" 
d="M51 0l320 364l289 336h68l-318 -364l-289 -336h-70zM210 354q-56 0 -90.5 39.5t-34.5 103.5q0 100 63 163q47 47 108 47q56 0 91.5 -39.5t35.5 -103.5q0 -97 -64 -163q-47 -47 -109 -47zM215 408q32 0 61 27q47 49 47 127q0 43 -19 67t-51 24q-34 0 -61 -27
q-48 -48 -48 -126q0 -44 18.5 -68t52.5 -24zM523 -7q-56 0 -90.5 39.5t-34.5 103.5q0 98 62 163q49 47 109 47q56 0 91 -39.5t35 -103.5q0 -100 -63 -163q-47 -47 -109 -47zM528 47q32 0 61 27q47 49 47 126q0 43 -19 67.5t-52 24.5t-60 -27q-48 -48 -48 -127
q0 -43 18.5 -67t52.5 -24z" />
    <glyph glyph-name="ampersand" unicode="&#x26;" horiz-adv-x="606" 
d="M517 335l54 -32q-54 -101 -106 -165l71 -115l-59 -35l-61 99q-96 -96 -208 -96q-82 0 -133.5 47.5t-51.5 124.5q0 161 204 235q-41 82 -41 140q0 72 50 122.5t126 50.5q70 0 112 -41t42 -102q0 -129 -194 -197l107 -180q49 65 88 144zM216 57q84 0 167 81l-126 210
q-159 -58 -159 -177q0 -51 31.5 -82.5t86.5 -31.5zM257 538q0 -52 36 -118q152 49 152 143q0 38 -23.5 61.5t-64.5 23.5q-43 0 -71.5 -32.5t-28.5 -77.5z" />
    <glyph glyph-name="quotesingle" unicode="'" horiz-adv-x="210" 
d="M94 432l76 268h88l-1 -6l-123 -262h-40z" />
    <glyph glyph-name="parenleft" unicode="(" horiz-adv-x="374" 
d="M222 -139q-156 147 -156 343q0 223 156 379q83 83 202 132l25 -53q-100 -49 -167 -114q-70 -71 -105 -160t-35 -183q0 -165 125 -300z" />
    <glyph glyph-name="parenright" unicode=")" horiz-adv-x="374" 
d="M164 717q156 -147 156 -343q0 -223 -156 -379q-83 -83 -202 -132l-25 53q100 49 167 114q70 71 105 160t35 183q0 165 -125 300z" />
    <glyph glyph-name="asterisk" unicode="*" horiz-adv-x="383" 
d="M247 403l-49 12l39 116l-110 -44l-15 49l118 24l-94 77l37 37l77 -91l19 120l49 -12l-39 -115l110 44l15 -50l-118 -23l94 -77l-38 -37l-76 91z" />
    <glyph glyph-name="plus" unicode="+" horiz-adv-x="539" 
d="M204 139l44 178h-178l17 70h178l44 178h73l-46 -178h179l-18 -70h-178l-44 -178h-71z" />
    <glyph glyph-name="comma" unicode="," horiz-adv-x="230" 
d="M-38 -120l-9 35q80 22 90 85h-37l26 104h90l-22 -89q-15 -63 -46.5 -93t-91.5 -42z" />
    <glyph glyph-name="hyphen" unicode="-" horiz-adv-x="367" 
d="M56 262l19 76h254l-18 -76h-255z" />
    <glyph glyph-name="period" unicode="." horiz-adv-x="230" 
d="M6 0l26 104h90l-25 -104h-91z" />
    <glyph glyph-name="slash" unicode="/" horiz-adv-x="434" 
d="M-110 -119l604 908h74l-605 -908h-73z" />
    <glyph glyph-name="zero" unicode="0" horiz-adv-x="612" 
d="M384 711q98 0 153 -67.5t55 -183.5q0 -105 -38 -215.5t-104 -175.5q-78 -80 -180 -80q-97 0 -152 67t-55 183q0 106 38 216.5t103 175.5q78 80 180 80zM274 59q61 0 117 53q54 55 88 155.5t34 192.5q0 85 -35 133t-98 48q-61 0 -116 -53q-54 -55 -88.5 -156t-34.5 -192
q0 -85 34.5 -133t98.5 -48z" />
    <glyph glyph-name="one" unicode="1" horiz-adv-x="321" 
d="M79 0l150 616l-121 -39l1 71l161 56h58l-172 -704h-77z" />
    <glyph glyph-name="two" unicode="2" horiz-adv-x="516" 
d="M-23 0l15 59l329 298q60 56 86.5 97t26.5 84q0 46 -30.5 73.5t-83.5 27.5q-78 0 -158 -82l-50 50q94 103 212 103q85 0 137.5 -46.5t52.5 -119.5q0 -61 -33 -112t-105 -116l-271 -246h320l-18 -70h-430z" />
    <glyph glyph-name="three" unicode="3" horiz-adv-x="515" 
d="M203 -11q-138 0 -210 109l57 47q59 -86 158 -86q71 0 117.5 45t46.5 112q0 64 -46.5 93.5t-115.5 29.5h-22l-4 46l246 245h-293l19 70h396l-14 -56l-254 -251q75 -12 121 -56t46 -116q0 -95 -67 -161q-71 -71 -181 -71z" />
    <glyph glyph-name="four" unicode="4" horiz-adv-x="557" 
d="M296 0l40 163h-312l-5 60l449 482h73l-116 -478h91l-16 -64h-90l-40 -163h-74zM106 227h246l88 362z" />
    <glyph glyph-name="five" unicode="5" horiz-adv-x="520" 
d="M207 -11q-131 0 -208 103l55 50q65 -83 157 -83q79 0 128 54t49 127q0 61 -36.5 93t-96.5 32t-113 -28l-43 34l98 329h340l-19 -71h-271l-65 -216q46 19 93 19q87 0 140 -49.5t53 -137.5q0 -107 -72 -181q-78 -75 -189 -75z" />
    <glyph glyph-name="six" unicode="6" horiz-adv-x="553" 
d="M266 -11q-89 0 -141 54q-63 63 -63 183q0 103 38 218.5t105 182.5q84 84 192 84q102 0 174 -74l-48 -56q-57 59 -132 59q-72 0 -133 -59q-38 -39 -66.5 -100t-39.5 -129q28 40 72.5 64t96.5 24q86 0 137 -52t51 -136q0 -117 -77 -194q-69 -69 -166 -69zM269 56
q61 0 107 44q55 54 55 145q0 57 -33.5 93t-94.5 36q-67 0 -111 -46q-53 -53 -53 -133q0 -67 37 -104q35 -35 93 -35z" />
    <glyph glyph-name="seven" unicode="7" horiz-adv-x="504" 
d="M41 0l407 630h-321l18 70h408l-16 -59l-409 -641h-87z" />
    <glyph glyph-name="eight" unicode="8" horiz-adv-x="551" 
d="M248 -10q-96 0 -157 51t-62 129q-1 79 48.5 132.5t128.5 70.5q-84 43 -84 139q0 80 62.5 139t159.5 59q88 0 143.5 -47.5t55.5 -125.5q0 -70 -42.5 -119.5t-109.5 -67.5q45 -22 73 -61.5t28 -91.5q0 -85 -68.5 -146t-175.5 -61zM252 56q71 0 116.5 42t46.5 103
q0 55 -40 90t-107 35q-72 0 -117.5 -44t-45.5 -103q-1 -56 40 -89.5t107 -33.5zM320 390q67 0 108 42.5t41 97.5q0 50 -34.5 82t-93.5 32q-64 0 -104.5 -41t-40.5 -97q0 -49 34 -82.5t90 -33.5z" />
    <glyph glyph-name="nine" unicode="9" horiz-adv-x="553" 
d="M201 -11q-105 0 -183 80l47 56q63 -65 142 -65q71 0 132 59q38 38 65.5 97.5t38.5 124.5q-65 -89 -169 -89q-85 0 -136 52.5t-52 139.5q0 121 79 198q71 69 166 69q88 0 141 -55q63 -63 63 -186q0 -102 -38.5 -216t-105.5 -181q-84 -84 -190 -84zM293 318q64 0 110 46
q54 54 54 140q0 69 -36 105q-37 35 -93 35q-61 0 -107 -44q-56 -56 -56 -149q-1 -61 32.5 -97t95.5 -36z" />
    <glyph glyph-name="colon" unicode=":" horiz-adv-x="237" 
d="M10 0l26 104h90l-25 -104h-91zM111 418l27 104h90l-26 -104h-91z" />
    <glyph glyph-name="semicolon" unicode=";" horiz-adv-x="237" 
d="M-34 -120l-9 35q79 22 89 85h-36l26 104h90l-22 -89q-15 -63 -46.5 -93t-91.5 -42zM111 418l27 104h90l-26 -104h-91z" />
    <glyph glyph-name="less" unicode="&#x3c;" horiz-adv-x="539" 
d="M424 114l-353 205l17 66l454 206l-20 -82l-365 -162l284 -162z" />
    <glyph glyph-name="equal" unicode="=" horiz-adv-x="539" 
d="M55 213l19 71h404l-18 -71h-405zM108 420l17 71h405l-19 -71h-403z" />
    <glyph glyph-name="greater" unicode="&#x3e;" horiz-adv-x="539" 
d="M40 113l21 82l364 162l-284 162l18 71l353 -205l-17 -66z" />
    <glyph glyph-name="question" unicode="?" horiz-adv-x="466" 
d="M158 198l27 168l6 6q98 11 154 54t56 108q0 49 -32 76t-81 27q-76 0 -151 -64l-41 55q91 80 198 80q85 0 135.5 -47.5t50.5 -120.5q0 -88 -64 -145t-170 -77l-38 -120h-50zM92 0l25 104h90l-25 -104h-90z" />
    <glyph glyph-name="at" unicode="@" horiz-adv-x="874" 
d="M415 -151q-163 0 -263 96t-100 263q0 96 35 188t94.5 161.5t143.5 112t177 42.5q159 0 251 -93.5t92 -234.5q0 -134 -63.5 -223.5t-142.5 -89.5q-48 0 -75.5 26.5t-33.5 69.5q-72 -98 -161 -98q-59 0 -96.5 40t-37.5 110q0 110 70.5 198.5t158.5 88.5q93 0 122 -95l25 83
l62 -16l-73 -245q-11 -34 -11 -60q0 -30 16 -47t46 -17q57 0 108 81t51 194q0 128 -82.5 211.5t-226.5 83.5q-114 0 -210.5 -68t-150.5 -176t-54 -227q0 -152 91.5 -239t237.5 -87q100 0 190 46l15 -30q-105 -49 -205 -49zM390 128q62 0 117 66.5t55 144.5q0 48 -25 77.5
t-69 29.5q-62 0 -111.5 -69.5t-49.5 -149.5q0 -47 22 -73t61 -26z" />
    <glyph glyph-name="A" unicode="A" horiz-adv-x="654" 
d="M-36 0l438 705h76l93 -705h-78l-22 185h-311l-113 -185h-83zM204 254h257l-42 357z" />
    <glyph glyph-name="B" unicode="B" horiz-adv-x="611" 
d="M21 0l171 700h207q96 0 149.5 -43t53.5 -117q0 -75 -47.5 -123t-120.5 -64q116 -37 116 -143q0 -98 -78 -154t-203 -56h-248zM114 69h164q91 0 143 38t52 106q0 50 -39.5 78t-107.5 28h-152zM191 387h138q89 0 142 39t53 104q0 49 -34.5 75t-96.5 26h-144z" />
    <glyph glyph-name="C" unicode="C" horiz-adv-x="609" 
d="M324 -11q-112 0 -183 74t-71 201q0 95 35.5 189t98.5 157q100 100 229 100q139 0 213 -118l-62 -47q-60 94 -156 94q-91 0 -165 -74q-51 -51 -82 -132.5t-31 -166.5q0 -94 48 -149.5t128 -55.5q85 0 165 72l46 -52q-97 -92 -213 -92z" />
    <glyph glyph-name="D" unicode="D" horiz-adv-x="659" 
d="M21 0l171 700h141q146 0 227 -79q72 -71 72 -203q0 -82 -30 -163.5t-89 -140.5q-114 -114 -303 -114h-189zM498 571q-58 58 -170 58h-77l-136 -558h106q142 0 235 91q47 47 72 115.5t25 136.5q0 102 -55 157z" />
    <glyph glyph-name="E" unicode="E" horiz-adv-x="554" 
d="M21 0l171 700h423l-18 -70h-346l-59 -242h310l-18 -70h-309l-60 -248h351l-18 -70h-427z" />
    <glyph glyph-name="F" unicode="F" horiz-adv-x="551" 
d="M21 0l171 700h422l-17 -71h-346l-61 -252h310l-19 -70h-308l-75 -307h-77z" />
    <glyph glyph-name="G" unicode="G" horiz-adv-x="664" 
d="M338 -11q-115 0 -191.5 76.5t-76.5 205.5q0 92 35.5 181t98.5 151q105 107 249 107q135 0 216 -99l-57 -51q-64 80 -166 80q-105 0 -186 -83q-51 -51 -80.5 -128.5t-29.5 -155.5q0 -99 53 -156.5t140 -57.5q76 0 134 36l51 209h-172l18 69h246l-82 -326q-96 -58 -200 -58
z" />
    <glyph glyph-name="H" unicode="H" horiz-adv-x="652" 
d="M21 0l171 700h77l-76 -312h330l75 312h78l-171 -700h-78l77 316h-329l-77 -316h-77z" />
    <glyph glyph-name="I" unicode="I" horiz-adv-x="259" 
d="M28 0l171 700h77l-171 -700h-77z" />
    <glyph glyph-name="J" unicode="J" horiz-adv-x="459" 
d="M155 -9q-126 0 -175 119l61 40q36 -87 113 -87q51 0 86 35t57 121l116 481h78l-120 -498q-25 -103 -77 -156q-55 -55 -139 -55z" />
    <glyph glyph-name="K" unicode="K" horiz-adv-x="612" 
d="M21 0l171 700h77l-99 -402l418 402h101l-326 -308l168 -392h-85l-143 338l-160 -151l-45 -187h-77z" />
    <glyph glyph-name="L" unicode="L" horiz-adv-x="510" 
d="M21 0l171 700h77l-153 -629h322l-18 -71h-399z" />
    <glyph glyph-name="M" unicode="M" horiz-adv-x="749" 
d="M21 0l171 700h75l118 -378l300 378h87l-171 -700h-77l137 566l-303 -377h-4l-120 376l-138 -565h-75z" />
    <glyph glyph-name="N" unicode="N" horiz-adv-x="674" 
d="M21 0l171 700h72l222 -563l137 563h75l-171 -700h-63l-228 577l-140 -577h-75z" />
    <glyph glyph-name="O" unicode="O" horiz-adv-x="707" 
d="M429 711q114 0 182.5 -77t68.5 -200q0 -94 -36 -190.5t-98 -159.5q-98 -96 -224 -96q-114 0 -182.5 77.5t-68.5 200.5q0 94 36 190.5t99 158.5q96 96 223 96zM328 60q89 0 159 70q52 52 83 136.5t31 163.5q0 95 -48 152.5t-130 57.5q-90 0 -159 -72q-52 -52 -83 -136
t-31 -163q0 -94 48 -151.5t130 -57.5z" />
    <glyph glyph-name="P" unicode="P" horiz-adv-x="576" 
d="M21 0l171 700h170q124 0 184 -59q50 -52 50 -132q0 -106 -70 -176q-85 -85 -249 -85h-119l-60 -248h-77zM484 591q-38 38 -126 38h-107l-76 -314h106q125 0 187 62q48 48 48 129q0 53 -32 85z" />
    <glyph glyph-name="Q" unicode="Q" horiz-adv-x="707" 
d="M429 711q114 0 182.5 -77t68.5 -200q0 -92 -34 -185.5t-94 -157.5l60 -75l-61 -44l-53 73q-82 -57 -176 -57q-114 0 -182.5 77.5t-68.5 200.5q0 94 36 190.5t99 158.5q96 96 223 96zM328 60q72 0 128 41l-91 117l61 45l80 -112q44 53 69.5 130.5t25.5 148.5
q0 95 -48 152.5t-130 57.5q-90 0 -159 -71q-52 -52 -83 -136.5t-31 -163.5q0 -94 48 -151.5t130 -57.5z" />
    <glyph glyph-name="R" unicode="R" horiz-adv-x="616" 
d="M427 0l-114 270h-24h-126l-65 -270h-77l171 700h198q118 0 179 -59q46 -49 46 -124q0 -97 -63 -162q-55 -55 -160 -76l121 -279h-86zM181 338h134q118 0 176 58q46 48 46 116q0 50 -30 79q-37 38 -123 38h-132z" />
    <glyph glyph-name="S" unicode="S" horiz-adv-x="541" 
d="M250 -10q-153 0 -246 125l60 49q82 -105 190 -105q59 0 100 35.5t41 86.5q0 37 -26 68t-90 71q-83 53 -118 96.5t-35 99.5q0 74 52 128q66 66 165 66q128 0 216 -103l-55 -53q-74 87 -164 87q-60 0 -97 -34.5t-37 -80.5q0 -37 26.5 -67.5t95.5 -73.5q77 -48 112 -92.5
t35 -101.5q0 -79 -57 -136q-65 -65 -168 -65z" />
    <glyph glyph-name="T" unicode="T" horiz-adv-x="518" 
d="M155 0l153 629h-196l19 71h469l-19 -71h-196l-153 -629h-77z" />
    <glyph glyph-name="U" unicode="U" horiz-adv-x="651" 
d="M291 -11q-104 0 -161.5 54t-57.5 145q0 48 15 105l97 407h78l-103 -425q-10 -42 -10 -79q0 -62 38.5 -99t110.5 -37q73 0 124 51q55 55 78 153l106 436h76l-108 -449q-32 -124 -96 -188q-74 -74 -187 -74z" />
    <glyph glyph-name="V" unicode="V" horiz-adv-x="618" 
d="M205 -5l-78 705h81l57 -595l346 595h87l-423 -705h-70z" />
    <glyph glyph-name="W" unicode="W" horiz-adv-x="941" 
d="M171 -5l-37 705h78l23 -579l303 581h65l25 -581l302 579h86l-382 -705h-68l-26 566l-301 -566h-68z" />
    <glyph glyph-name="X" unicode="X" horiz-adv-x="591" 
d="M-32 0l308 365l-137 335h84l108 -280l231 280h96l-295 -346l144 -354h-83l-117 300l-244 -300h-95z" />
    <glyph glyph-name="Y" unicode="Y" horiz-adv-x="566" 
d="M177 0l70 288l-139 412h84l109 -344l275 344h95l-349 -422l-68 -278h-77z" />
    <glyph glyph-name="Z" unicode="Z" horiz-adv-x="566" 
d="M-18 0l12 52l508 580h-357l18 68h459l-11 -52l-510 -580h374l-17 -68h-476z" />
    <glyph glyph-name="bracketleft" unicode="[" horiz-adv-x="385" 
d="M6 -130l202 830h245l-14 -59h-175l-173 -712h174l-15 -59h-244z" />
    <glyph glyph-name="backslash" unicode="\" horiz-adv-x="434" 
d="M293 -119l-166 908h63l167 -908h-64z" />
    <glyph glyph-name="bracketright" unicode="]" horiz-adv-x="385" 
d="M389 700l-202 -830h-245l14 59h175l173 712h-174l15 59h244z" />
    <glyph glyph-name="asciicircum" unicode="^" horiz-adv-x="439" 
d="M113 505l175 192h57l82 -192h-58l-61 134l-126 -134h-69z" />
    <glyph glyph-name="underscore" unicode="_" horiz-adv-x="555" 
d="M-104 -160l15 61h559l-16 -61h-558z" />
    <glyph glyph-name="grave" unicode="`" horiz-adv-x="500" 
d="M353 589l-83 106l74 36l61 -142h-52z" />
    <glyph glyph-name="a" unicode="a" horiz-adv-x="501" 
d="M155 -10q-62 0 -102.5 38t-40.5 103q0 82 53 135q57 57 156 57q69 0 150 -27l3 15q8 37 8 59q0 92 -116 92q-59 0 -123 -27l-18 63q73 30 151 30q85 0 132 -38.5t47 -105.5q0 -31 -12 -84l-72 -300h-73l19 75q-70 -85 -162 -85zM180 47q57 0 104 42t62 104l13 53
q-64 23 -133 23q-64 0 -102 -38q-37 -35 -37 -93q0 -41 25 -66t68 -25z" />
    <glyph glyph-name="b" unicode="b" horiz-adv-x="566" 
d="M269 -10q-60 0 -100 33t-59 86l-26 -109h-74l176 722h75l-70 -285q76 95 167 95q74 0 121.5 -56t47.5 -151q0 -75 -27 -147t-75 -120q-70 -68 -156 -68zM262 55q59 0 107 46q37 38 58.5 96.5t21.5 121.5q0 68 -31 108t-85 40q-64 0 -117 -53q-36 -37 -58 -95t-22 -115
q0 -66 35 -107.5t91 -41.5z" />
    <glyph glyph-name="c" unicode="c" horiz-adv-x="468" 
d="M233 -10q-85 0 -140 56.5t-55 154.5q0 72 27 140.5t73 114.5q77 75 172 75q110 0 168 -93l-58 -44q-45 72 -113 72q-62 0 -112 -52q-36 -36 -58.5 -94.5t-22.5 -114.5q0 -72 35 -110.5t88 -38.5q58 0 116 51l41 -49q-72 -68 -161 -68z" />
    <glyph glyph-name="d" unicode="d" horiz-adv-x="566" 
d="M356 0l21 84q-78 -94 -167 -94q-74 0 -121.5 56t-47.5 151q0 76 27 148t74 119q70 68 156 68q60 0 100 -33t59 -86l75 309h75l-177 -722h-74zM234 55q63 0 117 54q36 36 58.5 94t22.5 115q0 65 -35.5 107t-90.5 42q-61 0 -108 -47q-37 -37 -58.5 -95.5t-21.5 -120.5
q0 -69 31 -109t85 -40z" />
    <glyph glyph-name="e" unicode="e" horiz-adv-x="510" 
d="M459 234h-346q-1 -10 -1 -29q0 -70 35 -110.5t95 -40.5q65 0 132 50l35 -52q-80 -62 -169 -62q-91 0 -146 58t-55 156q0 71 27 139.5t74 115.5q73 73 167 73q79 0 125 -52t46 -135q0 -53 -19 -111zM192 420q-48 -48 -69 -130h276q7 24 7 56q0 54 -26.5 88.5t-77.5 34.5
q-58 0 -110 -49z" />
    <glyph glyph-name="f" unicode="f" horiz-adv-x="326" 
d="M35 0l111 456h-64l17 66h63l14 55q19 75 55 109q41 39 106 39q47 0 84 -17l-17 -64q-34 15 -66 15q-67 0 -89 -88l-12 -49h137l-18 -66h-135l-111 -456h-75z" />
    <glyph glyph-name="g" unicode="g" horiz-adv-x="566" 
d="M200 -152q-122 0 -214 73l40 55q78 -64 173 -64q77 0 118 44q37 37 54 108l16 64q-77 -91 -170 -91q-73 0 -122.5 50t-49.5 137q0 65 25.5 129t69.5 108q71 71 160 71q113 0 156 -118l27 108h74l-111 -461q-25 -101 -74 -150q-64 -63 -172 -63zM240 100q68 0 121 53
q70 72 70 176q0 58 -34.5 98t-90.5 40q-63 0 -112 -49q-33 -33 -52.5 -84.5t-19.5 -102.5q0 -62 33.5 -96.5t84.5 -34.5z" />
    <glyph glyph-name="h" unicode="h" horiz-adv-x="534" 
d="M10 0l176 722h75l-68 -278q70 88 157 88q63 0 101 -38t38 -104q0 -32 -13 -87l-72 -303h-75l74 306q9 40 9 68q0 43 -25 67t-69 24q-52 0 -96.5 -43t-61.5 -108l-76 -314h-74z" />
    <glyph glyph-name="i" unicode="i" horiz-adv-x="234" 
d="M16 0l128 522h74l-127 -522h-75zM165 628l22 86h83l-22 -86h-83z" />
    <glyph glyph-name="j" unicode="j" horiz-adv-x="236" 
d="M-50 -153q-29 0 -63 9l17 62q22 -6 38 -6q56 0 73 73l131 537h74l-134 -549q-30 -126 -136 -126zM167 628l22 86h83l-22 -86h-83z" />
    <glyph glyph-name="k" unicode="k" horiz-adv-x="488" 
d="M10 0l176 722h75l-116 -474l286 274h97l-236 -217l114 -305h-82l-93 252l-110 -102l-37 -150h-74z" />
    <glyph glyph-name="l" unicode="l" horiz-adv-x="234" 
d="M16 0l177 722h74l-176 -722h-75z" />
    <glyph glyph-name="m" unicode="m" horiz-adv-x="828" 
d="M10 0l127 522h74l-18 -78q69 88 151 88q51 0 83.5 -29.5t42.5 -76.5q69 106 179 106q61 0 99 -38t38 -102q0 -26 -13 -89l-74 -303h-74l74 307q9 40 9 67q0 43 -23.5 67t-64.5 24q-49 0 -92.5 -42.5t-58.5 -104.5l-77 -318h-74l74 306q9 35 9 68q0 43 -24 67t-65 24
q-49 0 -92 -43.5t-60 -107.5l-76 -314h-74z" />
    <glyph glyph-name="n" unicode="n" horiz-adv-x="533" 
d="M10 0l127 522h74l-18 -78q70 88 157 88q63 0 101 -38t38 -104q0 -32 -13 -87l-72 -303h-75l74 306q9 40 9 68q0 43 -25 67t-69 24q-52 0 -96.5 -43t-61.5 -108l-76 -314h-74z" />
    <glyph glyph-name="o" unicode="o" horiz-adv-x="548" 
d="M310 532q90 0 144 -59.5t54 -157.5q0 -72 -26 -138t-72 -113q-75 -75 -173 -75q-89 0 -143 60.5t-54 157.5q0 72 26 138t72 112q75 75 172 75zM241 56q65 0 113 50q36 37 57.5 93.5t21.5 112.5q0 73 -34.5 113.5t-92.5 40.5q-62 0 -113 -51q-36 -36 -57.5 -92.5
t-21.5 -113.5q0 -73 34.5 -113t92.5 -40z" />
    <glyph glyph-name="p" unicode="p" horiz-adv-x="566" 
d="M269 -10q-60 0 -100 33t-59 86l-63 -259h-74l164 672h74l-20 -85q76 95 167 95q74 0 121.5 -56t47.5 -151q0 -75 -27 -147t-75 -120q-70 -68 -156 -68zM262 55q59 0 107 46q37 38 58.5 96.5t21.5 121.5q0 68 -31 108t-85 40q-64 0 -117 -53q-36 -37 -58 -95t-22 -115
q0 -66 35 -107.5t91 -41.5z" />
    <glyph glyph-name="q" unicode="q" horiz-adv-x="566" 
d="M210 -10q-74 0 -121.5 56t-47.5 151q0 76 27 147.5t74 118.5q69 69 156 69q60 0 100 -33t59 -86l26 109h75l-164 -672h-75l58 234q-78 -94 -167 -94zM234 55q63 0 117 54q36 36 58.5 94t22.5 115q0 65 -35.5 107t-90.5 42q-61 0 -108 -47q-37 -37 -58.5 -95.5
t-21.5 -120.5q0 -69 31 -109t85 -40z" />
    <glyph glyph-name="r" unicode="r" horiz-adv-x="348" 
d="M10 0l127 522h74l-27 -112q88 128 205 120l-21 -79h-5q-76 0 -135.5 -51.5t-82.5 -147.5l-61 -252h-74z" />
    <glyph glyph-name="s" unicode="s" horiz-adv-x="423" 
d="M180 -9q-114 0 -192 92l49 49q70 -79 147 -79q39 0 68.5 24t29.5 59q0 26 -19.5 48t-70.5 52q-62 36 -88.5 69t-26.5 78q0 61 47.5 104.5t122.5 43.5q100 0 171 -78l-46 -51q-67 68 -129 68q-41 0 -66.5 -23.5t-25.5 -56.5q0 -25 18.5 -46t71.5 -53q63 -37 89 -71.5
t26 -77.5q0 -64 -51 -107.5t-125 -43.5z" />
    <glyph glyph-name="t" unicode="t" horiz-adv-x="344" 
d="M168 -7q-49 0 -78.5 24t-29.5 69q0 24 8 56l76 314h-64l16 66h64l37 151h74l-37 -151h132l-16 -66h-132l-77 -320q-4 -15 -4 -32q0 -44 58 -44q29 0 62 14l-16 -67q-31 -14 -73 -14z" />
    <glyph glyph-name="u" unicode="u" horiz-adv-x="534" 
d="M185 -10q-64 0 -102 38t-38 105q0 32 13 87l73 302h74l-74 -305q-9 -40 -9 -68q0 -43 25 -67.5t69 -24.5q52 0 97 43.5t60 108.5l77 313h74l-127 -522h-74l19 78q-72 -88 -157 -88z" />
    <glyph glyph-name="v" unicode="v" horiz-adv-x="495" 
d="M145 -4l-62 526h77l40 -429l246 429h82l-317 -526h-66z" />
    <glyph glyph-name="w" unicode="w" horiz-adv-x="742" 
d="M116 -4l-26 526h75l13 -416l218 417h64l17 -417l215 416h76l-284 -526h-67l-18 410l-217 -410h-66z" />
    <glyph glyph-name="x" unicode="x" horiz-adv-x="490" 
d="M183 522l76 -197l166 197h90l-227 -257l109 -265h-80l-81 212l-179 -212h-89l239 271l-103 251h79z" />
    <glyph glyph-name="y" unicode="y" horiz-adv-x="499" 
d="M151 0l-68 522h77l48 -431l239 431h82l-308 -534q-45 -77 -86 -109t-91 -32q-56 0 -100 36l38 55q30 -25 64 -25q27 0 51 19.5t54 67.5z" />
    <glyph glyph-name="z" unicode="z" horiz-adv-x="459" 
d="M-20 0l11 49l372 411h-266l16 62h364l-11 -49l-374 -410h279l-16 -63h-375z" />
    <glyph glyph-name="braceleft" unicode="{" horiz-adv-x="417" 
d="M268 -140q-155 33 -155 147q0 36 29 114q19 49 19 74q0 64 -94 64h-22l15 57h23q71 0 105 34q43 45 45 142q6 111 57 162q57 57 181 61l3 -53q-91 -6 -130 -45t-42 -139q-9 -109 -51 -152q-33 -33 -95 -44q75 -19 75 -86q0 -32 -20 -79q-27 -70 -27 -103q0 -38 23.5 -63
t81.5 -42z" />
    <glyph glyph-name="bar" unicode="|" horiz-adv-x="282" 
d="M17 -119l223 908h62l-223 -908h-62z" />
    <glyph glyph-name="braceright" unicode="}" horiz-adv-x="417" 
d="M161 715q155 -33 155 -147q0 -36 -29 -114q-19 -49 -19 -74q0 -64 94 -64h22l-15 -57h-23q-71 0 -105 -34q-43 -45 -45 -142q-6 -111 -57 -162q-57 -57 -181 -61l-3 53q91 6 130 45t42 139q9 109 51 152q33 33 95 44q-75 19 -75 86q0 32 20 79q27 70 27 103
q0 38 -23.5 63t-81.5 42z" />
    <glyph glyph-name="asciitilde" unicode="~" horiz-adv-x="422" 
d="M113 240l-47 20q45 100 105 100q33 0 63 -30q30 -27 44 -27q27 0 55 55l46 -19q-43 -100 -104 -100q-31 0 -63 30q-28 27 -44 27q-15 0 -27.5 -13.5t-27.5 -42.5z" />
    <glyph glyph-name="uni00A0" unicode="&#xa0;" horiz-adv-x="234" 
 />
    <glyph glyph-name="exclamdown" unicode="&#xa1;" horiz-adv-x="253" 
d="M205 502l-86 -446l-14 -56h-88l13 56l133 446h42zM277 700l-25 -104h-90l25 104h90z" />
    <glyph glyph-name="cent" unicode="&#xa2;" horiz-adv-x="484" 
d="M378 705h60l-32 -91q69 -22 109 -89l-55 -40q-36 51 -79 65l-131 -401q6 -1 18 -1q66 0 128 50l38 -50q-75 -66 -170 -66q-13 0 -33 2l-31 -90h-59l36 105q-54 23 -84 75t-30 122q0 72 25.5 140.5t70.5 112.5q72 75 177 75q10 0 14 -1zM138 299q0 -98 64 -135l127 393
q-63 -1 -113 -51q-36 -36 -57 -93t-21 -114z" />
    <glyph glyph-name="sterling" unicode="&#xa3;" horiz-adv-x="537" 
d="M-9 0l11 44l77 21l57 237h-74l17 65h73l32 133q26 101 74 149q59 59 146 59q115 0 170 -98l-61 -42q-42 69 -113 69q-53 0 -87 -35q-38 -39 -55 -115l-29 -120h228l-17 -65h-227l-57 -234h298l-17 -68h-446z" />
    <glyph glyph-name="yen" unicode="&#xa5;" horiz-adv-x="593" 
d="M193 0l28 121h-167l14 59h169l20 88h-168l16 59h146l-125 373h83l107 -341l273 341h93l-310 -373h146l-15 -59h-171l-22 -88h172l-16 -59h-170l-29 -121h-74z" />
    <glyph glyph-name="section" unicode="&#xa7;" horiz-adv-x="549" 
d="M523 345q0 -57 -48.5 -92t-118.5 -38q59 -40 59 -94q0 -57 -47.5 -93.5t-124.5 -36.5q-115 0 -193 75l45 51q69 -64 153 -64q41 0 67 18t26 46q0 27 -23.5 46.5t-85.5 46.5q-85 36 -124 68.5t-39 77.5q0 57 47.5 91.5t118.5 37.5q-58 39 -58 95t48 93t124 37
q114 0 194 -75l-46 -51q-69 64 -152 64q-42 0 -68 -18t-26 -47q0 -27 24 -46.5t85 -45.5q85 -36 124 -68.5t39 -77.5zM143 366q0 -25 19.5 -44.5t63.5 -39.5q62 -26 112 -26q48 0 79.5 22t31.5 57q0 26 -19.5 45t-63.5 38q-60 27 -112 27q-47 0 -79 -22t-32 -57z" />
    <glyph glyph-name="dieresis" unicode="&#xa8;" horiz-adv-x="500" 
d="M207 592l23 90h83l-23 -90h-83zM363 592l23 90h81l-22 -90h-82z" />
    <glyph glyph-name="copyright" unicode="&#xa9;" horiz-adv-x="736" 
d="M364 159q-59 0 -96.5 40t-37.5 108q0 53 19 103.5t54 85.5q52 52 121 52q77 0 117 -64l-43 -31q-32 46 -76 46q-46 0 -81 -35q-26 -26 -41.5 -67.5t-15.5 -85.5q0 -48 23 -75.5t60 -27.5q40 0 85 38l29 -37q-54 -50 -117 -50zM716 408q0 -88 -32 -173t-91 -145
q-102 -102 -242 -102q-130 0 -208.5 86.5t-78.5 217.5q0 89 32 174t91 144q102 102 242 102q130 0 208.5 -86.5t78.5 -217.5zM96 293q0 -117 68.5 -195.5t187.5 -78.5q125 0 215 90q56 56 85.5 136.5t29.5 162.5q1 116 -67 194.5t-189 78.5q-126 0 -214 -90
q-56 -55 -85.5 -135t-30.5 -163z" />
    <glyph glyph-name="ordfeminine" unicode="&#xaa;" horiz-adv-x="347" 
d="M174 405q-33 0 -54.5 20.5t-21.5 54.5q0 47 32.5 78.5t83.5 31.5q30 0 79 -15l3 10q4 18 4 27q0 46 -61 46q-30 0 -70 -14l-12 42q47 18 90 18q49 0 75 -22.5t27 -60.5q0 -17 -6 -45l-40 -165h-49l9 40q-40 -46 -89 -46zM191 443q29 0 55.5 23.5t34.5 55.5l5 20
q-33 11 -67 11q-32 0 -51 -19.5t-19 -47.5q-1 -20 10.5 -31.5t31.5 -11.5zM55 298l10 43h226l-10 -43h-226z" />
    <glyph glyph-name="guillemotleft" unicode="&#xab;" horiz-adv-x="496" 
d="M142 40l-102 212l2 8l208 215l44 -39l-170 -188l75 -182zM338 40l-101 212l2 8l207 215l45 -39l-170 -188l75 -182z" />
    <glyph glyph-name="registered" unicode="&#xae;" horiz-adv-x="371" 
d="M273 712q64 0 102 -41.5t38 -104.5q0 -96 -61 -157q-50 -50 -120 -50q-64 0 -102.5 41.5t-38.5 104.5q0 95 61 156q51 51 121 51zM234 377q59 0 103 44q57 57 57 143q0 55 -32.5 92t-90.5 37q-60 0 -103 -43q-57 -57 -57 -144q0 -55 32.5 -92t90.5 -37zM218 511l-15 -63
h-33l45 182h50q68 0 68 -54q0 -48 -51 -60l26 -68h-33l-24 63h-33zM225 539h27q27 0 40 11q9 9 9 24q0 27 -36 27h-25z" />
    <glyph glyph-name="macron" unicode="&#xaf;" horiz-adv-x="500" 
d="M195 604l16 60h277l-15 -60h-278z" />
    <glyph glyph-name="degree" unicode="&#xb0;" horiz-adv-x="351" 
d="M245 706q53 0 86.5 -35.5t33.5 -92.5q0 -84 -55 -137q-45 -45 -104 -45q-54 0 -87.5 36t-33.5 93q0 81 55 136q45 45 105 45zM210 445q36 0 64 28q39 41 39 102q0 38 -19.5 60t-52.5 22q-37 0 -64 -27q-40 -40 -40 -102q0 -38 20 -60.5t53 -22.5z" />
    <glyph glyph-name="plusminus" unicode="&#xb1;" horiz-adv-x="539" 
d="M216 185l43 171h-174l17 68h173l42 170h70l-42 -170h173l-17 -68h-173l-42 -171h-70zM5 30l17 67h415l-16 -67h-416z" />
    <glyph glyph-name="two.sup" unicode="&#xb2;" 
d="M92 436l11 41l186 153q60 51 60 89q0 25 -17 39t-46 14q-43 0 -92 -47l-30 35q59 59 126 59q50 0 80.5 -27t30.5 -69q0 -33 -18 -61t-64 -64l-143 -115h180l-12 -47h-252z" />
    <glyph glyph-name="three.sup" unicode="&#xb3;" 
d="M232 428q-87 0 -128 64l36 31q40 -50 93 -50q37 0 61 22t24 53q0 63 -90 63h-15l-5 31l140 122h-165l12 47h232l-9 -39l-146 -124q45 -6 71.5 -30.5t26.5 -65.5q0 -53 -39.5 -88.5t-98.5 -35.5z" />
    <glyph glyph-name="acute" unicode="&#xb4;" horiz-adv-x="500" 
d="M240 589l122 142l74 -36l-131 -106h-65z" />
    <glyph glyph-name="paragraph" unicode="&#xb6;" horiz-adv-x="467" 
d="M242 0l59 248q-115 7 -169 61q-49 49 -49 131q0 108 70 178q80 82 240 82h97l-171 -700h-77z" />
    <glyph glyph-name="periodcentered" unicode="&#xb7;" horiz-adv-x="231" 
d="M65 248l26 105h91l-26 -105h-91z" />
    <glyph glyph-name="cedilla" unicode="&#xb8;" horiz-adv-x="500" 
d="M144 -142l-65 32l109 120h58z" />
    <glyph glyph-name="one.sup" unicode="&#xb9;" horiz-adv-x="287" 
d="M180 436l79 321l-86 -33l-1 48l110 43h42l-93 -379h-51z" />
    <glyph glyph-name="ordmasculine" unicode="&#xba;" horiz-adv-x="350" 
d="M58 298l10 43h237l-11 -43h-236zM155 526q0 -34 18 -56t48 -22q32 0 58 26q40 37 40 108q0 34 -18 56t-48 22q-32 0 -58 -26q-40 -40 -40 -108zM370 582q0 -84 -54 -136q-40 -42 -98 -42q-52 0 -83 33.5t-31 88.5q0 84 55 136q41 43 97 43q52 0 83 -34t31 -89z" />
    <glyph glyph-name="guillemotright" unicode="&#xbb;" horiz-adv-x="496" 
d="M351 473l102 -212l-2 -8l-208 -215l-44 39l170 188l-75 182zM155 473l101 -212l-2 -8l-207 -215l-45 39l170 188l-75 182z" />
    <glyph glyph-name="onequarter" unicode="&#xbc;" horiz-adv-x="728" 
d="M133 325l77 322l-85 -33v47l109 43h41l-92 -379h-50zM31 0l304 359l283 341h55l-305 -359l-282 -341h-55zM508 -1l19 83h-172l4 45l229 252h60l-63 -255h48l-10 -42h-48l-21 -83h-46zM411 123h128l45 192h-2z" />
    <glyph glyph-name="onehalf" unicode="&#xbd;" horiz-adv-x="728" 
d="M343 0l11 41l186 153q60 51 60 89q0 25 -17 39t-46 14q-43 0 -92 -47l-30 35q59 59 126 59q50 0 80.5 -27t30.5 -69q0 -33 -18 -61t-64 -64l-143 -115h180l-12 -47h-252zM16 0l304 359l283 341h55l-305 -359l-282 -341h-55zM133 325l77 322l-85 -33v47l109 43h41
l-92 -379h-50z" />
    <glyph glyph-name="threequarters" unicode="&#xbe;" horiz-adv-x="794" 
d="M575 -1l19 83h-172l4 45l229 252h60l-63 -255h48l-10 -42h-48l-21 -83h-46zM478 123h128l45 192h-2zM95 0l304 359l283 341h55l-305 -359l-282 -341h-55zM183 317q-87 0 -128 64l35 31q38 -50 94 -50q37 0 61 22t24 53q0 63 -91 63h-14l-5 31l139 122h-165l12 47h233
l-10 -39l-146 -124q45 -6 71.5 -30.5t26.5 -65.5q0 -53 -39 -88.5t-98 -35.5z" />
    <glyph glyph-name="questiondown" unicode="&#xbf;" horiz-adv-x="466" 
d="M350 502l-27 -168l-6 -6q-98 -11 -154 -54t-56 -108q0 -49 32 -76t81 -27q76 0 151 64l41 -55q-91 -80 -198 -80q-85 0 -135.5 47.5t-50.5 120.5q0 88 64 145t170 77l38 120h50zM416 700l-25 -104h-90l25 104h90z" />
    <glyph glyph-name="Agrave" unicode="&#xc0;" horiz-adv-x="654" 
d="M-36 0l438 705h76l93 -705h-78l-22 185h-311l-113 -185h-83zM204 254h257l-42 357zM420 762l-90 91l75 34l69 -125h-54z" />
    <glyph glyph-name="Aacute" unicode="&#xc1;" horiz-adv-x="654" 
d="M-36 0l438 705h76l93 -705h-78l-22 185h-311l-113 -185h-83zM204 254h257l-42 357zM416 762l122 125l74 -34l-127 -91h-69z" />
    <glyph glyph-name="Acircumflex" unicode="&#xc2;" horiz-adv-x="654" 
d="M-36 0l438 705h76l93 -705h-78l-22 185h-311l-113 -185h-83zM204 254h257l-42 357zM313 762l129 115h70l72 -115h-64l-53 59l-83 -59h-71z" />
    <glyph glyph-name="Atilde" unicode="&#xc3;" horiz-adv-x="654" 
d="M-36 0l438 705h76l93 -705h-78l-22 185h-311l-113 -185h-83zM204 254h257l-42 357zM355 758l-46 15q22 48 45 70.5t54 22.5q22 0 66 -20q33 -19 50 -19q28 0 53 43l48 -15q-23 -48 -46 -70t-54 -22q-22 0 -66 20q-35 19 -50 19q-28 0 -54 -44z" />
    <glyph glyph-name="Adieresis" unicode="&#xc4;" horiz-adv-x="654" 
d="M-36 0l438 705h76l93 -705h-78l-22 185h-311l-113 -185h-83zM204 254h257l-42 357zM330 765l22 87h86l-21 -87h-87zM495 765l22 87h86l-22 -87h-86z" />
    <glyph glyph-name="Aring" unicode="&#xc5;" horiz-adv-x="654" 
d="M-36 0l415 669q-34 24 -34 65q0 43 33 73t81 30q41 0 67.5 -23.5t26.5 -59.5q0 -32 -19 -57.5t-50 -36.5l87 -660h-78l-22 185h-311l-113 -185h-83zM204 254h257l-42 357zM441 688q29 0 49 18.5t20 43.5q0 22 -15 36.5t-39 14.5q-29 0 -48.5 -19t-19.5 -45
q0 -22 14.5 -35.5t38.5 -13.5z" />
    <glyph glyph-name="AE" unicode="&#xc6;" horiz-adv-x="894" 
d="M-45 0l513 700h480l-19 -70h-336l-58 -242h300l-17 -70h-300l-60 -248h341l-18 -70h-417l45 185h-234l-134 -185h-86zM226 254h199l92 378h-20z" />
    <glyph glyph-name="Ccedilla" unicode="&#xc7;" horiz-adv-x="609" 
d="M223 -142l-65 32l97 108q-84 21 -134.5 90.5t-50.5 175.5q0 95 35.5 189t98.5 157q100 100 229 100q139 0 213 -118l-62 -47q-60 94 -156 94q-91 0 -165 -74q-51 -51 -82 -132.5t-31 -166.5q0 -94 48 -149.5t128 -55.5q85 0 165 72l46 -52q-97 -92 -213 -92h-13z" />
    <glyph glyph-name="Egrave" unicode="&#xc8;" horiz-adv-x="554" 
d="M378 754l-90 91l75 34l69 -125h-54zM21 0l171 700h423l-18 -70h-346l-59 -242h310l-18 -70h-309l-60 -248h351l-18 -70h-427z" />
    <glyph glyph-name="Eacute" unicode="&#xc9;" horiz-adv-x="554" 
d="M371 754l122 125l74 -34l-127 -91h-69zM21 0l171 700h423l-18 -70h-346l-59 -242h310l-18 -70h-309l-60 -248h351l-18 -70h-427z" />
    <glyph glyph-name="Ecircumflex" unicode="&#xca;" horiz-adv-x="554" 
d="M21 0l171 700h423l-18 -70h-346l-59 -242h310l-18 -70h-309l-60 -248h351l-18 -70h-427zM270 756l129 115h70l72 -115h-64l-53 59l-83 -59h-71z" />
    <glyph glyph-name="Edieresis" unicode="&#xcb;" horiz-adv-x="554" 
d="M285 757l22 87h86l-21 -87h-87zM450 757l22 87h86l-22 -87h-86zM21 0l171 700h423l-18 -70h-346l-59 -242h310l-18 -70h-309l-60 -248h351l-18 -70h-427z" />
    <glyph glyph-name="Igrave" unicode="&#xcc;" horiz-adv-x="259" 
d="M28 0l171 700h77l-171 -700h-77zM217 754l-90 91l75 34l69 -125h-54z" />
    <glyph glyph-name="Iacute" unicode="&#xcd;" horiz-adv-x="259" 
d="M28 0l171 700h77l-171 -700h-77zM213 754l122 125l74 -34l-127 -91h-69z" />
    <glyph glyph-name="Icircumflex" unicode="&#xce;" horiz-adv-x="259" 
d="M28 0l171 700h77l-171 -700h-77zM111 756l129 115h70l72 -115h-64l-53 59l-83 -59h-71z" />
    <glyph glyph-name="Idieresis" unicode="&#xcf;" horiz-adv-x="259" 
d="M28 0l171 700h77l-171 -700h-77zM127 757l22 87h86l-21 -87h-87zM292 757l22 87h86l-22 -87h-86z" />
    <glyph glyph-name="Eth" unicode="&#xd0;" horiz-adv-x="679" 
d="M46 317l18 70h71l77 313h141q146 0 227 -79q72 -72 72 -203q0 -82 -30 -163.5t-89 -140.5q-114 -114 -304 -114h-188l77 317h-72zM518 571q-58 58 -171 58h-76l-59 -242h164l-18 -70h-163l-60 -246h105q143 0 236 91q47 47 72 115.5t25 136.5q0 102 -55 157z" />
    <glyph glyph-name="Ntilde" unicode="&#xd1;" horiz-adv-x="674" 
d="M356 747l-46 15q22 48 45 70.5t54 22.5q22 0 66 -20q33 -19 50 -19q28 0 53 43l48 -15q-23 -48 -46 -70t-54 -22q-22 0 -66 20q-35 19 -50 19q-28 0 -54 -44zM21 0l171 700h72l222 -563l137 563h75l-171 -700h-63l-228 577l-140 -577h-75z" />
    <glyph glyph-name="Ograve" unicode="&#xd2;" horiz-adv-x="707" 
d="M432 762l-90 91l75 34l69 -125h-54zM429 711q114 0 182.5 -77t68.5 -200q0 -94 -36 -190.5t-98 -159.5q-98 -96 -224 -96q-114 0 -182.5 77.5t-68.5 200.5q0 94 36 190.5t99 158.5q96 96 223 96zM328 60q89 0 159 70q52 52 83 136.5t31 163.5q0 95 -48 152.5t-130 57.5
q-90 0 -159 -72q-52 -52 -83 -136t-31 -163q0 -94 48 -151.5t130 -57.5z" />
    <glyph glyph-name="Oacute" unicode="&#xd3;" horiz-adv-x="707" 
d="M425 762l122 125l74 -34l-127 -91h-69zM429 711q114 0 182.5 -77t68.5 -200q0 -94 -36 -190.5t-98 -159.5q-98 -96 -224 -96q-114 0 -182.5 77.5t-68.5 200.5q0 94 36 190.5t99 158.5q96 96 223 96zM328 60q89 0 159 70q52 52 83 136.5t31 163.5q0 95 -48 152.5
t-130 57.5q-90 0 -159 -72q-52 -52 -83 -136t-31 -163q0 -94 48 -151.5t130 -57.5z" />
    <glyph glyph-name="Ocircumflex" unicode="&#xd4;" horiz-adv-x="707" 
d="M429 711q114 0 182.5 -77t68.5 -200q0 -94 -36 -190.5t-98 -159.5q-98 -96 -224 -96q-114 0 -182.5 77.5t-68.5 200.5q0 94 36 190.5t99 158.5q96 96 223 96zM328 60q89 0 159 70q52 52 83 136.5t31 163.5q0 95 -48 152.5t-130 57.5q-90 0 -159 -72q-52 -52 -83 -136
t-31 -163q0 -94 48 -151.5t130 -57.5zM325 764l129 115h70l72 -115h-64l-53 59l-83 -59h-71z" />
    <glyph glyph-name="Otilde" unicode="&#xd5;" horiz-adv-x="707" 
d="M367 758l-46 15q22 48 45 70.5t54 22.5q22 0 66 -20q33 -19 50 -19q28 0 53 43l48 -15q-23 -48 -46 -70t-54 -22q-22 0 -66 20q-35 19 -50 19q-28 0 -54 -44zM429 711q114 0 182.5 -77t68.5 -200q0 -94 -36 -190.5t-98 -159.5q-98 -96 -224 -96q-114 0 -182.5 77.5
t-68.5 200.5q0 94 36 190.5t99 158.5q96 96 223 96zM328 60q89 0 159 70q52 52 83 136.5t31 163.5q0 95 -48 152.5t-130 57.5q-90 0 -159 -72q-52 -52 -83 -136t-31 -163q0 -94 48 -151.5t130 -57.5z" />
    <glyph glyph-name="Odieresis" unicode="&#xd6;" horiz-adv-x="707" 
d="M341 765l22 87h86l-21 -87h-87zM506 765l22 87h86l-22 -87h-86zM429 711q114 0 182.5 -77t68.5 -200q0 -94 -36 -190.5t-98 -159.5q-98 -96 -224 -96q-114 0 -182.5 77.5t-68.5 200.5q0 94 36 190.5t99 158.5q96 96 223 96zM328 60q89 0 159 70q52 52 83 136.5t31 163.5
q0 95 -48 152.5t-130 57.5q-90 0 -159 -72q-52 -52 -83 -136t-31 -163q0 -94 48 -151.5t130 -57.5z" />
    <glyph glyph-name="multiply" unicode="&#xd7;" horiz-adv-x="539" 
d="M100 153l-41 52l187 152l-110 148l59 45l106 -150l186 152l40 -53l-187 -151l110 -148l-57 -45l-108 149z" />
    <glyph glyph-name="Oslash" unicode="&#xd8;" horiz-adv-x="707" 
d="M429 711q114 0 184 -78l74 73h82l-123 -123q34 -65 34 -149q0 -94 -36 -190.5t-98 -159.5q-98 -96 -224 -96q-114 0 -184 78l-74 -72h-82l123 122q-34 65 -34 150q0 94 36 190.5t99 158.5q96 96 223 96zM148 269q0 -56 16 -97l395 407q-49 63 -136 63q-90 0 -160 -72
q-52 -52 -83.5 -137t-31.5 -164zM328 58q89 0 160 71q52 52 83.5 137t31.5 165q0 53 -15 95l-395 -406q48 -62 135 -62z" />
    <glyph glyph-name="Ugrave" unicode="&#xd9;" horiz-adv-x="651" 
d="M402 751l-90 91l75 34l69 -125h-54zM291 -11q-104 0 -161.5 54t-57.5 145q0 48 15 105l97 407h78l-103 -425q-10 -42 -10 -79q0 -62 38.5 -99t110.5 -37q73 0 124 51q55 55 78 153l106 436h76l-108 -449q-32 -124 -96 -188q-74 -74 -187 -74z" />
    <glyph glyph-name="Uacute" unicode="&#xda;" horiz-adv-x="651" 
d="M398 751l122 125l74 -34l-127 -91h-69zM291 -11q-104 0 -161.5 54t-57.5 145q0 48 15 105l97 407h78l-103 -425q-10 -42 -10 -79q0 -62 38.5 -99t110.5 -37q73 0 124 51q55 55 78 153l106 436h76l-108 -449q-32 -124 -96 -188q-74 -74 -187 -74z" />
    <glyph glyph-name="Ucircumflex" unicode="&#xdb;" horiz-adv-x="651" 
d="M291 -11q-104 0 -161.5 54t-57.5 145q0 48 15 105l97 407h78l-103 -425q-10 -42 -10 -79q0 -62 38.5 -99t110.5 -37q73 0 124 51q55 55 78 153l106 436h76l-108 -449q-32 -124 -96 -188q-74 -74 -187 -74zM296 753l129 115h70l72 -115h-64l-53 59l-83 -59h-71z" />
    <glyph glyph-name="Udieresis" unicode="&#xdc;" horiz-adv-x="651" 
d="M312 754l22 87h86l-21 -87h-87zM477 754l22 87h86l-22 -87h-86zM291 -11q-104 0 -161.5 54t-57.5 145q0 48 15 105l97 407h78l-103 -425q-10 -42 -10 -79q0 -62 38.5 -99t110.5 -37q73 0 124 51q55 55 78 153l106 436h76l-108 -449q-32 -124 -96 -188q-74 -74 -187 -74z
" />
    <glyph glyph-name="Yacute" unicode="&#xdd;" horiz-adv-x="566" 
d="M177 0l70 288l-139 412h84l109 -344l275 344h95l-349 -422l-68 -278h-77zM351 751l122 125l74 -34l-127 -91h-69z" />
    <glyph glyph-name="Thorn" unicode="&#xde;" horiz-adv-x="581" 
d="M21 0l171 700h76l-29 -119h93q125 0 185 -59q49 -49 49 -133q0 -107 -69 -176q-87 -85 -248 -85h-120l-31 -128h-77zM146 197h106q124 0 187 60q48 49 48 129q0 54 -32 86q-39 39 -126 39h-107z" />
    <glyph glyph-name="germandbls" unicode="&#xdf;" horiz-adv-x="537" 
d="M182 -2l16 61q102 -1 153.5 41.5t51.5 107.5q0 98 -139 125l14 56q88 20 133 66t45 108q0 45 -28 72t-75 27q-107 0 -146 -158l-123 -504h-74l126 516q23 100 77 153q57 59 144 59q77 0 125 -45t48 -115q0 -76 -48 -130t-129 -78q125 -46 125 -155q0 -93 -78.5 -153
t-217.5 -54z" />
    <glyph glyph-name="agrave" unicode="&#xe0;" horiz-adv-x="501" 
d="M155 -10q-62 0 -102.5 38t-40.5 103q0 82 53 135q57 57 156 57q69 0 150 -27l3 15q8 37 8 59q0 92 -116 92q-59 0 -123 -27l-18 63q73 30 151 30q85 0 132 -38.5t47 -105.5q0 -31 -12 -84l-72 -300h-73l19 75q-70 -85 -162 -85zM180 47q57 0 104 42t62 104l13 53
q-64 23 -133 23q-64 0 -102 -38q-37 -35 -37 -93q0 -41 25 -66t68 -25zM284 590l-83 106l74 36l61 -142h-52z" />
    <glyph glyph-name="aacute" unicode="&#xe1;" horiz-adv-x="501" 
d="M155 -10q-62 0 -102.5 38t-40.5 103q0 82 53 135q57 57 156 57q69 0 150 -27l3 15q8 37 8 59q0 92 -116 92q-59 0 -123 -27l-18 63q73 30 151 30q85 0 132 -38.5t47 -105.5q0 -31 -12 -84l-72 -300h-73l19 75q-70 -85 -162 -85zM180 47q57 0 104 42t62 104l13 53
q-64 23 -133 23q-64 0 -102 -38q-37 -35 -37 -93q0 -41 25 -66t68 -25zM280 590l122 142l74 -36l-131 -106h-65z" />
    <glyph glyph-name="acircumflex" unicode="&#xe2;" horiz-adv-x="501" 
d="M155 -10q-62 0 -102.5 38t-40.5 103q0 82 53 135q57 57 156 57q69 0 150 -27l3 15q8 37 8 59q0 92 -116 92q-59 0 -123 -27l-18 63q73 30 151 30q85 0 132 -38.5t47 -105.5q0 -31 -12 -84l-72 -300h-73l19 75q-70 -85 -162 -85zM180 47q57 0 104 42t62 104l13 53
q-64 23 -133 23q-64 0 -102 -38q-37 -35 -37 -93q0 -41 25 -66t68 -25zM186 591l127 131h66l63 -131h-59l-47 70l-85 -70h-65z" />
    <glyph glyph-name="atilde" unicode="&#xe3;" horiz-adv-x="501" 
d="M155 -10q-62 0 -102.5 38t-40.5 103q0 82 53 135q57 57 156 57q69 0 150 -27l3 15q8 37 8 59q0 92 -116 92q-59 0 -123 -27l-18 63q73 30 151 30q85 0 132 -38.5t47 -105.5q0 -31 -12 -84l-72 -300h-73l19 75q-70 -85 -162 -85zM180 47q57 0 104 42t62 104l13 53
q-64 23 -133 23q-64 0 -102 -38q-37 -35 -37 -93q0 -41 25 -66t68 -25zM440 702l45 -13q-22 -52 -45 -75.5t-55 -23.5q-26 0 -63 23q-32 20 -48 20q-28 0 -53 -48l-45 14q21 52 44.5 75t55.5 23q23 0 63 -22q29 -20 48 -20q27 0 53 47z" />
    <glyph glyph-name="adieresis" unicode="&#xe4;" horiz-adv-x="501" 
d="M155 -10q-62 0 -102.5 38t-40.5 103q0 82 53 135q57 57 156 57q69 0 150 -27l3 15q8 37 8 59q0 92 -116 92q-59 0 -123 -27l-18 63q73 30 151 30q85 0 132 -38.5t47 -105.5q0 -31 -12 -84l-72 -300h-73l19 75q-70 -85 -162 -85zM180 47q57 0 104 42t62 104l13 53
q-64 23 -133 23q-64 0 -102 -38q-37 -35 -37 -93q0 -41 25 -66t68 -25zM200 593l23 90h83l-23 -90h-83zM356 593l23 90h81l-22 -90h-82z" />
    <glyph glyph-name="aring" unicode="&#xe5;" horiz-adv-x="501" 
d="M155 -10q-62 0 -102.5 38t-40.5 103q0 82 53 135q57 57 156 57q69 0 150 -27l3 15q8 37 8 59q0 92 -116 92q-59 0 -123 -27l-18 63q73 30 151 30q85 0 132 -38.5t47 -105.5q0 -31 -12 -84l-72 -300h-73l19 75q-70 -85 -162 -85zM180 47q57 0 104 42t62 104l13 53
q-64 23 -133 23q-64 0 -102 -38q-37 -35 -37 -93q0 -41 25 -66t68 -25zM443 695q0 -43 -32 -74.5t-78 -31.5q-41 0 -67 25t-26 63q0 43 32.5 75t77.5 32q41 0 67 -25t26 -64zM279 679q0 -24 15.5 -40t40.5 -16q29 0 49 21t20 49q0 24 -15 40t-40 16q-29 0 -49.5 -21
t-20.5 -49z" />
    <glyph glyph-name="ae" unicode="&#xe6;" horiz-adv-x="825" 
d="M556 -10q-65 0 -111 30.5t-67 87.5q-92 -118 -215 -118q-68 0 -109.5 37.5t-41.5 103.5q0 82 53 135q57 57 156 57q69 0 150 -27l3 15q8 40 8 59q0 92 -116 92q-59 0 -123 -27l-18 63q73 30 151 30q67 0 109 -26t54 -74q78 104 184 104q79 0 124 -52t45 -135
q0 -51 -18 -111h-347q-1 -10 -1 -29q0 -70 35.5 -110.5t94.5 -40.5q67 0 132 50l36 -52q-80 -62 -168 -62zM184 47q93 0 179 114q-5 45 1 82q-65 26 -137 26q-65 0 -103 -38q-37 -35 -37 -93q0 -41 26 -66t71 -25zM507 420q-49 -47 -70 -130h277q7 24 7 56q0 54 -26.5 88.5
t-78.5 34.5q-58 0 -109 -49z" />
    <glyph glyph-name="ccedilla" unicode="&#xe7;" horiz-adv-x="468" 
d="M143 -142l-65 32l98 108q-63 16 -100.5 69t-37.5 134q0 72 27 140.5t73 114.5q77 75 172 75q110 0 168 -93l-58 -44q-45 72 -113 72q-62 0 -112 -52q-36 -36 -58.5 -94.5t-22.5 -114.5q0 -72 35 -110.5t88 -38.5q58 0 116 51l41 -49q-72 -68 -161 -68h-2z" />
    <glyph glyph-name="egrave" unicode="&#xe8;" horiz-adv-x="510" 
d="M459 234h-346q-1 -10 -1 -29q0 -70 35 -110.5t95 -40.5q65 0 132 50l35 -52q-80 -62 -169 -62q-91 0 -146 58t-55 156q0 71 27 139.5t74 115.5q73 73 167 73q79 0 125 -52t46 -135q0 -53 -19 -111zM192 420q-48 -48 -69 -130h276q7 24 7 56q0 54 -26.5 88.5t-77.5 34.5
q-58 0 -110 -49zM305 590l-83 106l74 36l61 -142h-52z" />
    <glyph glyph-name="eacute" unicode="&#xe9;" horiz-adv-x="510" 
d="M459 234h-346q-1 -10 -1 -29q0 -70 35 -110.5t95 -40.5q65 0 132 50l35 -52q-80 -62 -169 -62q-91 0 -146 58t-55 156q0 71 27 139.5t74 115.5q73 73 167 73q79 0 125 -52t46 -135q0 -53 -19 -111zM192 420q-48 -48 -69 -130h276q7 24 7 56q0 54 -26.5 88.5t-77.5 34.5
q-58 0 -110 -49zM300 590l122 142l74 -36l-131 -106h-65z" />
    <glyph glyph-name="ecircumflex" unicode="&#xea;" horiz-adv-x="510" 
d="M459 234h-346q-1 -10 -1 -29q0 -70 35 -110.5t95 -40.5q65 0 132 50l35 -52q-80 -62 -169 -62q-91 0 -146 58t-55 156q0 71 27 139.5t74 115.5q73 73 167 73q79 0 125 -52t46 -135q0 -53 -19 -111zM192 420q-48 -48 -69 -130h276q7 24 7 56q0 54 -26.5 88.5t-77.5 34.5
q-58 0 -110 -49zM205 591l127 131h66l63 -131h-59l-47 70l-85 -70h-65z" />
    <glyph glyph-name="edieresis" unicode="&#xeb;" horiz-adv-x="510" 
d="M459 234h-346q-1 -10 -1 -29q0 -70 35 -110.5t95 -40.5q65 0 132 50l35 -52q-80 -62 -169 -62q-91 0 -146 58t-55 156q0 71 27 139.5t74 115.5q73 73 167 73q79 0 125 -52t46 -135q0 -53 -19 -111zM192 420q-48 -48 -69 -130h276q7 24 7 56q0 54 -26.5 88.5t-77.5 34.5
q-58 0 -110 -49zM219 593l23 90h83l-23 -90h-83zM375 593l23 90h81l-22 -90h-82z" />
    <glyph glyph-name="igrave" unicode="&#xec;" horiz-adv-x="234" 
d="M16 0l127 522h75l-127 -522h-75zM165 589l-83 106l74 36l61 -142h-52z" />
    <glyph glyph-name="iacute" unicode="&#xed;" horiz-adv-x="234" 
d="M163 589l122 142l74 -36l-131 -106h-65zM16 0l127 522h75l-127 -522h-75z" />
    <glyph glyph-name="icircumflex" unicode="&#xee;" horiz-adv-x="234" 
d="M67 590l127 131h66l63 -131h-59l-47 70l-85 -70h-65zM16 0l127 522h75l-127 -522h-75z" />
    <glyph glyph-name="idieresis" unicode="&#xef;" horiz-adv-x="234" 
d="M81 592l23 90h83l-23 -90h-83zM237 592l23 90h81l-22 -90h-82zM16 0l127 522h75l-127 -522h-75z" />
    <glyph glyph-name="eth" unicode="&#xf0;" horiz-adv-x="544" 
d="M231 570l-19 48l107 41q-16 21 -50 63h90l27 -38l101 39l19 -47l-92 -35q94 -153 94 -294q0 -89 -28 -162.5t-76 -121.5q-72 -74 -171 -74q-88 0 -140.5 59t-52.5 157q0 74 25.5 140.5t68.5 109.5q67 69 157 69q86 0 141 -81q-22 78 -84 172zM239 55q65 0 115 50
q33 35 54 91.5t21 114.5q0 67 -35.5 109t-94.5 42q-64 0 -109 -48q-34 -34 -55 -91t-21 -116q0 -70 33.5 -111t91.5 -41z" />
    <glyph glyph-name="ntilde" unicode="&#xf1;" horiz-adv-x="533" 
d="M10 0l127 522h74l-18 -78q70 88 157 88q63 0 101 -38t38 -104q0 -32 -13 -87l-72 -303h-75l74 306q9 40 9 68q0 43 -25 67t-69 24q-52 0 -96.5 -43t-61.5 -108l-76 -314h-74zM464 702l45 -13q-22 -52 -45 -75.5t-55 -23.5q-26 0 -63 23q-32 20 -48 20q-28 0 -53 -48
l-45 14q21 52 44.5 75t55.5 23q23 0 63 -22q29 -20 48 -20q27 0 53 47z" />
    <glyph glyph-name="ograve" unicode="&#xf2;" horiz-adv-x="548" 
d="M310 532q90 0 144 -59.5t54 -157.5q0 -72 -26 -138t-72 -113q-75 -75 -173 -75q-89 0 -143 60.5t-54 157.5q0 72 26 138t72 112q75 75 172 75zM241 56q65 0 113 50q36 37 57.5 93.5t21.5 112.5q0 73 -34.5 113.5t-92.5 40.5q-62 0 -113 -51q-36 -36 -57.5 -92.5
t-21.5 -113.5q0 -73 34.5 -113t92.5 -40zM317 590l-83 106l74 36l61 -142h-52z" />
    <glyph glyph-name="oacute" unicode="&#xf3;" horiz-adv-x="548" 
d="M310 590l122 142l74 -36l-131 -106h-65zM310 532q90 0 144 -59.5t54 -157.5q0 -72 -26 -138t-72 -113q-75 -75 -173 -75q-89 0 -143 60.5t-54 157.5q0 72 26 138t72 112q75 75 172 75zM241 56q65 0 113 50q36 37 57.5 93.5t21.5 112.5q0 73 -34.5 113.5t-92.5 40.5
q-62 0 -113 -51q-36 -36 -57.5 -92.5t-21.5 -113.5q0 -73 34.5 -113t92.5 -40z" />
    <glyph glyph-name="ocircumflex" unicode="&#xf4;" horiz-adv-x="548" 
d="M217 591l127 131h66l63 -131h-59l-47 70l-85 -70h-65zM310 532q90 0 144 -59.5t54 -157.5q0 -72 -26 -138t-72 -113q-75 -75 -173 -75q-89 0 -143 60.5t-54 157.5q0 72 26 138t72 112q75 75 172 75zM241 56q65 0 113 50q36 37 57.5 93.5t21.5 112.5q0 73 -34.5 113.5
t-92.5 40.5q-62 0 -113 -51q-36 -36 -57.5 -92.5t-21.5 -113.5q0 -73 34.5 -113t92.5 -40z" />
    <glyph glyph-name="otilde" unicode="&#xf5;" horiz-adv-x="548" 
d="M310 532q90 0 144 -59.5t54 -157.5q0 -72 -26 -138t-72 -113q-75 -75 -173 -75q-89 0 -143 60.5t-54 157.5q0 72 26 138t72 112q75 75 172 75zM241 56q65 0 113 50q36 37 57.5 93.5t21.5 112.5q0 73 -34.5 113.5t-92.5 40.5q-62 0 -113 -51q-36 -36 -57.5 -92.5
t-21.5 -113.5q0 -73 34.5 -113t92.5 -40zM471 702l45 -13q-22 -52 -45 -75.5t-55 -23.5q-26 0 -63 23q-32 20 -48 20q-28 0 -53 -48l-45 14q21 52 44 75t56 23q23 0 63 -22q29 -20 48 -20q27 0 53 47z" />
    <glyph glyph-name="odieresis" unicode="&#xf6;" horiz-adv-x="548" 
d="M230 593l23 90h83l-23 -90h-83zM386 593l23 90h81l-22 -90h-82zM310 532q90 0 144 -59.5t54 -157.5q0 -72 -26 -138t-72 -113q-75 -75 -173 -75q-89 0 -143 60.5t-54 157.5q0 72 26 138t72 112q75 75 172 75zM241 56q65 0 113 50q36 37 57.5 93.5t21.5 112.5
q0 73 -34.5 113.5t-92.5 40.5q-62 0 -113 -51q-36 -36 -57.5 -92.5t-21.5 -113.5q0 -73 34.5 -113t92.5 -40z" />
    <glyph glyph-name="divide" unicode="&#xf7;" horiz-adv-x="539" 
d="M190 125l25 97h92l-25 -97h-92zM70 317l17 70h428l-18 -70h-427zM278 482l25 97h92l-24 -97h-93z" />
    <glyph glyph-name="oslash" unicode="&#xf8;" horiz-adv-x="548" 
d="M310 532q86 0 141 -57l53 51h77l-99 -95q26 -49 26 -116q0 -72 -26 -138t-72 -113q-75 -75 -173 -75q-87 0 -141 57l-53 -52h-77l99 96q-25 52 -25 117q0 72 26 138t72 112q75 75 172 75zM434 312q0 38 -9 66l-279 -283q33 -41 94 -41q65 0 115 52q37 37 58 93t21 113z
M307 468q-63 0 -115 -52q-37 -37 -58 -93.5t-21 -113.5q0 -36 8 -66l279 284q-33 41 -93 41z" />
    <glyph glyph-name="ugrave" unicode="&#xf9;" horiz-adv-x="534" 
d="M185 -10q-64 0 -102 38t-38 105q0 32 13 87l73 302h74l-74 -305q-9 -40 -9 -68q0 -43 25 -67.5t69 -24.5q52 0 97 43.5t60 108.5l77 313h74l-127 -522h-74l19 78q-72 -88 -157 -88zM307 588l-83 106l74 36l61 -142h-52z" />
    <glyph glyph-name="uacute" unicode="&#xfa;" horiz-adv-x="534" 
d="M302 588l122 142l74 -36l-131 -106h-65zM185 -10q-64 0 -102 38t-38 105q0 32 13 87l73 302h74l-74 -305q-9 -40 -9 -68q0 -43 25 -67.5t69 -24.5q52 0 97 43.5t60 108.5l77 313h74l-127 -522h-74l19 78q-72 -88 -157 -88z" />
    <glyph glyph-name="ucircumflex" unicode="&#xfb;" horiz-adv-x="534" 
d="M207 589l127 131h66l63 -131h-59l-47 70l-85 -70h-65zM185 -10q-64 0 -102 38t-38 105q0 32 13 87l73 302h74l-74 -305q-9 -40 -9 -68q0 -43 25 -67.5t69 -24.5q52 0 97 43.5t60 108.5l77 313h74l-127 -522h-74l19 78q-72 -88 -157 -88z" />
    <glyph glyph-name="udieresis" unicode="&#xfc;" horiz-adv-x="534" 
d="M220 591l23 90h83l-23 -90h-83zM376 591l23 90h81l-22 -90h-82zM185 -10q-64 0 -102 38t-38 105q0 32 13 87l73 302h74l-74 -305q-9 -40 -9 -68q0 -43 25 -67.5t69 -24.5q52 0 97 43.5t60 108.5l77 313h74l-127 -522h-74l19 78q-72 -88 -157 -88z" />
    <glyph glyph-name="yacute" unicode="&#xfd;" horiz-adv-x="499" 
d="M151 0l-68 522h77l48 -431l239 431h82l-308 -534q-45 -77 -86 -109t-91 -32q-56 0 -100 36l38 55q30 -25 64 -25q27 0 51 19.5t54 67.5zM275 588l122 142l74 -36l-131 -106h-65z" />
    <glyph glyph-name="thorn" unicode="&#xfe;" horiz-adv-x="566" 
d="M261 722l-70 -285q76 95 167 95q74 0 121.5 -56t47.5 -151q0 -75 -27 -147t-75 -120q-70 -68 -156 -68q-60 0 -100 33t-59 86l-63 -259h-74l213 872h75zM262 55q59 0 107 46q37 38 58.5 96.5t21.5 121.5q0 68 -31 108t-85 40q-64 0 -117 -53q-36 -37 -58 -95t-22 -115
q0 -66 35 -107.5t91 -41.5z" />
    <glyph glyph-name="ydieresis" unicode="&#xff;" horiz-adv-x="499" 
d="M151 0l-68 522h77l48 -431l239 431h82l-308 -534q-45 -77 -86 -109t-91 -32q-56 0 -100 36l38 55q30 -25 64 -25q27 0 51 19.5t54 67.5zM195 591l23 90h83l-23 -90h-83zM351 591l23 90h81l-22 -90h-82z" />
    <glyph glyph-name="Amacron" unicode="&#x100;" horiz-adv-x="654" 
d="M-36 0l438 705h76l93 -705h-78l-22 185h-311l-113 -185h-83zM204 254h257l-42 357zM312 779l16 61h292l-15 -61h-293z" />
    <glyph glyph-name="amacron" unicode="&#x101;" horiz-adv-x="501" 
d="M155 -10q-62 0 -102.5 38t-40.5 103q0 82 53 135q57 57 156 57q69 0 150 -27l3 15q8 37 8 59q0 92 -116 92q-59 0 -123 -27l-18 63q73 30 151 30q85 0 132 -38.5t47 -105.5q0 -31 -12 -84l-72 -300h-73l19 75q-70 -85 -162 -85zM180 47q57 0 104 42t62 104l13 53
q-64 23 -133 23q-64 0 -102 -38q-37 -35 -37 -93q0 -41 25 -66t68 -25zM183 605l16 60h277l-15 -60h-278z" />
    <glyph glyph-name="Abreve" unicode="&#x102;" horiz-adv-x="654" 
d="M-36 0l438 705h76l93 -705h-78l-22 185h-311l-113 -185h-83zM204 254h257l-42 357zM456 762q-57 0 -88 28.5t-24 78.5h54q6 -47 69 -47q61 0 89 47h60q-17 -50 -60 -78.5t-100 -28.5z" />
    <glyph glyph-name="abreve" unicode="&#x103;" horiz-adv-x="501" 
d="M155 -10q-62 0 -102.5 38t-40.5 103q0 82 53 135q57 57 156 57q69 0 150 -27l3 15q8 37 8 59q0 92 -116 92q-59 0 -123 -27l-18 63q73 30 151 30q85 0 132 -38.5t47 -105.5q0 -31 -12 -84l-72 -300h-73l19 75q-70 -85 -162 -85zM180 47q57 0 104 42t62 104l13 53
q-64 23 -133 23q-64 0 -102 -38q-37 -35 -37 -93q0 -41 25 -66t68 -25zM324 589q-59 0 -89 32t-24 87h55q0 -60 64 -60q61 0 94 60h58q-20 -56 -61.5 -87.5t-96.5 -31.5z" />
    <glyph glyph-name="Aogonek" unicode="&#x104;" horiz-adv-x="654" 
d="M553 -106l-10 -43q-5 -1 -14 -1q-96 3 -96 59q0 41 66 91h-6l-22 185h-311l-113 -185h-83l438 705h76l93 -705h-14q-59 -50 -59 -75q0 -27 55 -31zM204 254h257l-42 357z" />
    <glyph glyph-name="aogonek" unicode="&#x105;" horiz-adv-x="501" 
d="M356 -106l-10 -43q-5 -1 -14 -1q-96 3 -96 59q0 41 66 91h-4l19 75q-70 -85 -162 -85q-62 0 -102.5 38t-40.5 103q0 82 53 135q57 57 156 57q69 0 150 -27l3 15q8 37 8 59q0 92 -116 92q-59 0 -123 -27l-18 63q73 30 151 30q85 0 132 -38.5t47 -105.5q0 -31 -12 -84
l-72 -300h-11q-59 -50 -59 -75q0 -27 55 -31zM180 47q57 0 104 42t62 104l13 53q-64 23 -133 23q-64 0 -102 -38q-37 -35 -37 -93q0 -41 25 -66t68 -25z" />
    <glyph glyph-name="Cacute" unicode="&#x106;" horiz-adv-x="609" 
d="M324 -11q-112 0 -183 74t-71 201q0 95 35.5 189t98.5 157q100 100 229 100q139 0 213 -118l-62 -47q-60 94 -156 94q-91 0 -165 -74q-51 -51 -82 -132.5t-31 -166.5q0 -94 48 -149.5t128 -55.5q85 0 165 72l46 -52q-97 -92 -213 -92zM414 762l122 125l74 -34l-127 -91
h-69z" />
    <glyph glyph-name="cacute" unicode="&#x107;" horiz-adv-x="468" 
d="M292 590l122 142l74 -36l-131 -106h-65zM233 -10q-85 0 -140 56.5t-55 154.5q0 72 27 140.5t73 114.5q77 75 172 75q110 0 168 -93l-58 -44q-45 72 -113 72q-62 0 -112 -52q-36 -36 -58.5 -94.5t-22.5 -114.5q0 -72 35 -110.5t88 -38.5q58 0 116 51l41 -49
q-72 -68 -161 -68z" />
    <glyph glyph-name="Cdotaccent" unicode="&#x10a;" horiz-adv-x="609" 
d="M410 765l21 87h89l-22 -87h-88zM324 -11q-112 0 -183 74t-71 201q0 95 35.5 189t98.5 157q100 100 229 100q139 0 213 -118l-62 -47q-60 94 -156 94q-91 0 -165 -74q-51 -51 -82 -132.5t-31 -166.5q0 -94 48 -149.5t128 -55.5q85 0 165 72l46 -52q-97 -92 -213 -92z" />
    <glyph glyph-name="cdotaccent" unicode="&#x10b;" horiz-adv-x="468" 
d="M233 -10q-85 0 -140 56.5t-55 154.5q0 72 27 140.5t73 114.5q77 75 172 75q110 0 168 -93l-58 -44q-45 72 -113 72q-62 0 -112 -52q-36 -36 -58.5 -94.5t-22.5 -114.5q0 -72 35 -110.5t88 -38.5q58 0 116 51l41 -49q-72 -68 -161 -68zM288 593l24 92h83l-24 -92h-83z" />
    <glyph glyph-name="Ccaron" unicode="&#x10c;" horiz-adv-x="609" 
d="M324 -11q-112 0 -183 74t-71 201q0 95 35.5 189t98.5 157q100 100 229 100q139 0 213 -118l-62 -47q-60 94 -156 94q-91 0 -165 -74q-51 -51 -82 -132.5t-31 -166.5q0 -94 48 -149.5t128 -55.5q85 0 165 72l46 -52q-97 -92 -213 -92zM621 879l-128 -115h-71l-72 115h64
l54 -59l82 59h71z" />
    <glyph glyph-name="ccaron" unicode="&#x10d;" horiz-adv-x="468" 
d="M284 591l-63 131h59l48 -69l85 69h64l-127 -131h-66zM233 -10q-85 0 -140 56.5t-55 154.5q0 72 27 140.5t73 114.5q77 75 172 75q110 0 168 -93l-58 -44q-45 72 -113 72q-62 0 -112 -52q-36 -36 -58.5 -94.5t-22.5 -114.5q0 -72 35 -110.5t88 -38.5q58 0 116 51l41 -49
q-72 -68 -161 -68z" />
    <glyph glyph-name="Dcaron" unicode="&#x10e;" horiz-adv-x="659" 
d="M21 0l171 700h141q146 0 227 -79q72 -71 72 -203q0 -82 -30 -163.5t-89 -140.5q-114 -114 -303 -114h-189zM498 571q-58 58 -170 58h-77l-136 -558h106q142 0 235 91q47 47 72 115.5t25 136.5q0 102 -55 157zM582 871l-128 -115h-71l-72 115h64l54 -59l82 59h71z" />
    <glyph glyph-name="dcaron" unicode="&#x10f;" horiz-adv-x="566" 
d="M622 576l50 165h69v-3l-84 -162h-35zM356 0l21 84q-78 -94 -167 -94q-74 0 -121.5 56t-47.5 151q0 76 27 148t74 119q70 68 156 68q60 0 100 -33t59 -86l75 309h75l-177 -722h-74zM234 55q63 0 117 54q36 36 58.5 94t22.5 115q0 65 -35.5 107t-90.5 42q-61 0 -108 -47
q-37 -37 -58.5 -95.5t-21.5 -120.5q0 -69 31 -109t85 -40z" />
    <glyph glyph-name="Dcroat" unicode="&#x110;" horiz-adv-x="679" 
d="M46 317l18 70h71l77 313h141q146 0 227 -79q72 -72 72 -203q0 -82 -30 -163.5t-89 -140.5q-114 -114 -304 -114h-188l77 317h-72zM518 571q-58 58 -171 58h-76l-59 -242h164l-18 -70h-163l-60 -246h105q143 0 236 91q47 47 72 115.5t25 136.5q0 102 -55 157z" />
    <glyph glyph-name="dcroat" unicode="&#x111;" horiz-adv-x="566" 
d="M352 605l14 53h150l16 64h75l-16 -64h61l-13 -53h-61l-148 -605h-74l21 84q-78 -94 -167 -94q-74 0 -121.5 56t-47.5 151q0 76 27 148t74 119q70 68 156 68q60 0 100 -33t59 -86l46 192h-151zM234 55q63 0 117 54q36 36 58.5 94t22.5 115q0 65 -35.5 107t-90.5 42
q-61 0 -108 -47q-37 -37 -58.5 -95.5t-21.5 -120.5q0 -69 31 -109t85 -40z" />
    <glyph glyph-name="Emacron" unicode="&#x112;" horiz-adv-x="554" 
d="M268 771l16 61h292l-15 -61h-293zM21 0l171 700h423l-18 -70h-346l-59 -242h310l-18 -70h-309l-60 -248h351l-18 -70h-427z" />
    <glyph glyph-name="emacron" unicode="&#x113;" horiz-adv-x="510" 
d="M459 234h-346q-1 -10 -1 -29q0 -70 35 -110.5t95 -40.5q65 0 132 50l35 -52q-80 -62 -169 -62q-91 0 -146 58t-55 156q0 71 27 139.5t74 115.5q73 73 167 73q79 0 125 -52t46 -135q0 -53 -19 -111zM192 420q-48 -48 -69 -130h276q7 24 7 56q0 54 -26.5 88.5t-77.5 34.5
q-58 0 -110 -49zM202 605l16 60h277l-15 -60h-278z" />
    <glyph glyph-name="Ebreve" unicode="&#x114;" horiz-adv-x="554" 
d="M412 754q-57 0 -88 28.5t-24 78.5h54q6 -47 69 -47q61 0 89 47h60q-17 -50 -60 -78.5t-100 -28.5zM21 0l171 700h423l-18 -70h-346l-59 -242h310l-18 -70h-309l-60 -248h351l-18 -70h-427z" />
    <glyph glyph-name="ebreve" unicode="&#x115;" horiz-adv-x="510" 
d="M459 234h-346q-1 -10 -1 -29q0 -70 35 -110.5t95 -40.5q65 0 132 50l35 -52q-80 -62 -169 -62q-91 0 -146 58t-55 156q0 71 27 139.5t74 115.5q73 73 167 73q79 0 125 -52t46 -135q0 -53 -19 -111zM192 420q-48 -48 -69 -130h276q7 24 7 56q0 54 -26.5 88.5t-77.5 34.5
q-58 0 -110 -49zM343 589q-59 0 -89 32t-24 87h55q0 -60 64 -60q61 0 94 60h58q-20 -56 -61.5 -87.5t-96.5 -31.5z" />
    <glyph glyph-name="Edotaccent" unicode="&#x116;" horiz-adv-x="554" 
d="M367 757l21 87h89l-22 -87h-88zM21 0l171 700h423l-18 -70h-346l-59 -242h310l-18 -70h-309l-60 -248h351l-18 -70h-427z" />
    <glyph glyph-name="edotaccent" unicode="&#x117;" horiz-adv-x="510" 
d="M459 234h-346q-1 -10 -1 -29q0 -70 35 -110.5t95 -40.5q65 0 132 50l35 -52q-80 -62 -169 -62q-91 0 -146 58t-55 156q0 71 27 139.5t74 115.5q73 73 167 73q79 0 125 -52t46 -135q0 -53 -19 -111zM192 420q-48 -48 -69 -130h276q7 24 7 56q0 54 -26.5 88.5t-77.5 34.5
q-58 0 -110 -49zM295 593l24 92h83l-24 -92h-83z" />
    <glyph glyph-name="Eogonek" unicode="&#x118;" horiz-adv-x="554" 
d="M21 0l171 700h423l-18 -70h-346l-59 -242h310l-18 -70h-309l-60 -248h351l-18 -70h-13q-59 -50 -59 -75q0 -27 55 -31l-10 -43q-5 -1 -14 -1q-96 3 -96 59q0 41 66 91h-356z" />
    <glyph glyph-name="eogonek" unicode="&#x119;" horiz-adv-x="510" 
d="M374 104l35 -52q-75 -56 -93 -74q-31 -31 -31 -53q0 -27 55 -31l-11 -43q-5 -1 -14 -1q-95 3 -95 59q0 39 54 83q-22 -2 -34 -2q-91 0 -146 58t-55 156q0 71 27 139.5t74 115.5q73 73 167 73q79 0 125 -52t46 -135q0 -53 -19 -111h-346q-1 -10 -1 -29q0 -70 35 -110.5
t95 -40.5q65 0 132 50zM192 420q-48 -48 -69 -130h276q7 24 7 56q0 54 -26.5 88.5t-77.5 34.5q-58 0 -110 -49z" />
    <glyph glyph-name="Ecaron" unicode="&#x11a;" horiz-adv-x="554" 
d="M578 871l-128 -115h-71l-72 115h64l54 -59l82 59h71zM21 0l171 700h423l-18 -70h-346l-59 -242h310l-18 -70h-309l-60 -248h351l-18 -70h-427z" />
    <glyph glyph-name="ecaron" unicode="&#x11b;" horiz-adv-x="510" 
d="M459 234h-346q-1 -10 -1 -29q0 -70 35 -110.5t95 -40.5q65 0 132 50l35 -52q-80 -62 -169 -62q-91 0 -146 58t-55 156q0 71 27 139.5t74 115.5q73 73 167 73q79 0 125 -52t46 -135q0 -53 -19 -111zM192 420q-48 -48 -69 -130h276q7 24 7 56q0 54 -26.5 88.5t-77.5 34.5
q-58 0 -110 -49zM293 591l-63 131h59l48 -69l85 69h64l-127 -131h-66z" />
    <glyph glyph-name="Gbreve" unicode="&#x11e;" horiz-adv-x="664" 
d="M471 762q-57 0 -88 28.5t-24 78.5h54q6 -47 69 -47q61 0 89 47h60q-17 -50 -60 -78.5t-100 -28.5zM338 -11q-115 0 -191.5 76.5t-76.5 205.5q0 92 35.5 181t98.5 151q105 107 249 107q135 0 216 -99l-57 -51q-64 80 -166 80q-105 0 -186 -83q-51 -51 -80.5 -128.5
t-29.5 -155.5q0 -99 53 -156.5t140 -57.5q76 0 134 36l51 209h-172l18 69h246l-82 -326q-96 -58 -200 -58z" />
    <glyph glyph-name="gbreve" unicode="&#x11f;" horiz-adv-x="566" 
d="M200 -152q-122 0 -214 73l40 55q78 -64 173 -64q77 0 118 44q37 37 54 108l16 64q-77 -91 -170 -91q-73 0 -122.5 50t-49.5 137q0 65 25.5 129t69.5 108q71 71 160 71q113 0 156 -118l27 108h74l-111 -461q-25 -101 -74 -150q-64 -63 -172 -63zM240 100q68 0 121 53
q70 72 70 176q0 58 -34.5 98t-90.5 40q-63 0 -112 -49q-33 -33 -52.5 -84.5t-19.5 -102.5q0 -62 33.5 -96.5t84.5 -34.5zM366 589q-59 0 -89 32t-24 87h55q0 -60 64 -60q61 0 94 60h58q-20 -56 -61.5 -87.5t-96.5 -31.5z" />
    <glyph glyph-name="Gdotaccent" unicode="&#x120;" horiz-adv-x="664" 
d="M427 765l21 87h89l-22 -87h-88zM338 -11q-115 0 -191.5 76.5t-76.5 205.5q0 92 35.5 181t98.5 151q105 107 249 107q135 0 216 -99l-57 -51q-64 80 -166 80q-105 0 -186 -83q-51 -51 -80.5 -128.5t-29.5 -155.5q0 -99 53 -156.5t140 -57.5q76 0 134 36l51 209h-172l18 69
h246l-82 -326q-96 -58 -200 -58z" />
    <glyph glyph-name="gdotaccent" unicode="&#x121;" horiz-adv-x="566" 
d="M200 -152q-122 0 -214 73l40 55q78 -64 173 -64q77 0 118 44q37 37 54 108l16 64q-77 -91 -170 -91q-73 0 -122.5 50t-49.5 137q0 65 25.5 129t69.5 108q71 71 160 71q113 0 156 -118l27 108h74l-111 -461q-25 -101 -74 -150q-64 -63 -172 -63zM240 100q68 0 121 53
q70 72 70 176q0 58 -34.5 98t-90.5 40q-63 0 -112 -49q-33 -33 -52.5 -84.5t-19.5 -102.5q0 -62 33.5 -96.5t84.5 -34.5zM320 593l24 92h83l-24 -92h-83z" />
    <glyph glyph-name="Gcommaaccent" unicode="&#x122;" horiz-adv-x="664" 
d="M200 -231l-2 29q59 13 67 58h-37l19 79h83l-18 -70q-12 -47 -37.5 -68t-74.5 -28zM338 -11q-115 0 -191.5 76.5t-76.5 205.5q0 92 35.5 181t98.5 151q105 107 249 107q135 0 216 -99l-57 -51q-64 80 -166 80q-105 0 -186 -83q-51 -51 -80.5 -128.5t-29.5 -155.5
q0 -99 53 -156.5t140 -57.5q76 0 134 36l51 209h-172l18 69h246l-82 -326q-96 -58 -200 -58z" />
    <glyph glyph-name="gcommaaccent" unicode="&#x123;" horiz-adv-x="566" 
d="M447 756l2 -29q-59 -13 -67 -58h37l-19 -79h-83l18 70q12 47 37.5 68t74.5 28zM200 -152q-122 0 -214 73l40 55q78 -64 173 -64q77 0 118 44q37 37 54 108l16 64q-77 -91 -170 -91q-73 0 -122.5 50t-49.5 137q0 65 25.5 129t69.5 108q71 71 160 71q113 0 156 -118l27 108
h74l-111 -461q-25 -101 -74 -150q-64 -63 -172 -63zM240 100q68 0 121 53q70 72 70 176q0 58 -34.5 98t-90.5 40q-63 0 -112 -49q-33 -33 -52.5 -84.5t-19.5 -102.5q0 -62 33.5 -96.5t84.5 -34.5z" />
    <glyph glyph-name="Hbar" unicode="&#x126;" horiz-adv-x="656" 
d="M82 524l15 59h68l29 117h77l-28 -117h329l28 117h77l-29 -117h68l-16 -59h-66l-128 -524h-77l77 315h-329l-77 -315h-77l128 524h-69zM195 385h329l34 140h-329z" />
    <glyph glyph-name="hbar" unicode="&#x127;" horiz-adv-x="534" 
d="M96 605l13 53h61l16 64h75l-16 -64h151l-13 -53h-151l-39 -161q70 88 157 88q63 0 101 -38t38 -104q0 -32 -13 -87l-72 -303h-75l74 306q9 40 9 68q0 43 -25 67t-69 24q-52 0 -96.5 -43t-61.5 -108l-76 -314h-74l147 605h-61z" />
    <glyph glyph-name="Imacron" unicode="&#x12a;" horiz-adv-x="259" 
d="M28 0l171 700h77l-171 -700h-77zM110 771l16 61h292l-15 -61h-293z" />
    <glyph glyph-name="imacron" unicode="&#x12b;" horiz-adv-x="234" 
d="M16 0l127 522h75l-127 -522h-75zM64 604l16 60h277l-15 -60h-278z" />
    <glyph glyph-name="Ibreve" unicode="&#x12c;" horiz-adv-x="259" 
d="M28 0l171 700h77l-171 -700h-77zM253 754q-57 0 -88 28.5t-24 78.5h54q6 -47 69 -47q61 0 89 47h60q-17 -50 -60 -78.5t-100 -28.5z" />
    <glyph glyph-name="ibreve" unicode="&#x12d;" horiz-adv-x="234" 
d="M16 0l127 522h75l-127 -522h-75zM204 588q-59 0 -89 32t-24 87h55q0 -60 64 -60q61 0 94 60h58q-20 -56 -61.5 -87.5t-96.5 -31.5z" />
    <glyph glyph-name="Iogonek" unicode="&#x12e;" horiz-adv-x="259" 
d="M28 0l171 700h77l-171 -700h-8q-59 -50 -59 -75q0 -27 55 -31l-10 -43q-5 -1 -14 -1q-96 3 -96 59q0 41 66 91h-11z" />
    <glyph glyph-name="iogonek" unicode="&#x12f;" horiz-adv-x="234" 
d="M16 0l128 522h74l-127 -522h-8q-59 -50 -59 -75q0 -27 55 -31l-10 -43q-5 -1 -14 -1q-96 3 -96 59q0 41 66 91h-9zM165 628l22 86h83l-22 -86h-83z" />
    <glyph glyph-name="Idotaccent" unicode="&#x130;" horiz-adv-x="259" 
d="M28 0l171 700h77l-171 -700h-77zM209 757l21 87h89l-22 -87h-88z" />
    <glyph glyph-name="dotlessi" unicode="&#x131;" horiz-adv-x="234" 
d="M16 0l127 522h75l-127 -522h-75z" />
    <glyph glyph-name="Kcommaaccent" unicode="&#x136;" horiz-adv-x="612" 
d="M160 -227l-2 29q59 13 67 58h-37l19 79h83l-18 -70q-12 -47 -37.5 -68t-74.5 -28zM21 0l171 700h77l-99 -402l418 402h101l-326 -308l168 -392h-85l-143 338l-160 -151l-45 -187h-77z" />
    <glyph glyph-name="kcommaaccent" unicode="&#x137;" horiz-adv-x="488" 
d="M86 -229l-2 29q59 13 67 58h-37l19 79h83l-18 -70q-12 -47 -37.5 -68t-74.5 -28zM10 0l176 722h75l-116 -474l286 274h97l-236 -217l114 -305h-82l-93 252l-110 -102l-37 -150h-74z" />
    <glyph glyph-name="Lacute" unicode="&#x139;" horiz-adv-x="510" 
d="M219 754l122 125l74 -34l-127 -91h-69zM21 0l171 700h77l-153 -629h322l-18 -71h-399z" />
    <glyph glyph-name="lacute" unicode="&#x13a;" horiz-adv-x="234" 
d="M209 765l122 125l74 -34l-127 -91h-69zM16 0l177 722h74l-176 -722h-75z" />
    <glyph glyph-name="Lcommaaccent" unicode="&#x13b;" horiz-adv-x="510" 
d="M109 -230l-2 29q59 13 67 58h-37l19 79h83l-18 -70q-12 -47 -37.5 -68t-74.5 -28zM21 0l171 700h77l-153 -629h322l-18 -71h-399z" />
    <glyph glyph-name="lcommaaccent" unicode="&#x13c;" horiz-adv-x="234" 
d="M-44 -230l-2 29q59 13 67 58h-37l19 79h83l-18 -70q-12 -47 -37.5 -68t-74.5 -28zM16 0l177 722h74l-176 -722h-75z" />
    <glyph glyph-name="Lcaron" unicode="&#x13d;" horiz-adv-x="510" 
d="M295 554l50 165h69v-3l-84 -162h-35zM21 0l171 700h77l-153 -629h322l-18 -71h-399z" />
    <glyph glyph-name="lcaron" unicode="&#x13e;" horiz-adv-x="234" 
d="M285 576l50 165h69v-3l-84 -162h-35zM16 0l177 722h74l-176 -722h-75z" />
    <glyph glyph-name="Ldot" unicode="&#x13f;" horiz-adv-x="518" 
d="M363 321l23 92h85l-24 -92h-84zM21 0l171 700h77l-153 -629h322l-18 -71h-399z" />
    <glyph glyph-name="ldot" unicode="&#x140;" horiz-adv-x="298" 
d="M242 321l22 90h77l-22 -90h-77zM16 0l177 722h74l-176 -722h-75z" />
    <glyph glyph-name="Lslash" unicode="&#x141;" horiz-adv-x="542" 
d="M49 267l18 74l73 25l82 334h77l-75 -305l191 65l-18 -75l-191 -65l-60 -249h322l-18 -71h-399l71 292z" />
    <glyph glyph-name="lslash" unicode="&#x142;" horiz-adv-x="275" 
d="M39 287l18 75l75 27l82 333h74l-74 -303l78 28l-19 -74l-77 -29l-84 -344h-75l77 314z" />
    <glyph glyph-name="Nacute" unicode="&#x143;" horiz-adv-x="674" 
d="M417 751l122 125l74 -34l-127 -91h-69zM21 0l171 700h72l222 -563l137 563h75l-171 -700h-63l-228 577l-140 -577h-75z" />
    <glyph glyph-name="nacute" unicode="&#x144;" horiz-adv-x="533" 
d="M306 590l122 142l74 -36l-131 -106h-65zM10 0l127 522h74l-18 -78q70 88 157 88q63 0 101 -38t38 -104q0 -32 -13 -87l-72 -303h-75l74 306q9 40 9 68q0 43 -25 67t-69 24q-52 0 -96.5 -43t-61.5 -108l-76 -314h-74z" />
    <glyph glyph-name="Ncommaaccent" unicode="&#x145;" horiz-adv-x="674" 
d="M173 -227l-2 29q59 13 67 58h-37l19 79h83l-18 -70q-12 -47 -37.5 -68t-74.5 -28zM21 0l171 700h72l222 -563l137 563h75l-171 -700h-63l-228 577l-140 -577h-75z" />
    <glyph glyph-name="ncommaaccent" unicode="&#x146;" horiz-adv-x="533" 
d="M99 -229l-2 29q59 13 67 58h-37l19 79h83l-18 -70q-12 -47 -37.5 -68t-74.5 -28zM10 0l127 522h74l-18 -78q70 88 157 88q63 0 101 -38t38 -104q0 -32 -13 -87l-72 -303h-75l74 306q9 40 9 68q0 43 -25 67t-69 24q-52 0 -96.5 -43t-61.5 -108l-76 -314h-74z" />
    <glyph glyph-name="Ncaron" unicode="&#x147;" horiz-adv-x="674" 
d="M623 868l-128 -115h-71l-72 115h64l54 -59l82 59h71zM21 0l171 700h72l222 -563l137 563h75l-171 -700h-63l-228 577l-140 -577h-75z" />
    <glyph glyph-name="ncaron" unicode="&#x148;" horiz-adv-x="533" 
d="M297 591l-63 131h59l48 -69l85 69h64l-127 -131h-66zM10 0l127 522h74l-18 -78q70 88 157 88q63 0 101 -38t38 -104q0 -32 -13 -87l-72 -303h-75l74 306q9 40 9 68q0 43 -25 67t-69 24q-52 0 -96.5 -43t-61.5 -108l-76 -314h-74z" />
    <glyph glyph-name="Omacron" unicode="&#x14c;" horiz-adv-x="707" 
d="M324 779l16 61h292l-15 -61h-293zM429 711q114 0 182.5 -77t68.5 -200q0 -94 -36 -190.5t-98 -159.5q-98 -96 -224 -96q-114 0 -182.5 77.5t-68.5 200.5q0 94 36 190.5t99 158.5q96 96 223 96zM328 60q89 0 159 70q52 52 83 136.5t31 163.5q0 95 -48 152.5t-130 57.5
q-90 0 -159 -72q-52 -52 -83 -136t-31 -163q0 -94 48 -151.5t130 -57.5z" />
    <glyph glyph-name="omacron" unicode="&#x14d;" horiz-adv-x="548" 
d="M213 605l16 60h277l-15 -60h-278zM310 532q90 0 144 -59.5t54 -157.5q0 -72 -26 -138t-72 -113q-75 -75 -173 -75q-89 0 -143 60.5t-54 157.5q0 72 26 138t72 112q75 75 172 75zM241 56q65 0 113 50q36 37 57.5 93.5t21.5 112.5q0 73 -34.5 113.5t-92.5 40.5
q-62 0 -113 -51q-36 -36 -57.5 -92.5t-21.5 -113.5q0 -73 34.5 -113t92.5 -40z" />
    <glyph glyph-name="Obreve" unicode="&#x14e;" horiz-adv-x="707" 
d="M467 762q-57 0 -88 28.5t-24 78.5h54q6 -47 69 -47q61 0 89 47h60q-17 -50 -60 -78.5t-100 -28.5zM429 711q114 0 182.5 -77t68.5 -200q0 -94 -36 -190.5t-98 -159.5q-98 -96 -224 -96q-114 0 -182.5 77.5t-68.5 200.5q0 94 36 190.5t99 158.5q96 96 223 96zM328 60
q89 0 159 70q52 52 83 136.5t31 163.5q0 95 -48 152.5t-130 57.5q-90 0 -159 -72q-52 -52 -83 -136t-31 -163q0 -94 48 -151.5t130 -57.5z" />
    <glyph glyph-name="obreve" unicode="&#x14f;" horiz-adv-x="548" 
d="M310 532q90 0 144 -59.5t54 -157.5q0 -72 -26 -138t-72 -113q-75 -75 -173 -75q-89 0 -143 60.5t-54 157.5q0 72 26 138t72 112q75 75 172 75zM241 56q65 0 113 50q36 37 57.5 93.5t21.5 112.5q0 73 -34.5 113.5t-92.5 40.5q-62 0 -113 -51q-36 -36 -57.5 -92.5
t-21.5 -113.5q0 -73 34.5 -113t92.5 -40zM354 589q-59 0 -89 32t-24 87h55q0 -60 64 -60q61 0 94 60h58q-20 -56 -61.5 -87.5t-96.5 -31.5z" />
    <glyph glyph-name="Ohungarumlaut" unicode="&#x150;" horiz-adv-x="707" 
d="M429 711q114 0 182.5 -77t68.5 -200q0 -94 -36 -190.5t-98 -159.5q-98 -96 -224 -96q-114 0 -182.5 77.5t-68.5 200.5q0 94 36 190.5t99 158.5q96 96 223 96zM328 60q89 0 159 70q52 52 83 136.5t31 163.5q0 95 -48 152.5t-130 57.5q-90 0 -159 -72q-52 -52 -83 -136
t-31 -163q0 -94 48 -151.5t130 -57.5zM347 762l122 125l72 -34l-128 -91h-66zM487 762l122 125l71 -34l-127 -91h-66z" />
    <glyph glyph-name="ohungarumlaut" unicode="&#x151;" horiz-adv-x="548" 
d="M224 590l123 142l62 -36l-128 -106h-57zM368 590l124 142l62 -36l-129 -106h-57zM310 532q90 0 144 -59.5t54 -157.5q0 -72 -26 -138t-72 -113q-75 -75 -173 -75q-89 0 -143 60.5t-54 157.5q0 72 26 138t72 112q75 75 172 75zM241 56q65 0 113 50q36 37 57.5 93.5
t21.5 112.5q0 73 -34.5 113.5t-92.5 40.5q-62 0 -113 -51q-36 -36 -57.5 -92.5t-21.5 -113.5q0 -73 34.5 -113t92.5 -40z" />
    <glyph glyph-name="OE" unicode="&#x152;" horiz-adv-x="950" 
d="M370 0q-148 0 -228 80q-72 72 -72 202q0 81 31 163t89 141q114 114 303 114h510l-18 -70h-336l-58 -242h299l-17 -70h-299l-61 -248h342l-19 -70h-466zM204 129q60 -58 171 -58h61l136 558h-90q-142 0 -235 -91q-47 -47 -72 -115.5t-25 -136.5q0 -101 54 -157z" />
    <glyph glyph-name="oe" unicode="&#x153;" horiz-adv-x="893" 
d="M842 234h-346q-1 -10 -1 -29q0 -70 35 -110.5t95 -40.5q67 0 134 51l30 -55q-75 -60 -164 -60q-69 0 -117.5 35t-65.5 97q-34 -59 -87.5 -96t-118.5 -37q-88 0 -142 60.5t-54 157.5q0 72 26 138t72 112q75 75 172 75q68 0 113 -36.5t62 -98.5q79 135 205 135
q79 0 124.5 -52t45.5 -135q0 -51 -18 -111zM241 56q65 0 113 50q36 37 57.5 93.5t21.5 112.5q0 73 -34.5 113.5t-92.5 40.5q-62 0 -113 -51q-36 -36 -57.5 -92.5t-21.5 -113.5q0 -73 34.5 -113t92.5 -40zM575 420q-48 -48 -69 -130h277q6 26 6 56q0 54 -26.5 88.5
t-77.5 34.5q-59 0 -110 -49z" />
    <glyph glyph-name="Racute" unicode="&#x154;" horiz-adv-x="616" 
d="M427 0l-114 270h-24h-126l-65 -270h-77l171 700h198q118 0 179 -59q46 -49 46 -124q0 -97 -63 -162q-55 -55 -160 -76l121 -279h-86zM181 338h134q118 0 176 58q46 48 46 116q0 50 -30 79q-37 38 -123 38h-132zM362 754l122 125l74 -34l-127 -91h-69z" />
    <glyph glyph-name="racute" unicode="&#x155;" horiz-adv-x="348" 
d="M224 589l122 142l74 -36l-131 -106h-65zM10 0l127 522h74l-27 -112q88 128 205 120l-21 -79h-5q-76 0 -135.5 -51.5t-82.5 -147.5l-61 -252h-74z" />
    <glyph glyph-name="Rcommaaccent" unicode="&#x156;" horiz-adv-x="616" 
d="M427 0l-114 270h-24h-126l-65 -270h-77l171 700h198q118 0 179 -59q46 -49 46 -124q0 -97 -63 -162q-55 -55 -160 -76l121 -279h-86zM181 338h134q118 0 176 58q46 48 46 116q0 50 -30 79q-37 38 -123 38h-132zM143 -227l-2 29q59 13 67 58h-37l19 79h83l-18 -70
q-12 -47 -37.5 -68t-74.5 -28z" />
    <glyph glyph-name="rcommaaccent" unicode="&#x157;" horiz-adv-x="348" 
d="M-46 -230l-2 29q59 13 67 58h-37l19 79h83l-18 -70q-12 -47 -37.5 -68t-74.5 -28zM10 0l127 522h74l-27 -112q88 128 205 120l-21 -79h-5q-76 0 -135.5 -51.5t-82.5 -147.5l-61 -252h-74z" />
    <glyph glyph-name="Rcaron" unicode="&#x158;" horiz-adv-x="616" 
d="M427 0l-114 270h-24h-126l-65 -270h-77l171 700h198q118 0 179 -59q46 -49 46 -124q0 -97 -63 -162q-55 -55 -160 -76l121 -279h-86zM181 338h134q118 0 176 58q46 48 46 116q0 50 -30 79q-37 38 -123 38h-132zM570 871l-128 -115h-71l-72 115h64l54 -59l82 59h71z" />
    <glyph glyph-name="rcaron" unicode="&#x159;" horiz-adv-x="348" 
d="M214 590l-63 131h59l48 -69l85 69h64l-127 -131h-66zM10 0l127 522h74l-27 -112q88 128 205 120l-21 -79h-5q-76 0 -135.5 -51.5t-82.5 -147.5l-61 -252h-74z" />
    <glyph glyph-name="Sacute" unicode="&#x15a;" horiz-adv-x="541" 
d="M250 -10q-153 0 -246 125l60 49q82 -105 190 -105q59 0 100 35.5t41 86.5q0 37 -26 68t-90 71q-83 53 -118 96.5t-35 99.5q0 74 52 128q66 66 165 66q128 0 216 -103l-55 -53q-74 87 -164 87q-60 0 -97 -34.5t-37 -80.5q0 -37 26.5 -67.5t95.5 -73.5q77 -48 112 -92.5
t35 -101.5q0 -79 -57 -136q-65 -65 -168 -65zM344 762l122 125l74 -34l-127 -91h-69z" />
    <glyph glyph-name="sacute" unicode="&#x15b;" horiz-adv-x="423" 
d="M244 590l122 142l74 -36l-131 -106h-65zM180 -9q-114 0 -192 92l49 49q70 -79 147 -79q39 0 68.5 24t29.5 59q0 26 -19.5 48t-70.5 52q-62 36 -88.5 69t-26.5 78q0 61 47.5 104.5t122.5 43.5q100 0 171 -78l-46 -51q-67 68 -129 68q-41 0 -66.5 -23.5t-25.5 -56.5
q0 -25 18.5 -46t71.5 -53q63 -37 89 -71.5t26 -77.5q0 -64 -51 -107.5t-125 -43.5z" />
    <glyph glyph-name="Scedilla" unicode="&#x15e;" horiz-adv-x="541" 
d="M152 -142l-65 32l97 107q-110 23 -180 118l60 49q82 -105 190 -105q59 0 100 35.5t41 86.5q0 37 -26 68t-90 71q-83 53 -118 96.5t-35 99.5q0 74 52 128q66 66 165 66q128 0 216 -103l-55 -53q-74 87 -164 87q-60 0 -97 -34.5t-37 -80.5q0 -37 26.5 -67.5t95.5 -73.5
q77 -48 112 -92.5t35 -101.5q0 -79 -57 -136q-65 -65 -168 -65h-10z" />
    <glyph glyph-name="scedilla" unicode="&#x15f;" horiz-adv-x="423" 
d="M91 -142l-65 32l97 108q-79 18 -135 85l49 49q70 -79 147 -79q39 0 68.5 24t29.5 59q0 26 -19.5 48t-70.5 52q-62 36 -88.5 69t-26.5 78q0 61 47.5 104.5t122.5 43.5q100 0 171 -78l-46 -51q-67 68 -129 68q-41 0 -66.5 -23.5t-25.5 -56.5q0 -25 18.5 -46t71.5 -53
q63 -37 89 -71.5t26 -77.5q0 -64 -51 -107.5t-125 -43.5z" />
    <glyph glyph-name="Scaron" unicode="&#x160;" horiz-adv-x="541" 
d="M250 -10q-153 0 -246 125l60 49q82 -105 190 -105q59 0 100 35.5t41 86.5q0 37 -26 68t-90 71q-83 53 -118 96.5t-35 99.5q0 74 52 128q66 66 165 66q128 0 216 -103l-55 -53q-74 87 -164 87q-60 0 -97 -34.5t-37 -80.5q0 -37 26.5 -67.5t95.5 -73.5q77 -48 112 -92.5
t35 -101.5q0 -79 -57 -136q-65 -65 -168 -65zM550 879l-128 -115h-71l-72 115h64l54 -59l82 59h71z" />
    <glyph glyph-name="scaron" unicode="&#x161;" horiz-adv-x="423" 
d="M236 591l-63 131h59l48 -69l85 69h64l-127 -131h-66zM180 -9q-114 0 -192 92l49 49q70 -79 147 -79q39 0 68.5 24t29.5 59q0 26 -19.5 48t-70.5 52q-62 36 -88.5 69t-26.5 78q0 61 47.5 104.5t122.5 43.5q100 0 171 -78l-46 -51q-67 68 -129 68q-41 0 -66.5 -23.5
t-25.5 -56.5q0 -25 18.5 -46t71.5 -53q63 -37 89 -71.5t26 -77.5q0 -64 -51 -107.5t-125 -43.5z" />
    <glyph glyph-name="Tcommaaccent" unicode="&#x162;" horiz-adv-x="518" 
d="M94 -230l-2 29q59 13 67 58h-37l19 79h83l-18 -70q-12 -47 -37.5 -68t-74.5 -28zM155 0l153 629h-196l19 71h469l-19 -71h-196l-153 -629h-77z" />
    <glyph glyph-name="tcommaaccent" unicode="&#x163;" horiz-adv-x="344" 
d="M35 -230l-2 29q59 13 67 58h-37l19 79h83l-18 -70q-12 -47 -37.5 -68t-74.5 -28zM168 -7q-49 0 -78.5 24t-29.5 69q0 24 8 56l76 314h-64l16 66h64l37 151h74l-37 -151h132l-16 -66h-132l-77 -320q-4 -15 -4 -32q0 -44 58 -44q29 0 62 14l-16 -67q-31 -14 -73 -14z" />
    <glyph glyph-name="Tcaron" unicode="&#x164;" horiz-adv-x="518" 
d="M545 871l-128 -115h-71l-72 115h64l54 -59l82 59h71zM155 0l153 629h-196l19 71h469l-19 -71h-196l-153 -629h-77z" />
    <glyph glyph-name="tcaron" unicode="&#x165;" horiz-adv-x="344" 
d="M311 576l50 165h69v-3l-84 -162h-35zM168 -7q-49 0 -78.5 24t-29.5 69q0 24 8 56l76 314h-64l16 66h64l37 151h74l-37 -151h132l-16 -66h-132l-77 -320q-4 -15 -4 -32q0 -44 58 -44q29 0 62 14l-16 -67q-31 -14 -73 -14z" />
    <glyph glyph-name="Umacron" unicode="&#x16a;" horiz-adv-x="651" 
d="M294 768l16 61h292l-15 -61h-293zM291 -11q-104 0 -161.5 54t-57.5 145q0 48 15 105l97 407h78l-103 -425q-10 -42 -10 -79q0 -62 38.5 -99t110.5 -37q73 0 124 51q55 55 78 153l106 436h76l-108 -449q-32 -124 -96 -188q-74 -74 -187 -74z" />
    <glyph glyph-name="umacron" unicode="&#x16b;" horiz-adv-x="534" 
d="M185 -10q-64 0 -102 38t-38 105q0 32 13 87l73 302h74l-74 -305q-9 -40 -9 -68q0 -43 25 -67.5t69 -24.5q52 0 97 43.5t60 108.5l77 313h74l-127 -522h-74l19 78q-72 -88 -157 -88zM203 603l16 60h277l-15 -60h-278z" />
    <glyph glyph-name="Ubreve" unicode="&#x16c;" horiz-adv-x="651" 
d="M437 748q-57 0 -88 28.5t-24 78.5h54q6 -47 69 -47q61 0 89 47h60q-17 -50 -60 -78.5t-100 -28.5zM291 -11q-104 0 -161.5 54t-57.5 145q0 48 15 105l97 407h78l-103 -425q-10 -42 -10 -79q0 -62 38.5 -99t110.5 -37q73 0 124 51q55 55 78 153l106 436h76l-108 -449
q-32 -124 -96 -188q-74 -74 -187 -74z" />
    <glyph glyph-name="ubreve" unicode="&#x16d;" horiz-adv-x="534" 
d="M185 -10q-64 0 -102 38t-38 105q0 32 13 87l73 302h74l-74 -305q-9 -40 -9 -68q0 -43 25 -67.5t69 -24.5q52 0 97 43.5t60 108.5l77 313h74l-127 -522h-74l19 78q-72 -88 -157 -88zM344 587q-59 0 -89 32t-24 87h55q0 -60 64 -60q61 0 94 60h58q-20 -56 -61.5 -87.5
t-96.5 -31.5z" />
    <glyph glyph-name="Uring" unicode="&#x16e;" horiz-adv-x="651" 
d="M291 -11q-104 0 -161.5 54t-57.5 145q0 48 15 105l97 407h78l-103 -425q-10 -42 -10 -79q0 -62 38.5 -99t110.5 -37q73 0 124 51q55 55 78 153l106 436h76l-108 -449q-32 -124 -96 -188q-74 -74 -187 -74zM466 921q41 0 67 -23t26 -58q0 -44 -32.5 -74t-81.5 -30
q-40 0 -66 24t-26 59q0 43 32.5 72.5t80.5 29.5zM448 773q30 0 49.5 18.5t19.5 44.5q0 22 -14.5 36t-39.5 14q-29 0 -48.5 -18.5t-19.5 -44.5q0 -22 15 -36t38 -14z" />
    <glyph glyph-name="uring" unicode="&#x16f;" horiz-adv-x="534" 
d="M461 687q0 -43 -32 -74.5t-78 -31.5q-41 0 -67 25t-26 63q0 43 32.5 75t77.5 32q41 0 67 -25t26 -64zM297 671q0 -24 15.5 -40t40.5 -16q29 0 49 21t20 49q0 24 -15 40t-40 16q-29 0 -49.5 -21t-20.5 -49zM185 -10q-64 0 -102 38t-38 105q0 32 13 87l73 302h74l-74 -305
q-9 -40 -9 -68q0 -43 25 -67.5t69 -24.5q52 0 97 43.5t60 108.5l77 313h74l-127 -522h-74l19 78q-72 -88 -157 -88z" />
    <glyph glyph-name="Uhungarumlaut" unicode="&#x170;" horiz-adv-x="651" 
d="M291 -11q-104 0 -161.5 54t-57.5 145q0 48 15 105l97 407h78l-103 -425q-10 -42 -10 -79q0 -62 38.5 -99t110.5 -37q73 0 124 51q55 55 78 153l106 436h76l-108 -449q-32 -124 -96 -188q-74 -74 -187 -74zM317 751l122 125l72 -34l-128 -91h-66zM457 751l122 125l71 -34
l-127 -91h-66z" />
    <glyph glyph-name="uhungarumlaut" unicode="&#x171;" horiz-adv-x="534" 
d="M185 -10q-64 0 -102 38t-38 105q0 32 13 87l73 302h74l-74 -305q-9 -40 -9 -68q0 -43 25 -67.5t69 -24.5q52 0 97 43.5t60 108.5l77 313h74l-127 -522h-74l19 78q-72 -88 -157 -88zM214 588l123 142l62 -36l-128 -106h-57zM358 588l124 142l62 -36l-129 -106h-57z" />
    <glyph glyph-name="Uogonek" unicode="&#x172;" horiz-adv-x="651" 
d="M291 -11h-1q-47 -41 -47 -64q0 -27 55 -31l-10 -43q-5 -1 -14 -1q-96 3 -96 59q0 39 57 85q-78 13 -120.5 64.5t-42.5 129.5q0 48 15 105l97 407h78l-103 -425q-10 -42 -10 -79q0 -62 38.5 -99t110.5 -37q73 0 124 51q55 55 78 153l106 436h76l-108 -449
q-32 -124 -96 -188q-74 -74 -187 -74z" />
    <glyph glyph-name="uogonek" unicode="&#x173;" horiz-adv-x="534" 
d="M185 -10q-64 0 -102 38t-38 105q0 32 13 87l73 302h74l-74 -305q-9 -40 -9 -68q0 -43 25 -67.5t69 -24.5q52 0 97 43.5t60 108.5l77 313h74l-127 -522h-10q-59 -50 -59 -75q0 -27 55 -31l-10 -43q-5 -1 -14 -1q-96 3 -96 59q0 41 66 91h-6l19 78q-72 -88 -157 -88z" />
    <glyph glyph-name="Wcircumflex" unicode="&#x174;" horiz-adv-x="941" 
d="M171 -5l-37 705h78l23 -579l303 581h65l25 -581l302 579h86l-382 -705h-68l-26 566l-301 -566h-68zM441 756l129 115h70l72 -115h-64l-53 59l-83 -59h-71z" />
    <glyph glyph-name="wcircumflex" unicode="&#x175;" horiz-adv-x="742" 
d="M310 590l127 131h66l63 -131h-59l-47 70l-85 -70h-65zM116 -4l-26 526h75l13 -416l218 417h64l17 -417l215 416h76l-284 -526h-67l-18 410l-217 -410h-66z" />
    <glyph glyph-name="Ycircumflex" unicode="&#x176;" horiz-adv-x="566" 
d="M177 0l70 288l-139 412h84l109 -344l275 344h95l-349 -422l-68 -278h-77zM249 753l129 115h70l72 -115h-64l-53 59l-83 -59h-71z" />
    <glyph glyph-name="ycircumflex" unicode="&#x177;" horiz-adv-x="499" 
d="M151 0l-68 522h77l48 -431l239 431h82l-308 -534q-45 -77 -86 -109t-91 -32q-56 0 -100 36l38 55q30 -25 64 -25q27 0 51 19.5t54 67.5zM181 589l127 131h66l63 -131h-59l-47 70l-85 -70h-65z" />
    <glyph glyph-name="Ydieresis" unicode="&#x178;" horiz-adv-x="566" 
d="M177 0l70 288l-139 412h84l109 -344l275 344h95l-349 -422l-68 -278h-77zM264 754l22 87h86l-21 -87h-87zM429 754l22 87h86l-22 -87h-86z" />
    <glyph glyph-name="Zacute" unicode="&#x179;" horiz-adv-x="566" 
d="M-18 0l12 52l508 580h-357l18 68h459l-11 -52l-510 -580h374l-17 -68h-476zM348 754l122 125l74 -34l-127 -91h-69z" />
    <glyph glyph-name="zacute" unicode="&#x17a;" horiz-adv-x="459" 
d="M259 589l122 142l74 -36l-131 -106h-65zM-20 0l11 49l372 411h-266l16 62h364l-11 -49l-374 -410h279l-16 -63h-375z" />
    <glyph glyph-name="Zdotaccent" unicode="&#x17b;" horiz-adv-x="566" 
d="M344 757l21 87h89l-22 -87h-88zM-18 0l12 52l508 580h-357l18 68h459l-11 -52l-510 -580h374l-17 -68h-476z" />
    <glyph glyph-name="zdotaccent" unicode="&#x17c;" horiz-adv-x="459" 
d="M-20 0l11 49l372 411h-266l16 62h364l-11 -49l-374 -410h279l-16 -63h-375zM255 592l24 92h83l-24 -92h-83z" />
    <glyph glyph-name="Zcaron" unicode="&#x17d;" horiz-adv-x="566" 
d="M555 871l-128 -115h-71l-72 115h64l54 -59l82 59h71zM-18 0l12 52l508 580h-357l18 68h459l-11 -52l-510 -580h374l-17 -68h-476z" />
    <glyph glyph-name="zcaron" unicode="&#x17e;" horiz-adv-x="459" 
d="M251 590l-63 131h59l48 -69l85 69h64l-127 -131h-66zM-20 0l11 49l372 411h-266l16 62h364l-11 -49l-374 -410h279l-16 -63h-375z" />
    <glyph glyph-name="florin" unicode="&#x192;" horiz-adv-x="469" 
d="M34 -9q-29 0 -64 11l17 63q23 -9 45 -9q29 0 49.5 21t40.5 69l89 228h-82l16 65h91l52 133q53 137 166 137q45 0 85 -18l-18 -65q-30 16 -66 16q-66 0 -103 -94l-42 -109h132l-15 -65h-142l-98 -253q-28 -68 -65 -99t-88 -31z" />
    <glyph glyph-name="Aringacute" unicode="&#x1fa;" horiz-adv-x="654" 
d="M-36 0l415 669q-34 24 -34 65q0 43 33 73t81 30q41 0 67.5 -23.5t26.5 -59.5q0 -32 -19 -57.5t-50 -36.5l87 -660h-78l-22 185h-311l-113 -185h-83zM204 254h257l-42 357zM441 688q29 0 49 18.5t20 43.5q0 22 -15 36.5t-39 14.5q-29 0 -48.5 -19t-19.5 -45
q0 -22 14.5 -35.5t38.5 -13.5zM441 864l121 108l71 -33l-124 -75h-68z" />
    <glyph glyph-name="aringacute" unicode="&#x1fb;" horiz-adv-x="501" 
d="M343 813l120 120l69 -35l-126 -85h-63zM155 -10q-62 0 -102.5 38t-40.5 103q0 82 53 135q57 57 156 57q69 0 150 -27l3 15q8 37 8 59q0 92 -116 92q-59 0 -123 -27l-18 63q73 30 151 30q85 0 132 -38.5t47 -105.5q0 -31 -12 -84l-72 -300h-73l19 75q-70 -85 -162 -85z
M180 47q57 0 104 42t62 104l13 53q-64 23 -133 23q-64 0 -102 -38q-37 -35 -37 -93q0 -41 25 -66t68 -25zM447 694q0 -43 -32 -74.5t-78 -31.5q-41 0 -67 25t-26 63q0 43 32.5 75t77.5 32q41 0 67 -25t26 -64zM283 678q0 -24 15.5 -40t40.5 -16q29 0 49 21t20 49
q0 24 -15 40t-40 16q-29 0 -49.5 -21t-20.5 -49z" />
    <glyph glyph-name="AEacute" unicode="&#x1fc;" horiz-adv-x="894" 
d="M594 754l122 125l74 -34l-127 -91h-69zM-45 0l513 700h480l-19 -70h-336l-58 -242h300l-17 -70h-300l-60 -248h341l-18 -70h-417l45 185h-234l-134 -185h-86zM226 254h199l92 378h-20z" />
    <glyph glyph-name="aeacute" unicode="&#x1fd;" horiz-adv-x="825" 
d="M556 -10q-65 0 -111 30.5t-67 87.5q-92 -118 -215 -118q-68 0 -109.5 37.5t-41.5 103.5q0 82 53 135q57 57 156 57q69 0 150 -27l3 15q8 40 8 59q0 92 -116 92q-59 0 -123 -27l-18 63q73 30 151 30q67 0 109 -26t54 -74q78 104 184 104q79 0 124 -52t45 -135
q0 -51 -18 -111h-347q-1 -10 -1 -29q0 -70 35.5 -110.5t94.5 -40.5q67 0 132 50l36 -52q-80 -62 -168 -62zM184 47q93 0 179 114q-5 45 1 82q-65 26 -137 26q-65 0 -103 -38q-37 -35 -37 -93q0 -41 26 -66t71 -25zM507 420q-49 -47 -70 -130h277q7 24 7 56q0 54 -26.5 88.5
t-78.5 34.5q-58 0 -109 -49zM435 589l122 142l74 -36l-131 -106h-65z" />
    <glyph glyph-name="Oslashacute" unicode="&#x1fe;" horiz-adv-x="707" 
d="M429 711q114 0 184 -78l74 73h82l-123 -123q34 -65 34 -149q0 -94 -36 -190.5t-98 -159.5q-98 -96 -224 -96q-114 0 -184 78l-74 -72h-82l123 122q-34 65 -34 150q0 94 36 190.5t99 158.5q96 96 223 96zM148 269q0 -56 16 -97l395 407q-49 63 -136 63q-90 0 -160 -72
q-52 -52 -83.5 -137t-31.5 -164zM328 58q89 0 160 71q52 52 83.5 137t31.5 165q0 53 -15 95l-395 -406q48 -62 135 -62zM425 762l122 125l74 -34l-127 -91h-69z" />
    <glyph glyph-name="oslashacute" unicode="&#x1ff;" horiz-adv-x="548" 
d="M310 532q86 0 141 -57l53 51h77l-99 -95q26 -49 26 -116q0 -72 -26 -138t-72 -113q-75 -75 -173 -75q-87 0 -141 57l-53 -52h-77l99 96q-25 52 -25 117q0 72 26 138t72 112q75 75 172 75zM434 312q0 38 -9 66l-279 -283q33 -41 94 -41q65 0 115 52q37 37 58 93t21 113z
M307 468q-63 0 -115 -52q-37 -37 -58 -93.5t-21 -113.5q0 -36 8 -66l279 284q-33 41 -93 41zM310 590l122 142l74 -36l-131 -106h-65z" />
    <glyph glyph-name="Scommaaccent" unicode="&#x218;" horiz-adv-x="541" 
d="M102 -231l-2 29q59 13 67 58h-37l19 79h83l-18 -70q-12 -47 -37.5 -68t-74.5 -28zM250 -10q-153 0 -246 125l60 49q82 -105 190 -105q59 0 100 35.5t41 86.5q0 37 -26 68t-90 71q-83 53 -118 96.5t-35 99.5q0 74 52 128q66 66 165 66q128 0 216 -103l-55 -53
q-74 87 -164 87q-60 0 -97 -34.5t-37 -80.5q0 -37 26.5 -67.5t95.5 -73.5q77 -48 112 -92.5t35 -101.5q0 -79 -57 -136q-65 -65 -168 -65z" />
    <glyph glyph-name="scommaaccent" unicode="&#x219;" horiz-adv-x="423" 
d="M40 -230l-2 29q59 13 67 58h-37l19 79h83l-18 -70q-12 -47 -37.5 -68t-74.5 -28zM180 -9q-114 0 -192 92l49 49q70 -79 147 -79q39 0 68.5 24t29.5 59q0 26 -19.5 48t-70.5 52q-62 36 -88.5 69t-26.5 78q0 61 47.5 104.5t122.5 43.5q100 0 171 -78l-46 -51
q-67 68 -129 68q-41 0 -66.5 -23.5t-25.5 -56.5q0 -25 18.5 -46t71.5 -53q63 -37 89 -71.5t26 -77.5q0 -64 -51 -107.5t-125 -43.5z" />
    <glyph glyph-name="schwa" unicode="&#x259;" horiz-adv-x="510" 
d="M32 177q0 53 19 111h345q2 18 2 29q0 70 -35 110.5t-95 40.5q-65 0 -132 -50l-35 52q80 62 169 62q91 0 146 -58t55 -156q0 -71 -27 -139.5t-74 -115.5q-73 -73 -167 -73q-79 0 -125 52t-46 135zM318 102q47 47 68 130h-275q-7 -24 -7 -56q0 -54 26.5 -88.5t77.5 -34.5
q58 0 110 49z" />
    <glyph glyph-name="circumflex" unicode="&#x2c6;" horiz-adv-x="500" 
d="M203 590l127 131h66l63 -131h-59l-47 70l-85 -70h-65z" />
    <glyph glyph-name="caron" unicode="&#x2c7;" horiz-adv-x="500" 
d="M297 590l-63 131h59l48 -69l85 69h64l-127 -131h-66z" />
    <glyph glyph-name="breve" unicode="&#x2d8;" horiz-adv-x="500" 
d="M337 588q-59 0 -89 32t-24 87h55q0 -60 64 -60q61 0 94 60h58q-20 -56 -61.5 -87.5t-96.5 -31.5z" />
    <glyph glyph-name="dotaccent" unicode="&#x2d9;" horiz-adv-x="500" 
d="M289 592l24 92h83l-24 -92h-83z" />
    <glyph glyph-name="ring" unicode="&#x2da;" horiz-adv-x="500" 
d="M456 694q0 -43 -32 -74.5t-78 -31.5q-41 0 -67 25t-26 63q0 43 32.5 75t77.5 32q41 0 67 -25t26 -64zM292 678q0 -24 15.5 -40t40.5 -16q29 0 49 21t20 49q0 24 -15 40t-40 16q-29 0 -49.5 -21t-20.5 -49z" />
    <glyph glyph-name="ogonek" unicode="&#x2db;" horiz-adv-x="500" 
d="M230 -106l-10 -43q-5 -1 -14 -1q-96 3 -96 59q0 45 82 102l47 -7q-35 -30 -49.5 -47t-14.5 -32q0 -27 55 -31z" />
    <glyph glyph-name="tilde" unicode="&#x2dc;" horiz-adv-x="500" 
d="M452 701l45 -13q-22 -52 -45 -75.5t-55 -23.5q-26 0 -63 23q-32 20 -48 20q-28 0 -53 -48l-45 14q21 52 44.5 75t55.5 23q23 0 63 -22q29 -20 48 -20q27 0 53 47z" />
    <glyph glyph-name="hungarumlaut" unicode="&#x2dd;" horiz-adv-x="500" 
d="M178 589l123 142l62 -36l-128 -106h-57zM322 589l124 142l62 -36l-129 -106h-57z" />
    <glyph glyph-name="commaaccent" unicode="&#x326;" horiz-adv-x="500" 
d="M84 -230l-2 29q59 13 67 58h-37l19 79h83l-18 -70q-12 -47 -37.5 -68t-74.5 -28z" />
    <glyph glyph-name="baht" unicode="&#xe3f;" horiz-adv-x="555" 
d="M13 0l172 700h176q12 0 32 -2l31 81h58l-36 -91q54 -17 82.5 -55.5t28.5 -92.5q0 -77 -49 -126.5t-126 -65.5q112 -32 112 -138q0 -95 -76.5 -152.5t-205.5 -57.5h-20l-44 -118h-59l44 118h-120zM423 213q0 47 -30 75.5t-86 33.5l-94 -256h12q94 0 146 39t52 108z
M178 383h101l93 250q-6 1 -17 1h-115zM100 66h63l94 257h-94zM485 530q0 71 -66 94l-89 -239q73 8 114 47t41 98z" />
    <glyph glyph-name="Wgrave" unicode="&#x1e80;" horiz-adv-x="941" 
d="M548 754l-90 91l75 34l69 -125h-54zM171 -5l-37 705h78l23 -579l303 581h65l25 -581l302 579h86l-382 -705h-68l-26 566l-301 -566h-68z" />
    <glyph glyph-name="wgrave" unicode="&#x1e81;" horiz-adv-x="742" 
d="M116 -4l-26 526h75l13 -416l218 417h64l17 -417l215 416h76l-284 -526h-67l-18 410l-217 -410h-66zM408 589l-83 106l74 36l61 -142h-52z" />
    <glyph glyph-name="Wacute" unicode="&#x1e82;" horiz-adv-x="941" 
d="M544 754l122 125l74 -34l-127 -91h-69zM171 -5l-37 705h78l23 -579l303 581h65l25 -581l302 579h86l-382 -705h-68l-26 566l-301 -566h-68z" />
    <glyph glyph-name="wacute" unicode="&#x1e83;" horiz-adv-x="742" 
d="M406 589l122 142l74 -36l-131 -106h-65zM116 -4l-26 526h75l13 -416l218 417h64l17 -417l215 416h76l-284 -526h-67l-18 410l-217 -410h-66z" />
    <glyph glyph-name="Wdieresis" unicode="&#x1e84;" horiz-adv-x="941" 
d="M457 757l22 87h86l-21 -87h-87zM622 757l22 87h86l-22 -87h-86zM171 -5l-37 705h78l23 -579l303 581h65l25 -581l302 579h86l-382 -705h-68l-26 566l-301 -566h-68z" />
    <glyph glyph-name="wdieresis" unicode="&#x1e85;" horiz-adv-x="742" 
d="M324 592l23 90h83l-23 -90h-83zM480 592l23 90h81l-22 -90h-82zM116 -4l-26 526h75l13 -416l218 417h64l17 -417l215 416h76l-284 -526h-67l-18 410l-217 -410h-66z" />
    <glyph glyph-name="Ygrave" unicode="&#x1ef2;" horiz-adv-x="566" 
d="M177 0l70 288l-139 412h84l109 -344l275 344h95l-349 -422l-68 -278h-77zM357 751l-90 91l75 34l69 -125h-54z" />
    <glyph glyph-name="ygrave" unicode="&#x1ef3;" horiz-adv-x="499" 
d="M151 0l-68 522h77l48 -431l239 431h82l-308 -534q-45 -77 -86 -109t-91 -32q-56 0 -100 36l38 55q30 -25 64 -25q27 0 51 19.5t54 67.5zM280 588l-83 106l74 36l61 -142h-52z" />
    <glyph glyph-name="enspace" unicode="&#x2002;" horiz-adv-x="500" 
 />
    <glyph glyph-name="emspace" unicode="&#x2003;" horiz-adv-x="1000" 
 />
    <glyph glyph-name="threeperemspace" unicode="&#x2004;" horiz-adv-x="333" 
 />
    <glyph glyph-name="fourperemspace" unicode="&#x2005;" horiz-adv-x="250" 
 />
    <glyph glyph-name="figurespace" unicode="&#x2007;" horiz-adv-x="530" 
 />
    <glyph glyph-name="thinspace" unicode="&#x2009;" horiz-adv-x="133" 
 />
    <glyph glyph-name="hairspace" unicode="&#x200a;" horiz-adv-x="75" 
 />
    <glyph glyph-name="endash" unicode="&#x2013;" horiz-adv-x="489" 
d="M56 263l18 74h378l-18 -74h-378z" />
    <glyph glyph-name="emdash" unicode="&#x2014;" horiz-adv-x="801" 
d="M56 263l18 74h689l-18 -74h-689z" />
    <glyph glyph-name="quoteleft" unicode="&#x2018;" horiz-adv-x="230" 
d="M115 479l23 90q15 63 46.5 93t91.5 42l9 -36q-42 -11 -63 -31t-27 -53h37l-26 -105h-91z" />
    <glyph glyph-name="quoteright" unicode="&#x2019;" horiz-adv-x="230" 
d="M104 476l-9 35q80 21 90 85h-37l26 104h90l-22 -89q-15 -63 -46.5 -93t-91.5 -42z" />
    <glyph glyph-name="quotesinglbase" unicode="&#x201a;" horiz-adv-x="230" 
d="M-38 -120l-9 35q80 22 90 85h-37l26 104h90l-22 -89q-15 -63 -46.5 -93t-91.5 -42z" />
    <glyph glyph-name="quotedblleft" unicode="&#x201c;" horiz-adv-x="415" 
d="M116 479l21 90q16 63 48 93t91 41l8 -35q-42 -12 -62.5 -32t-25.5 -53h36l-26 -104h-90zM300 479l22 90q16 63 47.5 93t90.5 41l9 -35q-42 -12 -62.5 -32t-26.5 -53h36l-25 -104h-91z" />
    <glyph glyph-name="quotedblright" unicode="&#x201d;" horiz-adv-x="415" 
d="M103 476l-8 35q42 11 63 31.5t26 53.5h-36l26 104h90l-21 -89q-16 -63 -48 -93t-92 -42zM288 476l-8 35q42 11 62.5 31t26.5 54h-36l25 104h91l-22 -89q-16 -63 -47.5 -93t-91.5 -42z" />
    <glyph glyph-name="quotedblbase" unicode="&#x201e;" horiz-adv-x="414" 
d="M-38 -120l-9 35q80 22 90 85h-37l26 104h90l-22 -89q-15 -63 -46.5 -93t-91.5 -42zM147 -120l-9 35q79 22 89 85h-36l26 104h91l-22 -89q-16 -63 -47.5 -93t-91.5 -42z" />
    <glyph glyph-name="dagger" unicode="&#x2020;" horiz-adv-x="356" 
d="M138 238l75 283l-113 -9l14 55l108 -9l25 142h61l-46 -142l113 9l-13 -55l-110 9l-60 -283h-54z" />
    <glyph glyph-name="daggerdbl" unicode="&#x2021;" horiz-adv-x="371" 
d="M83 0l45 142l-112 -9l13 55l109 -9l33 171l50 171l-114 -9l14 55l110 -9l24 142h60l-44 -142l113 9l-14 -55l-109 9l-33 -171l-50 -171l114 9l-14 -55l-108 9l-26 -142h-61z" />
    <glyph glyph-name="bullet" unicode="&#x2022;" horiz-adv-x="429" 
d="M253 482q43 0 70 -27.5t27 -73.5q0 -70 -48 -120q-40 -38 -88 -38q-44 0 -70.5 27.5t-26.5 74.5q0 73 48 119q37 38 88 38z" />
    <glyph glyph-name="ellipsis" unicode="&#x2026;" horiz-adv-x="669" 
d="M6 0l26 104h90l-26 -104h-90zM226 0l26 104h90l-26 -104h-90zM446 0l26 104h90l-25 -104h-91z" />
    <glyph glyph-name="perthousand" unicode="&#x2030;" horiz-adv-x="1075" 
d="M51 0l320 364l289 336h68l-318 -364l-289 -336h-70zM210 354q-56 0 -90.5 39.5t-34.5 103.5q0 100 63 163q47 47 108 47q56 0 91.5 -39.5t35.5 -103.5q0 -97 -64 -163q-47 -47 -109 -47zM215 408q32 0 61 27q47 49 47 127q0 43 -19 67t-51 24q-34 0 -61 -27
q-48 -48 -48 -126q0 -44 18.5 -68t52.5 -24zM523 -7q-56 0 -90.5 39.5t-34.5 103.5q0 98 62 163q49 47 109 47q56 0 91 -39.5t35 -103.5q0 -100 -63 -163q-47 -47 -109 -47zM528 47q32 0 61 27q47 49 47 126q0 43 -19 67.5t-52 24.5t-60 -27q-48 -48 -48 -127
q0 -43 18.5 -67t52.5 -24zM870 -7q-56 0 -91 39.5t-35 103.5q0 97 63 163q47 47 108 47q56 0 91.5 -39.5t35.5 -103.5q0 -99 -64 -163q-47 -47 -108 -47zM874 47q34 0 61 27q48 50 48 126q0 43 -19 67.5t-52 24.5q-34 0 -61 -27q-48 -48 -48 -127q0 -43 19 -67t52 -24z" />
    <glyph glyph-name="guilsinglleft" unicode="&#x2039;" horiz-adv-x="299" 
d="M142 40l-102 212l2 8l208 215l44 -39l-170 -188l75 -182z" />
    <glyph glyph-name="guilsinglright" unicode="&#x203a;" horiz-adv-x="299" 
d="M154 474l102 -212l-2 -8l-208 -215l-44 39l170 188l-75 182z" />
    <glyph glyph-name="fraction" unicode="&#x2044;" horiz-adv-x="88" 
d="M-277 0l304 359l283 341h55l-305 -359l-282 -341h-55z" />
    <glyph glyph-name="zero.sup" unicode="&#x2070;" 
d="M409 691q0 -56 -21.5 -119t-60.5 -101q-43 -43 -96 -43q-50 0 -79 34.5t-29 92.5q0 56 22 119t60 101q41 44 96 44q50 0 79 -35t29 -93zM176 557q0 -82 60 -82q27 0 52 25q32 31 50.5 88.5t18.5 101.5q0 39 -15.5 60t-44.5 21t-53 -24q-32 -31 -50 -88t-18 -102z" />
    <glyph glyph-name="four.sup" unicode="&#x2074;" 
d="M266 435l19 83h-172l4 45l229 252h60l-63 -255h48l-10 -42h-48l-21 -83h-46zM169 559h128l45 192h-2z" />
    <glyph glyph-name="five.sup" unicode="&#x2075;" 
d="M233 428q-38 0 -72 16.5t-54 45.5l36 32q38 -48 92 -48q39 0 65 25.5t26 61.5q0 30 -20 46t-52 16q-33 0 -63 -16l-33 23l57 181h202l-12 -49h-159l-34 -106q26 11 55 11q51 0 81.5 -27.5t30.5 -76.5q0 -56 -41 -95.5t-105 -39.5z" />
    <glyph glyph-name="six.sup" unicode="&#x2076;" 
d="M239 428q-53 0 -84.5 33t-31.5 96q0 53 21.5 115t59.5 100q47 47 110 47q59 0 98 -41l-29 -38q-31 33 -72 33q-42 0 -73 -33q-36 -36 -55 -104q36 40 90 40q42 0 71 -26.5t29 -74.5q0 -59 -38 -103t-96 -44zM240 472q36 0 60 29t24 68q0 30 -17.5 47.5t-46.5 17.5
q-35 0 -59 -24q-27 -25 -27 -68q0 -33 18 -51.5t48 -18.5z" />
    <glyph glyph-name="seven.sup" unicode="&#x2077;" 
d="M130 434l230 328h-183l12 49h240l-10 -40l-232 -337h-57z" />
    <glyph glyph-name="eight.sup" unicode="&#x2078;" 
d="M240 428q-55 0 -91 28t-36 72q0 43 26.5 71.5t70.5 36.5q-47 28 -47 77q0 44 36.5 75t91.5 31q52 0 85 -27t33 -70q0 -37 -23 -63.5t-60 -35.5q54 -25 54 -82q0 -47 -39 -80t-101 -33zM243 471q38 0 62.5 20t24.5 52q0 27 -21.5 45.5t-57.5 18.5q-39 0 -63.5 -20.5
t-25.5 -52.5q0 -27 22.5 -45t58.5 -18zM283 649q35 0 56.5 19.5t21.5 48.5q0 25 -19.5 42.5t-50.5 17.5q-34 0 -56 -19.5t-22 -48.5q-1 -26 18.5 -43t51.5 -17z" />
    <glyph glyph-name="nine.sup" unicode="&#x2079;" 
d="M221 427q-61 0 -105 46l29 38q36 -37 78 -37q44 0 74 32q35 36 53 101q-32 -41 -90 -41q-42 0 -71 27t-29 76q0 60 37.5 104.5t96.5 44.5q53 0 85 -33t32 -96q0 -53 -21.5 -114.5t-59.5 -99.5q-48 -48 -109 -48zM274 609q35 0 58 23q28 26 28 70q0 34 -18.5 53.5
t-48.5 19.5q-36 -1 -59.5 -30.5t-23.5 -69.5q0 -31 17.5 -48.5t46.5 -17.5z" />
    <glyph glyph-name="zero.inf" unicode="&#x2080;" 
d="M273 123q0 -56 -21.5 -119t-60.5 -101q-43 -43 -96 -43q-50 0 -79 34.5t-29 92.5q0 56 22 119t60 101q41 44 96 44q50 0 79 -35t29 -93zM40 -11q0 -82 60 -82q27 0 52 25q32 31 50.5 88.5t18.5 101.5q0 39 -15.5 60t-44.5 21t-53 -24q-32 -31 -50 -88t-18 -102z" />
    <glyph glyph-name="one.inf" unicode="&#x2081;" horiz-adv-x="287" 
d="M43 -132l79 321l-86 -33l-1 48l110 43h42l-93 -379h-51z" />
    <glyph glyph-name="two.inf" unicode="&#x2082;" 
d="M-44 -132l11 41l186 153q60 51 60 89q0 25 -17 39t-46 14q-43 0 -92 -47l-30 35q59 59 126 59q50 0 80.5 -27t30.5 -69q0 -33 -18 -61t-64 -64l-143 -115h180l-12 -47h-252z" />
    <glyph glyph-name="three.inf" unicode="&#x2083;" 
d="M95 -140q-87 0 -128 64l36 31q40 -50 93 -50q37 0 61 22t24 53q0 63 -90 63h-15l-5 31l140 122h-165l12 47h232l-9 -39l-146 -124q45 -6 71.5 -30.5t26.5 -65.5q0 -53 -39.5 -88.5t-98.5 -35.5z" />
    <glyph glyph-name="four.inf" unicode="&#x2084;" 
d="M130 -133l19 83h-172l4 45l229 252h60l-63 -255h48l-10 -42h-48l-21 -83h-46zM33 -9h128l45 192h-2z" />
    <glyph glyph-name="five.inf" unicode="&#x2085;" 
d="M96 -140q-38 0 -72 16.5t-54 45.5l36 32q38 -48 92 -48q39 0 65 25.5t26 61.5q0 30 -20 46t-52 16q-33 0 -63 -16l-33 23l57 181h202l-12 -49h-159l-34 -106q26 11 55 11q51 0 81.5 -27.5t30.5 -76.5q0 -56 -41 -95.5t-105 -39.5z" />
    <glyph glyph-name="six.inf" unicode="&#x2086;" 
d="M103 -140q-53 0 -84.5 33t-31.5 96q0 53 21.5 115t59.5 100q47 47 110 47q59 0 98 -41l-29 -38q-31 33 -72 33q-42 0 -73 -33q-36 -36 -55 -104q36 40 90 40q42 0 71 -26.5t29 -74.5q0 -59 -38 -103t-96 -44zM104 -96q36 0 60 29t24 68q0 30 -17.5 47.5t-46.5 17.5
q-35 0 -59 -24q-27 -25 -27 -68q0 -33 18 -51.5t48 -18.5z" />
    <glyph glyph-name="seven.inf" unicode="&#x2087;" 
d="M-2 -134l230 328h-183l12 49h240l-10 -40l-232 -337h-57z" />
    <glyph glyph-name="eight.inf" unicode="&#x2088;" 
d="M104 -140q-55 0 -91 28t-36 72q0 43 26.5 71.5t70.5 36.5q-47 28 -47 77q0 44 36.5 75t91.5 31q52 0 85 -27t33 -70q0 -37 -23 -63.5t-60 -35.5q54 -25 54 -82q0 -47 -39 -80t-101 -33zM107 -97q38 0 62.5 20t24.5 52q0 27 -21.5 45.5t-57.5 18.5q-39 0 -63.5 -20.5
t-25.5 -52.5q0 -27 22.5 -45t58.5 -18zM147 81q35 0 56.5 19.5t21.5 48.5q0 25 -19.5 42.5t-50.5 17.5q-34 0 -56 -19.5t-22 -48.5q-1 -26 18.5 -43t51.5 -17z" />
    <glyph glyph-name="nine.inf" unicode="&#x2089;" 
d="M85 -141q-61 0 -105 46l29 38q36 -37 78 -37q44 0 74 32q35 36 53 101q-32 -41 -90 -41q-42 0 -71 27t-29 76q0 60 37.5 104.5t96.5 44.5q53 0 85 -33t32 -96q0 -53 -21.5 -114.5t-59.5 -99.5q-48 -48 -109 -48zM138 41q35 0 58 23q28 26 28 70q0 34 -18.5 53.5
t-48.5 19.5q-36 -1 -59.5 -30.5t-23.5 -69.5q0 -31 17.5 -48.5t46.5 -17.5z" />
    <glyph glyph-name="colonmonetary" unicode="&#x20a1;" horiz-adv-x="531" 
d="M532 779h50l-47 -121q27 -21 50 -48l-46 -51q-21 23 -33 33l-200 -530q63 5 128 56l35 -54q-83 -67 -179 -67h-6l-43 -115h-51l46 120q-39 9 -70 27l-55 -147h-50l67 177q-73 73 -73 203q0 99 35 194.5t97 158.5q81 81 185 87l29 77h50l-29 -78q37 -4 72 -20zM190 99
q29 -26 72 -34l209 551q-36 20 -76 21zM129 264q0 -78 31 -129l188 500q-56 -11 -108 -61q-51 -52 -81.5 -137.5t-29.5 -172.5z" />
    <glyph glyph-name="naira" unicode="&#x20a6;" horiz-adv-x="721" 
d="M680 228h-93l-55 -228h-87l-62 228h-194l-56 -228h-72l55 228h-90l14 54h89l34 140h-90l14 54h89l55 224h94l61 -224h190l55 224h72l-55 -224h92l-13 -54h-92l-35 -140h93zM235 423l-34 -142h168l-38 142h-96zM399 423l38 -142h93l34 142h-165zM280 608l-32 -134h69
l-36 134h-1zM485 102h2l31 128h-67z" />
    <glyph glyph-name="rupee" unicode="&#x20a8;" horiz-adv-x="933" 
d="M360 0l-90 268q-4 -1 -127 -1l-64 -267h-73l171 700h152q101 0 158 -50t57 -137q0 -91 -57 -153.5t-145 -83.5l98 -276h-80zM159 331h102q94 0 150.5 49t56.5 132q0 58 -36.5 89.5t-104.5 31.5h-95zM793 135q0 27 -19 50t-67 52q-59 37 -85 69t-26 76q0 62 46.5 105.5
t122.5 43.5q91 0 163 -70l-42 -50q-63 60 -125 60q-43 0 -68.5 -23.5t-25.5 -57.5q0 -26 18 -47.5t69 -53.5q60 -37 85 -70.5t25 -76.5q0 -64 -50 -108t-122 -44q-113 0 -190 88l47 48q69 -75 147 -75q40 0 68.5 23.5t28.5 60.5z" />
    <glyph glyph-name="won" unicode="&#x20a9;" horiz-adv-x="957" 
d="M922 230h-154l-111 -233h-90l-2 233h-188l-114 -233h-91l2 233h-153l13 54h141l1 135h-109l14 54h96l3 227h78l-8 -227h176l111 229h91v-229h176l102 227h86l-108 -227h98l-13 -54h-111l-64 -135h141zM468 420l-66 -138h164v138h-98zM242 284h94l64 136h-154zM628 420
v-136h94l60 136h-154zM235 79h4l71 151h-70zM629 79h4l66 151h-71zM561 613l-67 -140h72v140h-5z" />
    <glyph glyph-name="sheqel" unicode="&#x20aa;" horiz-adv-x="555" 
d="M-2 0l126 517h132q134 0 134 -110q0 -30 -8 -61l-40 -163h-52l35 143q7 29 7 55q0 41 -22 56.5t-65 15.5h-75l-110 -453h-62zM321 0q-155 0 -139 159l18 183h50l-15 -162q-5 -65 15.5 -90.5t73.5 -25.5h59l110 453h62l-126 -517h-108z" />
    <glyph glyph-name="Euro" unicode="&#x20ac;" horiz-adv-x="595" 
d="M66 408l14 58h66q37 100 100 162q80 82 192 82q70 0 119 -34.5t75 -91.5l-63 -36q-50 92 -139 92q-71 0 -127 -56q-47 -47 -74 -118h233l-15 -58h-237q-16 -55 -20 -109h231l-15 -60h-218q2 -83 40 -131t104 -48q75 0 144 69l49 -48q-86 -91 -196 -91q-97 0 -157 66.5
t-63 182.5h-84l15 60h71q5 55 18 109h-63z" />
    <glyph glyph-name="peso" unicode="&#x20b1;" horiz-adv-x="639" 
d="M664 444h-80q-16 -75 -66 -125q-85 -83 -238 -83h-94l-57 -236h-78l109 444h-90l14 53h89l50 203h140q119 0 177 -58q50 -50 50 -137v-8h88zM200 302h84q116 0 175 59q33 32 46 85h-270zM281 632l-34 -138h265v10q0 58 -31 89q-39 39 -120 39h-80z" />
    <glyph glyph-name="published" unicode="&#x2117;" horiz-adv-x="736" 
d="M331 545h95q60 0 94.5 -27.5t34.5 -80.5q0 -63 -46.5 -102t-125.5 -39h-61l-31 -127h-53zM501 434q0 64 -75 64h-56l-37 -154h55q50 0 81 23t32 67zM429 712q130 0 208.5 -86.5t78.5 -217.5q0 -88 -32 -173t-91 -145q-102 -102 -242 -102q-130 0 -208.5 86.5t-78.5 217.5
q0 89 32 174t91 144q102 102 242 102zM352 19q125 0 215 90q56 56 85.5 136.5t29.5 162.5q1 116 -67 194.5t-189 78.5q-126 0 -214 -90q-56 -55 -85.5 -135t-30.5 -163q0 -117 68.5 -195.5t187.5 -78.5z" />
    <glyph glyph-name="servicemark" unicode="&#x2120;" horiz-adv-x="617" 
d="M181 385q-64 0 -111 58l32 28q38 -49 82 -49q25 0 42.5 14t17.5 34q0 15 -11 28t-40 31q-40 23 -55 42.5t-15 45.5q0 32 25 59q29 29 75 29q56 0 100 -49l-29 -30q-39 42 -75 42q-24 0 -39 -13.5t-15 -32.5q0 -17 12 -29t44 -31q65 -39 65 -87q0 -34 -26 -60
q-30 -30 -79 -30zM329 390l78 310h44l49 -162l125 162h52l-78 -310h-41l59 239l-130 -166h-5l-51 166l-59 -239h-43z" />
    <glyph glyph-name="trademark" unicode="&#x2122;" horiz-adv-x="601" 
d="M127 390l66 269h-83l12 41h208l-11 -41h-83l-67 -269h-42zM312 390l78 310h44l49 -162l126 162h51l-77 -310h-42l59 239l-130 -166h-5l-51 166l-59 -239h-43z" />
    <glyph glyph-name="onethird" unicode="&#x2153;" horiz-adv-x="728" 
d="M487 -8q-87 0 -128 64l36 31q40 -50 93 -50q37 0 61 22t24 53q0 63 -90 63h-15l-5 31l140 122h-165l12 47h232l-9 -39l-146 -124q45 -6 71.5 -30.5t26.5 -65.5q0 -53 -39.5 -88.5t-98.5 -35.5zM133 325l77 322l-85 -33v47l109 43h41l-92 -379h-50zM7 0l304 359l283 341
h55l-305 -359l-282 -341h-55z" />
    <glyph glyph-name="twothirds" unicode="&#x2154;" horiz-adv-x="794" 
d="M554 -8q-87 0 -128 64l36 31q40 -50 93 -50q37 0 61 22t24 53q0 63 -90 63h-15l-5 31l140 122h-165l12 47h232l-9 -39l-146 -124q45 -6 71.5 -30.5t26.5 -65.5q0 -53 -39.5 -88.5t-98.5 -35.5zM38 325l10 41l187 153q59 50 59 89q0 25 -17 39t-46 14q-40 0 -91 -47
l-31 35q59 59 126 59q51 0 81.5 -27t30.5 -69q0 -32 -18.5 -60.5t-64.5 -64.5l-142 -116h179l-11 -46h-252zM76 0l304 359l283 341h55l-305 -359l-282 -341h-55z" />
    <glyph glyph-name="onefifth" unicode="&#x2155;" horiz-adv-x="728" 
d="M484 -8q-38 0 -72 16.5t-54 45.5l36 32q38 -48 92 -48q39 0 65 25.5t26 61.5q0 30 -20 46t-52 16q-33 0 -63 -16l-33 23l57 181h202l-12 -49h-159l-34 -106q26 11 55 11q51 0 81.5 -27.5t30.5 -76.5q0 -56 -41 -95.5t-105 -39.5zM133 325l77 322l-85 -33v47l109 43h41
l-92 -379h-50zM10 0l304 359l283 341h55l-305 -359l-282 -341h-55z" />
    <glyph glyph-name="twofifths" unicode="&#x2156;" horiz-adv-x="794" 
d="M555 -8q-38 0 -72 16.5t-54 45.5l36 32q38 -48 92 -48q39 0 65 25.5t26 61.5q0 30 -20 46t-52 16q-33 0 -63 -16l-33 23l57 181h202l-12 -49h-159l-34 -106q26 11 55 11q51 0 81.5 -27.5t30.5 -76.5q0 -56 -41 -95.5t-105 -39.5zM84 0l304 359l283 341h55l-305 -359
l-282 -341h-55zM38 325l10 41l187 153q59 50 59 89q0 25 -17 39t-46 14q-40 0 -91 -47l-31 35q59 59 126 59q51 0 81.5 -27t30.5 -69q0 -32 -18.5 -60.5t-64.5 -64.5l-142 -116h179l-11 -46h-252z" />
    <glyph glyph-name="threefifths" unicode="&#x2157;" horiz-adv-x="794" 
d="M555 -8q-38 0 -72 16.5t-54 45.5l36 32q38 -48 92 -48q39 0 65 25.5t26 61.5q0 30 -20 46t-52 16q-33 0 -63 -16l-33 23l57 181h202l-12 -49h-159l-34 -106q26 11 55 11q51 0 81.5 -27.5t30.5 -76.5q0 -56 -41 -95.5t-105 -39.5zM71 0l304 359l283 341h55l-305 -359
l-282 -341h-55zM174 317q-87 0 -128 64l35 31q38 -50 94 -50q37 0 61 22t24 53q0 63 -91 63h-14l-5 31l139 122h-165l12 47h233l-10 -39l-146 -124q45 -6 71.5 -30.5t26.5 -65.5q0 -53 -39 -88.5t-98 -35.5z" />
    <glyph glyph-name="fourfifths" unicode="&#x2158;" horiz-adv-x="794" 
d="M209 324l19 82h-172l5 45l229 253h59l-62 -255h48l-11 -43h-48l-20 -82h-47zM113 449h126l47 190h-2zM555 -8q-38 0 -72 16.5t-54 45.5l36 32q38 -48 92 -48q39 0 65 25.5t26 61.5q0 30 -20 46t-52 16q-33 0 -63 -16l-33 23l57 181h202l-12 -49h-159l-34 -106
q26 11 55 11q51 0 81.5 -27.5t30.5 -76.5q0 -56 -41 -95.5t-105 -39.5zM83 0l304 359l283 341h55l-305 -359l-282 -341h-55z" />
    <glyph glyph-name="onesixth" unicode="&#x2159;" horiz-adv-x="728" 
d="M488 -8q-53 0 -84.5 33t-31.5 96q0 53 21.5 115t59.5 100q47 47 110 47q59 0 98 -41l-29 -38q-31 33 -72 33q-42 0 -73 -33q-36 -36 -55 -104q36 40 90 40q42 0 71 -26.5t29 -74.5q0 -59 -38 -103t-96 -44zM17 0l304 359l283 341h55l-305 -359l-282 -341h-55zM133 325
l77 322l-85 -33v47l109 43h41l-92 -379h-50zM489 36q36 0 60 29t24 68q0 30 -17.5 47.5t-46.5 17.5q-35 0 -59 -24q-27 -25 -27 -68q0 -33 18 -51.5t48 -18.5z" />
    <glyph glyph-name="fivesixths" unicode="&#x215a;" horiz-adv-x="794" 
d="M560 -8q-53 0 -84.5 33t-31.5 96q0 53 21.5 115t59.5 100q47 47 110 47q59 0 98 -41l-29 -38q-31 33 -72 33q-42 0 -73 -33q-36 -36 -55 -104q36 40 90 40q42 0 71 -26.5t29 -74.5q0 -59 -38 -103t-96 -44zM176 317q-38 0 -72.5 17t-53.5 45l36 32q36 -48 92 -48
q39 0 64.5 25.5t25.5 61.5q0 30 -19.5 46t-51.5 16q-34 0 -63 -17l-34 24l57 181h202l-11 -49h-159l-35 -106q26 11 56 11q50 0 80.5 -27.5t30.5 -76.5q0 -55 -41 -95t-104 -40zM75 0l304 359l283 341h55l-305 -359l-282 -341h-55zM561 36q36 0 60 29t24 68q0 30 -17.5 47.5
t-46.5 17.5q-35 0 -59 -24q-27 -25 -27 -68q0 -33 18 -51.5t48 -18.5z" />
    <glyph glyph-name="oneeighth" unicode="&#x215b;" horiz-adv-x="728" 
d="M490 -8q-55 0 -91 28t-36 72q0 43 26.5 71.5t70.5 36.5q-47 28 -47 77q0 44 36.5 75t91.5 31q52 0 85 -27t33 -70q0 -37 -23 -63.5t-60 -35.5q54 -25 54 -82q0 -47 -39 -80t-101 -33zM493 35q38 0 62.5 20t24.5 52q0 27 -21.5 45.5t-57.5 18.5q-39 0 -63.5 -20.5
t-25.5 -52.5q0 -27 22.5 -45t58.5 -18zM533 213q35 0 56.5 19.5t21.5 48.5q0 25 -19.5 42.5t-50.5 17.5q-34 0 -56 -19.5t-22 -48.5q-1 -26 18.5 -43t51.5 -17zM133 325l77 322l-85 -33v47l109 43h41l-92 -379h-50zM15 0l304 359l283 341h55l-305 -359l-282 -341h-55z" />
    <glyph glyph-name="threeeighths" unicode="&#x215c;" horiz-adv-x="794" 
d="M562 -8q-55 0 -91 28t-36 72q0 43 26.5 71.5t70.5 36.5q-47 28 -47 77q0 44 36.5 75t91.5 31q52 0 85 -27t33 -70q0 -37 -23 -63.5t-60 -35.5q54 -25 54 -82q0 -47 -39 -80t-101 -33zM565 35q38 0 62.5 20t24.5 52q0 27 -21.5 45.5t-57.5 18.5q-39 0 -63.5 -20.5
t-25.5 -52.5q0 -27 22.5 -45t58.5 -18zM605 213q35 0 56.5 19.5t21.5 48.5q0 25 -19.5 42.5t-50.5 17.5q-34 0 -56 -19.5t-22 -48.5q-1 -26 18.5 -43t51.5 -17zM75 0l304 359l283 341h55l-305 -359l-282 -341h-55zM176 317q-87 0 -128 64l35 31q38 -50 94 -50q37 0 61 22
t24 53q0 63 -91 63h-14l-5 31l139 122h-165l12 47h233l-10 -39l-146 -124q45 -6 71.5 -30.5t26.5 -65.5q0 -53 -39 -88.5t-98 -35.5z" />
    <glyph glyph-name="fiveeighths" unicode="&#x215d;" horiz-adv-x="794" 
d="M562 -8q-55 0 -91 28t-36 72q0 43 26.5 71.5t70.5 36.5q-47 28 -47 77q0 44 36.5 75t91.5 31q52 0 85 -27t33 -70q0 -37 -23 -63.5t-60 -35.5q54 -25 54 -82q0 -47 -39 -80t-101 -33zM565 35q38 0 62.5 20t24.5 52q0 27 -21.5 45.5t-57.5 18.5q-39 0 -63.5 -20.5
t-25.5 -52.5q0 -27 22.5 -45t58.5 -18zM605 213q35 0 56.5 19.5t21.5 48.5q0 25 -19.5 42.5t-50.5 17.5q-34 0 -56 -19.5t-22 -48.5q-1 -26 18.5 -43t51.5 -17zM75 0l304 359l283 341h55l-305 -359l-282 -341h-55zM176 317q-38 0 -72.5 17t-53.5 45l36 32q36 -48 92 -48
q39 0 64.5 25.5t25.5 61.5q0 30 -19.5 46t-51.5 16q-34 0 -63 -17l-34 24l57 181h202l-11 -49h-159l-35 -106q26 11 56 11q50 0 80.5 -27.5t30.5 -76.5q0 -55 -41 -95t-104 -40z" />
    <glyph glyph-name="seveneighths" unicode="&#x215e;" horiz-adv-x="794" 
d="M556 -8q-55 0 -91 28t-36 72q0 43 26.5 71.5t70.5 36.5q-47 28 -47 77q0 44 36.5 75t91.5 31q52 0 85 -27t33 -70q0 -37 -23 -63.5t-60 -35.5q54 -25 54 -82q0 -47 -39 -80t-101 -33zM559 35q38 0 62.5 20t24.5 52q0 27 -21.5 45.5t-57.5 18.5q-39 0 -63.5 -20.5
t-25.5 -52.5q0 -27 22.5 -45t58.5 -18zM599 213q35 0 56.5 19.5t21.5 48.5q0 25 -19.5 42.5t-50.5 17.5q-34 0 -56 -19.5t-22 -48.5q-1 -26 18.5 -43t51.5 -17zM87 324l229 327h-184l13 49h240l-9 -40l-232 -336h-57zM43 0l304 359l283 341h55l-305 -359l-282 -341h-55z" />
    <glyph glyph-name="minus" unicode="&#x2212;" horiz-adv-x="539" 
d="M70 316l17 72h428l-18 -72h-427z" />
    <glyph glyph-name="Q.alt" horiz-adv-x="707" 
d="M429 711q114 0 182.5 -77t68.5 -200q0 -92 -34 -185.5t-94 -157.5l60 -75l-61 -44l-53 73q-82 -57 -176 -57q-114 0 -182.5 77.5t-68.5 200.5q0 94 36 190.5t99 158.5q96 96 223 96zM328 60q72 0 128 41l-91 117l61 45l80 -112q44 53 69.5 130.5t25.5 148.5
q0 95 -48 152.5t-130 57.5q-90 0 -159 -71q-52 -52 -83 -136.5t-31 -163.5q0 -94 48 -151.5t130 -57.5z" />
    <glyph glyph-name="a.alt" horiz-adv-x="566" 
d="M210 -10q-74 0 -121.5 56t-47.5 151q0 76 27 148t74 119q70 68 156 68q60 0 100 -33t59 -86l26 109h75l-128 -522h-74l21 84q-78 -94 -167 -94zM235 55q63 0 116 53q37 37 59 94.5t22 115.5q0 65 -35.5 107t-91.5 42q-60 0 -107 -47q-37 -38 -58.5 -96.5t-21.5 -120.5
q0 -68 31.5 -108t85.5 -40z" />
    <glyph glyph-name="aacute.alt" horiz-adv-x="566" 
d="M321 590l122 142l74 -36l-131 -106h-65zM210 -10q-74 0 -121.5 56t-47.5 151q0 76 27 148t74 119q70 68 156 68q60 0 100 -33t59 -86l26 109h75l-128 -522h-74l21 84q-78 -94 -167 -94zM235 55q63 0 116 53q37 37 59 94.5t22 115.5q0 65 -35.5 107t-91.5 42
q-60 0 -107 -47q-37 -38 -58.5 -96.5t-21.5 -120.5q0 -68 31.5 -108t85.5 -40z" />
    <glyph glyph-name="abreve.alt" horiz-adv-x="566" 
d="M210 -10q-74 0 -121.5 56t-47.5 151q0 76 27 148t74 119q70 68 156 68q60 0 100 -33t59 -86l26 109h75l-128 -522h-74l21 84q-78 -94 -167 -94zM235 55q63 0 116 53q37 37 59 94.5t22 115.5q0 65 -35.5 107t-91.5 42q-60 0 -107 -47q-37 -38 -58.5 -96.5t-21.5 -120.5
q0 -68 31.5 -108t85.5 -40zM363 589q-59 0 -89 32t-24 87h55q0 -60 64 -60q61 0 94 60h58q-20 -56 -61.5 -87.5t-96.5 -31.5z" />
    <glyph glyph-name="acircumflex.alt" horiz-adv-x="566" 
d="M226 591l127 131h66l63 -131h-59l-47 70l-85 -70h-65zM210 -10q-74 0 -121.5 56t-47.5 151q0 76 27 148t74 119q70 68 156 68q60 0 100 -33t59 -86l26 109h75l-128 -522h-74l21 84q-78 -94 -167 -94zM235 55q63 0 116 53q37 37 59 94.5t22 115.5q0 65 -35.5 107t-91.5 42
q-60 0 -107 -47q-37 -38 -58.5 -96.5t-21.5 -120.5q0 -68 31.5 -108t85.5 -40z" />
    <glyph glyph-name="adieresis.alt" horiz-adv-x="566" 
d="M240 593l23 90h83l-23 -90h-83zM396 593l23 90h81l-22 -90h-82zM210 -10q-74 0 -121.5 56t-47.5 151q0 76 27 148t74 119q70 68 156 68q60 0 100 -33t59 -86l26 109h75l-128 -522h-74l21 84q-78 -94 -167 -94zM235 55q63 0 116 53q37 37 59 94.5t22 115.5q0 65 -35.5 107
t-91.5 42q-60 0 -107 -47q-37 -38 -58.5 -96.5t-21.5 -120.5q0 -68 31.5 -108t85.5 -40z" />
    <glyph glyph-name="agrave.alt" horiz-adv-x="566" 
d="M210 -10q-74 0 -121.5 56t-47.5 151q0 76 27 148t74 119q70 68 156 68q60 0 100 -33t59 -86l26 109h75l-128 -522h-74l21 84q-78 -94 -167 -94zM235 55q63 0 116 53q37 37 59 94.5t22 115.5q0 65 -35.5 107t-91.5 42q-60 0 -107 -47q-37 -38 -58.5 -96.5t-21.5 -120.5
q0 -68 31.5 -108t85.5 -40zM326 590l-83 106l74 36l61 -142h-52z" />
    <glyph glyph-name="amacron.alt" horiz-adv-x="566" 
d="M210 -10q-74 0 -121.5 56t-47.5 151q0 76 27 148t74 119q70 68 156 68q60 0 100 -33t59 -86l26 109h75l-128 -522h-74l21 84q-78 -94 -167 -94zM235 55q63 0 116 53q37 37 59 94.5t22 115.5q0 65 -35.5 107t-91.5 42q-60 0 -107 -47q-37 -38 -58.5 -96.5t-21.5 -120.5
q0 -68 31.5 -108t85.5 -40zM222 605l16 60h277l-15 -60h-278z" />
    <glyph glyph-name="aogonek.alt" horiz-adv-x="566" 
d="M415 -106l-10 -43q-5 -1 -14 -1q-96 3 -96 59q0 41 66 91h-5l21 84q-78 -94 -167 -94q-74 0 -121.5 56t-47.5 151q0 76 27 148t74 119q70 68 156 68q60 0 100 -33t59 -86l26 109h75l-128 -522h-11q-59 -50 -59 -75q0 -27 55 -31zM235 55q63 0 116 53q37 37 59 94.5
t22 115.5q0 65 -35.5 107t-91.5 42q-60 0 -107 -47q-37 -38 -58.5 -96.5t-21.5 -120.5q0 -68 31.5 -108t85.5 -40z" />
    <glyph glyph-name="aring.alt" horiz-adv-x="566" 
d="M483 695q0 -43 -32 -74.5t-78 -31.5q-41 0 -67 25t-26 63q0 43 32.5 75t77.5 32q41 0 67 -25t26 -64zM319 679q0 -24 15.5 -40t40.5 -16q29 0 49 21t20 49q0 24 -15 40t-40 16q-29 0 -49.5 -21t-20.5 -49zM210 -10q-74 0 -121.5 56t-47.5 151q0 76 27 148t74 119
q70 68 156 68q60 0 100 -33t59 -86l26 109h75l-128 -522h-74l21 84q-78 -94 -167 -94zM235 55q63 0 116 53q37 37 59 94.5t22 115.5q0 65 -35.5 107t-91.5 42q-60 0 -107 -47q-37 -38 -58.5 -96.5t-21.5 -120.5q0 -68 31.5 -108t85.5 -40z" />
    <glyph glyph-name="aring.alt2" horiz-adv-x="501" 
d="M298 0l19 75q-70 -85 -162 -85q-62 0 -102.5 38t-40.5 103q0 82 53 135q57 57 156 57q69 0 150 -27l3 15q8 31 8 59q0 92 -116 92q-59 0 -123 -27l-18 63q58 25 116 28q-19 22 -19 57q0 42 32.5 73.5t77.5 31.5q41 0 67 -24.5t26 -62.5q0 -28 -14.5 -52.5t-39.5 -37.5
q84 -34 84 -127q0 -31 -12 -84l-72 -300h-73zM316 529q29 0 49.5 21t20.5 48q0 25 -15 40.5t-41 15.5q-29 0 -49 -21t-20 -49q0 -24 15 -39.5t40 -15.5zM180 47q57 0 104 42t62 104l13 53q-64 23 -133 23q-62 0 -102 -38q-37 -35 -37 -93q0 -41 25 -66t68 -25z" />
    <glyph glyph-name="aringacute.alt" horiz-adv-x="566" 
d="M381 813l120 120l69 -35l-126 -85h-63zM483 694q0 -43 -32 -74.5t-78 -31.5q-41 0 -67 25t-26 63q0 43 32.5 75t77.5 32q41 0 67 -25t26 -64zM319 678q0 -24 15.5 -40t40.5 -16q29 0 49 21t20 49q0 24 -15 40t-40 16q-29 0 -49.5 -21t-20.5 -49zM210 -10q-74 0 -121.5 56
t-47.5 151q0 76 27 148t74 119q70 68 156 68q60 0 100 -33t59 -86l26 109h75l-128 -522h-74l21 84q-78 -94 -167 -94zM235 55q63 0 116 53q37 37 59 94.5t22 115.5q0 65 -35.5 107t-91.5 42q-60 0 -107 -47q-37 -38 -58.5 -96.5t-21.5 -120.5q0 -68 31.5 -108t85.5 -40z" />
    <glyph glyph-name="aringacute.alt2" horiz-adv-x="501" 
d="M323 724l120 120l69 -36l-125 -84h-64zM298 0l19 75q-70 -85 -162 -85q-62 0 -102.5 38t-40.5 103q0 82 53 135q57 57 156 57q69 0 150 -27l3 15q8 31 8 59q0 92 -116 92q-59 0 -123 -27l-18 63q58 25 116 28q-19 22 -19 57q0 42 32.5 73.5t77.5 31.5q41 0 67 -24.5
t26 -62.5q0 -28 -14.5 -52.5t-39.5 -37.5q84 -34 84 -127q0 -31 -12 -84l-72 -300h-73zM316 529q29 0 49.5 21t20.5 48q0 25 -15 40.5t-41 15.5q-29 0 -49 -21t-20 -49q0 -24 15 -39.5t40 -15.5zM180 47q57 0 104 42t62 104l13 53q-64 23 -133 23q-62 0 -102 -38
q-37 -35 -37 -93q0 -41 25 -66t68 -25z" />
    <glyph glyph-name="atilde.alt" horiz-adv-x="566" 
d="M210 -10q-74 0 -121.5 56t-47.5 151q0 76 27 148t74 119q70 68 156 68q60 0 100 -33t59 -86l26 109h75l-128 -522h-74l21 84q-78 -94 -167 -94zM235 55q63 0 116 53q37 37 59 94.5t22 115.5q0 65 -35.5 107t-91.5 42q-60 0 -107 -47q-37 -38 -58.5 -96.5t-21.5 -120.5
q0 -68 31.5 -108t85.5 -40zM480 702l45 -13q-22 -52 -45 -75.5t-55 -23.5q-26 0 -63 23q-32 20 -48 20q-28 0 -53 -48l-45 14q21 52 44.5 75t55.5 23q23 0 63 -22q29 -20 48 -20q27 0 53 47z" />
    <glyph glyph-name="three.alt" horiz-adv-x="517" 
d="M213 -11q-144 0 -220 109l60 47q63 -86 163 -86q70 0 113 41t43 99t-47 91.5t-121 33.5h-28l16 65h35q93 0 150.5 39.5t57.5 105.5q0 48 -33.5 77t-88.5 29q-78 0 -149 -58l-42 51q86 78 196 78q88 0 142 -47.5t54 -120.5q0 -71 -46.5 -121t-133.5 -72q52 -19 84.5 -58
t32.5 -96q0 -88 -68 -147.5t-170 -59.5z" />
    <glyph glyph-name="registered.alt" horiz-adv-x="736" 
d="M429 712q130 0 208.5 -86.5t78.5 -217.5q0 -88 -32 -173t-91 -145q-102 -102 -242 -102q-130 0 -208.5 86.5t-78.5 217.5q0 89 32 174t91 144q102 102 242 102zM352 19q125 0 215 90q56 56 85.5 136.5t29.5 162.5q1 116 -67 194.5t-189 78.5q-126 0 -214 -90
q-56 -55 -85.5 -135t-30.5 -163q0 -117 68.5 -195.5t187.5 -78.5zM310 312l-34 -141h-52l92 377h109q69 0 102 -34q27 -26 27 -69q0 -54 -34 -86q-25 -27 -78 -39l60 -149h-56l-56 141h-80zM323 358h66q64 0 91 29q21 21 21 54q0 26 -13 39q-22 20 -68 20h-65z" />
    <glyph glyph-name="R_p" horiz-adv-x="1027" 
d="M6 0l171 700h152q101 0 158 -50t57 -137q0 -91 -57 -153.5t-145 -83.5l98 -276h-80l-90 268q-4 -1 -127 -1l-64 -267h-73zM485 -151l165 676h71l-20 -82q73 91 150 91q67 0 105.5 -52.5t38.5 -145.5q0 -81 -27 -158.5t-75 -125.5q-60 -62 -135 -62q-98 0 -139 118
l-63 -259h-71zM159 331h102q94 0 150.5 49t56.5 132q0 58 -36.5 89.5t-104.5 31.5h-95zM751 53q49 0 90 41q36 38 58 103.5t22 131.5q0 67 -25 104.5t-72 37.5q-52 0 -96 -46q-37 -37 -59.5 -98.5t-22.5 -123.5q0 -67 28.5 -108.5t76.5 -41.5z" />
    <glyph glyph-name="onehalf.alt" horiz-adv-x="794" 
d="M56 325l11 45h98l68 278l-102 -37l2 48l124 46h41l-82 -335h93l-11 -45h-242zM415 0l11 41l186 153q60 51 60 89q0 25 -17 39t-46 14q-43 0 -92 -47l-30 35q59 59 126 59q50 0 80.5 -27t30.5 -69q0 -33 -18 -61t-64 -64l-143 -115h180l-12 -47h-252zM92 0l304 359
l283 341h55l-305 -359l-282 -341h-55z" />
    <glyph glyph-name="onethird.alt" horiz-adv-x="794" 
d="M56 325l11 45h98l68 278l-102 -37l2 48l124 46h41l-82 -335h93l-11 -45h-242zM554 -8q-87 0 -128 64l36 31q40 -50 93 -50q37 0 61 22t24 53q0 63 -90 63h-15l-5 31l140 122h-165l12 47h232l-9 -39l-146 -124q45 -6 71.5 -30.5t26.5 -65.5q0 -53 -39.5 -88.5t-98.5 -35.5
zM83 0l304 359l283 341h55l-305 -359l-282 -341h-55z" />
    <glyph glyph-name="onequarter.alt" horiz-adv-x="794" 
d="M58 325l11 45h98l68 278l-102 -37l2 48l124 46h41l-82 -335h93l-11 -45h-242zM98 0l304 359l283 341h55l-305 -359l-282 -341h-55zM577 -1l19 83h-172l4 45l229 252h60l-63 -255h48l-10 -42h-48l-21 -83h-46zM480 123h128l45 192h-2z" />
    <glyph glyph-name="onefifth.alt" horiz-adv-x="794" 
d="M56 325l11 45h98l68 278l-102 -37l2 48l124 46h41l-82 -335h93l-11 -45h-242zM554 -8q-38 0 -72 16.5t-54 45.5l36 32q38 -48 92 -48q39 0 65 25.5t26 61.5q0 30 -20 46t-52 16q-33 0 -63 -16l-33 23l57 181h202l-12 -49h-159l-34 -106q26 11 55 11q51 0 81.5 -27.5
t30.5 -76.5q0 -56 -41 -95.5t-105 -39.5zM88 0l304 359l283 341h55l-305 -359l-282 -341h-55z" />
    <glyph glyph-name="onesixth.alt" horiz-adv-x="794" 
d="M561 -8q-53 0 -84.5 33t-31.5 96q0 53 21.5 115t59.5 100q47 47 110 47q59 0 98 -41l-29 -38q-31 33 -72 33q-42 0 -73 -33q-36 -36 -55 -104q36 40 90 40q42 0 71 -26.5t29 -74.5q0 -59 -38 -103t-96 -44zM90 0l304 359l283 341h55l-305 -359l-282 -341h-55zM56 325
l11 45h98l68 278l-102 -37l2 48l124 46h41l-82 -335h93l-11 -45h-242zM562 36q36 0 60 29t24 68q0 30 -17.5 47.5t-46.5 17.5q-35 0 -59 -24q-27 -25 -27 -68q0 -33 18 -51.5t48 -18.5z" />
    <glyph glyph-name="oneeighth.alt" horiz-adv-x="794" 
d="M56 325l11 45h98l68 278l-102 -37l2 48l124 46h41l-82 -335h93l-11 -45h-242zM563 -8q-55 0 -91 28t-36 72q0 43 26.5 71.5t70.5 36.5q-47 28 -47 77q0 44 36.5 75t91.5 31q52 0 85 -27t33 -70q0 -37 -23 -63.5t-60 -35.5q54 -25 54 -82q0 -47 -39 -80t-101 -33zM566 35
q38 0 62.5 20t24.5 52q0 27 -21.5 45.5t-57.5 18.5q-39 0 -63.5 -20.5t-25.5 -52.5q0 -27 22.5 -45t58.5 -18zM606 213q35 0 56.5 19.5t21.5 48.5q0 25 -19.5 42.5t-50.5 17.5q-34 0 -56 -19.5t-22 -48.5q-1 -26 18.5 -43t51.5 -17zM90 0l304 359l283 341h55l-305 -359
l-282 -341h-55z" />
    <glyph glyph-name="one.sup_alt" 
d="M111 436l11 45h98l68 277l-101 -37l1 48l123 47h41l-81 -335h93l-11 -45h-242z" />
    <glyph glyph-name="one.inf_alt" 
d="M-25 -132l11 45h98l68 277l-101 -37l1 48l123 47h41l-81 -335h93l-11 -45h-242z" />
    <glyph glyph-name="zero.tab" horiz-adv-x="530" 
d="M501 487q0 -112 -41.5 -236.5t-110.5 -192.5q-67 -69 -149 -69q-81 0 -127 57.5t-46 166.5q0 111 42 236t110 193q69 69 151 69q80 0 125.5 -57.5t45.5 -166.5zM102 213q0 -156 101 -156q50 0 92 42q57 57 94.5 175.5t37.5 213.5q0 155 -102 155q-49 0 -91 -42
q-57 -57 -94.5 -176t-37.5 -212z" />
    <glyph glyph-name="one.tab" horiz-adv-x="530" 
d="M-10 0l17 67h179l132 549l-178 -67v72l219 83h56l-155 -637h161l-16 -67h-415z" />
    <glyph glyph-name="two.tab" horiz-adv-x="530" 
d="M-36 0l15 58l330 300q59 54 85.5 95t26.5 86t-32 72.5t-82 27.5q-80 0 -166 -89l-48 52q101 108 217 108q86 0 138 -46t52 -120q0 -59 -32 -109t-99 -111l-280 -254h322l-18 -70h-429z" />
    <glyph glyph-name="three.tab" horiz-adv-x="530" 
d="M197 -11q-144 0 -218 110l56 48q60 -88 166 -88q71 0 117 43.5t46 109.5q0 57 -43.5 88.5t-121.5 34.5h-22l-8 48l254 247h-302l19 70h403l-15 -60l-261 -251q79 -11 128 -55.5t49 -116.5q0 -95 -71 -161.5t-176 -66.5z" />
    <glyph glyph-name="three.tab_alt" horiz-adv-x="530" 
d="M198 -11q-73 0 -130.5 31t-91.5 82l58 45q64 -89 168 -89q72 0 114.5 40t42.5 99q0 64 -50.5 96t-127.5 32h-23l17 64h37q100 1 156 40.5t56 104.5q0 48 -34.5 77.5t-90.5 29.5q-81 0 -154 -63l-41 53q92 80 201 80q88 0 143 -47.5t55 -121.5q0 -72 -47.5 -121.5
t-137.5 -69.5q53 -19 86 -58t33 -97q0 -88 -66.5 -147.5t-172.5 -59.5z" />
    <glyph glyph-name="four.tab" horiz-adv-x="530" 
d="M261 0l39 161h-301l4 69l411 474h89l-117 -481h84l-17 -62h-83l-38 -161h-71zM76 222h239l95 387h-1z" />
    <glyph glyph-name="five.tab" horiz-adv-x="530" 
d="M198 -11q-133 0 -215 105l54 49q67 -86 165 -86q77 0 125 53t48 126q0 62 -36.5 94t-97.5 32q-63 0 -118 -30l-44 33l103 335h343l-18 -71h-276l-70 -222q44 20 96 20q88 0 142.5 -49.5t54.5 -134.5q0 -103 -70 -178.5t-186 -75.5z" />
    <glyph glyph-name="six.tab" horiz-adv-x="530" 
d="M230 -11q-81 0 -134 53q-60 58 -60 178q0 101 40 219t113 191q81 81 182 81q95 0 163 -66l-45 -58q-55 55 -124 55q-68 0 -127 -59q-84 -84 -111 -225q66 84 166 84q76 0 125 -49t49 -134q0 -104 -67.5 -187t-169.5 -83zM233 54q69 0 113.5 62.5t44.5 136.5
q0 59 -31 92.5t-87 33.5q-60 0 -107 -47q-53 -53 -53 -143q0 -58 33 -96.5t87 -38.5z" />
    <glyph glyph-name="seven.tab" horiz-adv-x="530" 
d="M42 0l406 629h-335l19 71h420l-16 -60l-407 -640h-87z" />
    <glyph glyph-name="eight.tab" horiz-adv-x="530" 
d="M217 -10q-94 0 -152.5 50t-59.5 127q0 76 48 131.5t124 73.5q-36 19 -57.5 54.5t-21.5 83.5q0 79 61.5 139.5t153.5 60.5q84 0 139 -47t55 -123q0 -68 -41.5 -119.5t-107.5 -69.5q96 -52 96 -153q0 -85 -67 -146.5t-170 -61.5zM221 54q69 0 113 43t44 106
q0 55 -37.5 89.5t-101.5 34.5q-68 0 -113 -45.5t-45 -105.5q-1 -56 38.5 -89t101.5 -33zM289 389q65 0 105 44t40 100q0 50 -34 81t-88 31q-62 0 -101.5 -42t-40.5 -99q0 -49 32.5 -82t86.5 -33z" />
    <glyph glyph-name="nine.tab" horiz-adv-x="530" 
d="M162 -11q-98 0 -173 75l45 56q64 -62 133 -62q68 0 123 57q83 81 111 220q-66 -84 -165 -84q-77 0 -126 50t-49 137q0 104 68 188.5t171 84.5q80 0 132 -52q60 -60 60 -181q0 -103 -40 -220t-112 -189q-78 -80 -178 -80zM255 314q61 0 106 47q54 54 54 146q0 61 -33 100
t-87 39q-70 0 -114.5 -63.5t-44.5 -138.5q0 -62 31 -96t88 -34z" />
    <glyph glyph-name="period.tab" horiz-adv-x="265" 
d="M-3 0l28 112h101l-28 -112h-101z" />
    <glyph glyph-name="comma.tab" horiz-adv-x="265" 
d="M-42 -120l-9 35q42 12 63 32t26 53h-42l28 112h102l-25 -97q-15 -62 -48 -92t-95 -43z" />
    <glyph glyph-name="colon.tab" horiz-adv-x="265" 
d="M-3 0l27 111h101l-28 -111h-100zM96 410l28 111h101l-27 -111h-102z" />
    <glyph glyph-name="semicolon.tab" horiz-adv-x="265" 
d="M-42 -120l-9 35q42 12 63 32t26 53h-42l28 111h101l-24 -96q-15 -62 -48 -92t-95 -43zM96 410l28 111h101l-27 -111h-102z" />
    <glyph glyph-name="twodotleader.tab" horiz-adv-x="530" 
d="M-2 0l27 106h98l-27 -106h-98zM262 0l26 106h98l-27 -106h-97z" />
    <glyph glyph-name="periodcentered.tab" horiz-adv-x="265" 
d="M55 245l28 112h103l-28 -112h-103z" />
    <glyph glyph-name="slash.tab" horiz-adv-x="530" 
d="M-107 -119l648 908h74l-647 -908h-75z" />
    <glyph glyph-name="bar.tab" horiz-adv-x="265" 
d="M-14 -119l223 908h62l-223 -908h-62z" />
    <glyph glyph-name="underscore.tab" horiz-adv-x="530" 
d="M-124 -160l15 61h530l-16 -61h-529z" />
    <glyph glyph-name="dollar.tab" horiz-adv-x="530" 
d="M357 772h57l-21 -80q78 -19 140 -80l-47 -53q-53 54 -114 70l-66 -248q72 -36 105.5 -78.5t33.5 -100.5q0 -88 -64 -146t-166 -58h-12l-28 -101h-58l30 108q-102 21 -174 102l49 51q62 -72 145 -90l71 264q-75 37 -108.5 78.5t-33.5 96.5q0 82 63 138t157 56q14 0 21 -1z
M369 195q0 34 -18 60.5t-65 53.5l-67 -247h5q64 0 104.5 37.5t40.5 95.5zM173 516q0 -33 19 -59t66 -53l62 233h-8q-62 0 -100.5 -35t-38.5 -86z" />
    <glyph glyph-name="sterling.tab" horiz-adv-x="530" 
d="M-30 0l11 44l74 20l58 239h-72l16 65h72l30 132q25 102 73 150q60 58 145 58q105 0 163 -94l-60 -44q-41 67 -107 67q-52 0 -86 -34q-36 -37 -54 -114l-29 -121h221l-17 -65h-220l-57 -236h289l-17 -67h-433z" />
    <glyph glyph-name="Euro.tab" horiz-adv-x="530" 
d="M46 408l14 56h67q37 103 102 169q75 77 169 77q105 0 156 -95l-54 -43q-41 71 -107 71q-57 0 -109 -52q-46 -45 -79 -127h202l-14 -56h-207q-16 -56 -20 -111h201l-14 -55h-189v-2q0 -89 32 -136t90 -47q54 0 113 53l39 -52q-76 -68 -158 -68q-86 0 -139 64t-53 185v3
h-83l14 55h72q5 58 18 111h-63z" />
    <glyph glyph-name="yen.tab" horiz-adv-x="530" 
d="M57 269l14 55h136l-108 376h80l87 -337l250 337h90l-295 -376h134l-14 -55h-150l-23 -96h150l-14 -55h-150l-28 -118h-73l28 118h-151l14 55h151l23 96h-151z" />
    <glyph glyph-name="cent.tab" horiz-adv-x="530" 
d="M436 705l-33 -94q75 -24 115 -94l-53 -38q-32 52 -85 71l-135 -402q6 -1 18 -1q72 0 142 60l39 -48q-81 -75 -186 -75q-11 0 -33 2l-33 -92h-60l39 107q-54 24 -86.5 76t-32.5 123q0 149 94 245q77 77 185 77q11 0 17 -1l29 84h59zM123 303q0 -101 72 -140l134 396h-1
q-74 0 -129 -55q-36 -36 -56 -91.5t-20 -109.5z" />
    <glyph glyph-name="numbersign.tab" horiz-adv-x="530" 
d="M43 0l49 177h-84l16 65h86l59 218h-89l16 65h91l49 175h60l-48 -175h147l48 175h60l-48 -175h85l-16 -65h-87l-59 -218h90l-16 -65h-92l-48 -177h-61l48 177h-147l-48 -177h-61zM170 242h148l59 218h-147z" />
    <glyph glyph-name="paragraph.tab" horiz-adv-x="530" 
d="M272 0l59 247h-10q-134 0 -196 63q-49 49 -49 130q0 107 70 176q82 84 246 84h128l-171 -700h-77z" />
    <glyph glyph-name="section.tab" horiz-adv-x="530" 
d="M210 -9q-110 0 -183 69l46 50q59 -57 141 -57q41 0 66.5 17.5t25.5 46.5q0 26 -23 46t-82 47q-83 37 -120 68.5t-37 77.5q0 57 45 91t117 37q-59 40 -59 97q0 56 47 92.5t122 36.5q110 0 184 -70l-45 -50q-63 58 -142 58q-41 0 -67 -18t-26 -46q0 -26 23.5 -46.5
t81.5 -46.5q84 -37 121 -68.5t37 -77.5q0 -56 -45.5 -91t-116.5 -37q58 -40 58 -97q0 -56 -46.5 -92.5t-122.5 -36.5zM303 257q45 0 76 22t31 56q0 26 -20 45t-65 39q-58 25 -102 25q-45 0 -76 -22t-31 -56q0 -26 20 -45t65 -39q54 -25 102 -25z" />
    <glyph glyph-name="degree.tab" horiz-adv-x="530" 
d="M327 708q69 0 112.5 -45t43.5 -119q0 -105 -70 -173q-58 -58 -133 -58q-69 0 -112.5 45t-43.5 119q0 103 70 173q60 58 133 58zM283 364q51 0 91 40q54 54 54 140q0 51 -28.5 82t-74.5 31q-53 0 -91 -40q-55 -53 -55 -140q0 -51 28.5 -82t75.5 -31z" />
    <glyph glyph-name="percent.tab" horiz-adv-x="530" 
d="M329 -6q-41 0 -65 30t-24 83q0 50 19.5 104.5t51.5 86.5q35 35 78 35q41 0 65 -30.5t24 -83.5q0 -50 -19.5 -104t-52.5 -86q-35 -35 -77 -35zM202 706q41 0 65 -30t24 -83q0 -50 -19.5 -104.5t-52.5 -86.5q-33 -35 -77 -35q-41 0 -65 30.5t-24 83.5q0 50 19.5 104
t51.5 86q37 35 78 35zM489 700h53l-262 -361l-239 -339h-53l262 361zM197 660q-18 0 -38 -18q-24 -24 -39.5 -73t-15.5 -90q0 -65 43 -65q20 0 38 18q23 24 39 73.5t16 88.5q0 66 -43 66zM334 40q18 0 38 18q23 24 39 73.5t16 89.5q0 65 -43 65q-20 0 -38 -18
q-24 -24 -39.5 -73t-15.5 -89q0 -66 43 -66z" />
    <glyph glyph-name="quotedbl.tab" horiz-adv-x="530" 
d="M134 431l100 269h88l-2 -6l-147 -263h-39zM331 431l100 269h88l-2 -6l-147 -263h-39z" />
    <glyph glyph-name="quotesingle.tab" horiz-adv-x="265" 
d="M101 431l100 269h89l-2 -6l-148 -263h-39z" />
    <glyph glyph-name="plus.tab" horiz-adv-x="530" 
d="M176 139l46 179h-174l17 68h174l43 179h71l-45 -179h173l-17 -68h-172l-44 -179h-72z" />
    <glyph glyph-name="minus.tab" horiz-adv-x="530" 
d="M48 316l18 72h416l-19 -72h-415z" />
    <glyph glyph-name="divide.tab" horiz-adv-x="530" 
d="M161 124l25 97h93l-24 -97h-94zM48 317l17 70h417l-18 -70h-416zM250 483l25 97h93l-24 -97h-94z" />
    <glyph glyph-name="equal.tab" horiz-adv-x="530" 
d="M35 214l19 70h390l-18 -70h-391zM87 420l18 70h390l-18 -70h-390z" />
    <glyph glyph-name="multiply.tab" horiz-adv-x="530" 
d="M76 153l-41 52l186 152l-109 147l57 44l107 -148l184 152l40 -53l-185 -151l110 -147l-59 -45l-106 148z" />
    <glyph glyph-name="less.tab" horiz-adv-x="530" 
d="M390 117l-338 203l17 64l437 207l-20 -80l-351 -163l273 -160z" />
    <glyph glyph-name="greater.tab" horiz-adv-x="530" 
d="M140 587l338 -203l-17 -64l-438 -207l21 80l351 163l-273 160z" />
    <glyph glyph-name="plusminus.tab" horiz-adv-x="530" 
d="M190 187l42 170h-172l17 67h172l43 170h70l-43 -170h172l-17 -67h-172l-42 -170h-70zM-21 28l17 67h414l-17 -67h-414z" />
    <glyph glyph-name="space.tab" horiz-adv-x="265" 
 />
    <glyph glyph-name="NUL" horiz-adv-x="0" 
 />
    <glyph glyph-name="hfjslug" horiz-adv-x="694" 
d="M255 276h8l11 34h1l11 -34h8l14 47h-8l-10 -35h-1l-11 35h-7l-11 -35h-1l-10 35h-8zM321 388q19 0 29 24h1l12 -24l12 6l-17 32q6 14 13 39l-13 3q-4 -18 -8 -30h-1l-16 31q23 21 23 42q0 31 -27 31q-12 0 -20 -9t-8 -22t14 -39q-23 -18 -23 -47q0 -16 8 -26.5t21 -10.5z
M50 -200v303q14 0 23 9.5t9 22.5t-9.5 22.5t-22.5 9.5v554h100l30 79h334l29 -79h101v-921h-208l-8 14h-163l-8 -14h-207zM523 277h8v12l8 8l15 -20h10l-20 26l18 20h-10l-20 -24h-1v24h-8v-46zM193 277h34v7h-26v13h23v7h-23v12h26v7h-34v-46zM184 391h15v79h47v-79h15v172
h-15v-79h-47v79h-15v-172zM132 277h8v32l25 -32h7v46h-8v-32l-25 32h-7v-46zM400 391h15v78h38v14h-38v66h43v14h-58v-172zM468 277h8v15h12l10 -15h9l-12 17q10 4 10 14q0 15 -17 15h-20v-46zM366 277h8v17l18 29h-9l-13 -22l-13 22h-9l18 -29v-17zM481 390q31 0 31 36v137
h-16v-137q0 -22 -16 -22q-8 0 -20 5v-15q10 -4 21 -4zM476 299v17h11q10 0 10 -8q0 -9 -10 -9h-11zM322 402q-16 0 -16 25q0 19 16 35l20 -39q-8 -21 -20 -21zM327 479q-12 22 -12 32q0 19 14 19q13 0 13 -19q0 -15 -15 -32zM426 283q-16 0 -16 17q0 6 4.5 11.5t11.5 5.5
t11.5 -5.5t4.5 -11.5q0 -17 -16 -17zM426 276q10 0 17 7t7 17q0 9 -7 16.5t-17 7.5t-17 -7.5t-7 -16.5q0 -10 7 -17t17 -7z" />
    <glyph glyph-name="i.dot" horiz-adv-x="234" 
d="M16 0l128 522h74l-127 -522h-75zM165 628l22 86h83l-22 -86h-83z" />
    <glyph glyph-name="zero.num" 
d="M359 581q0 -57 -21.5 -119.5t-60.5 -100.5q-41 -44 -95 -44q-50 0 -79 35t-29 93q0 56 21.5 119t60.5 101q43 43 96 43q50 0 78.5 -34.5t28.5 -92.5zM127 446q0 -81 60 -81q30 0 52 24q32 31 50 88t18 102q0 82 -60 82q-28 0 -53 -25q-31 -31 -49 -88.5t-18 -101.5z" />
    <glyph glyph-name="one.num" horiz-adv-x="287" 
d="M132 325l77 322l-85 -33v47l109 43h41l-92 -379h-50z" />
    <glyph glyph-name="one.num_alt" 
d="M62 325l11 45h98l68 278l-102 -37l2 48l124 46h41l-82 -335h93l-11 -45h-242z" />
    <glyph glyph-name="two.num" 
d="M44 325l10 41l187 153q59 50 59 89q0 25 -17 39t-46 14q-40 0 -91 -47l-31 35q59 59 126 59q51 0 81.5 -27t30.5 -69q0 -32 -18.5 -60.5t-64.5 -64.5l-142 -116h179l-11 -46h-252z" />
    <glyph glyph-name="three.num" 
d="M182 317q-87 0 -128 64l35 31q38 -50 94 -50q37 0 61 22t24 53q0 63 -91 63h-14l-5 31l139 122h-165l12 47h233l-10 -39l-146 -124q45 -6 71.5 -30.5t26.5 -65.5q0 -53 -39 -88.5t-98 -35.5z" />
    <glyph glyph-name="four.num" 
d="M216 324l19 82h-172l5 45l229 253h59l-62 -255h48l-11 -43h-48l-20 -82h-47zM120 449h126l47 190h-2z" />
    <glyph glyph-name="five.num" 
d="M182 317q-38 0 -72.5 17t-53.5 45l36 32q36 -48 92 -48q39 0 64.5 25.5t25.5 61.5q0 30 -19.5 46t-51.5 16q-34 0 -63 -17l-34 24l57 181h202l-11 -49h-159l-35 -106q26 11 56 11q50 0 80.5 -27.5t30.5 -76.5q0 -55 -41 -95t-104 -40z" />
    <glyph glyph-name="six.num" 
d="M189 318q-53 0 -84 32.5t-31 95.5q0 53 21.5 115t59.5 100q47 47 109 47q58 0 99 -41l-29 -38q-33 33 -72 33q-40 0 -74 -32q-35 -38 -54 -105q34 40 90 40q42 0 71 -26.5t29 -74.5q0 -58 -38.5 -102t-96.5 -44zM191 361q36 0 59.5 29t23.5 67q0 31 -17.5 48.5
t-46.5 17.5q-34 0 -58 -24q-27 -25 -27 -68q0 -33 18 -51.5t48 -18.5z" />
    <glyph glyph-name="seven.num" 
d="M86 324l229 327h-184l13 49h240l-9 -40l-232 -336h-57z" />
    <glyph glyph-name="eight.num" 
d="M191 317q-55 0 -91 28t-36 72q0 42 26.5 71t70.5 38q-47 26 -47 75q0 44 36.5 75.5t91.5 31.5q52 0 85 -27t33 -70q0 -37 -23 -63.5t-60 -35.5q54 -25 54 -82q0 -47 -39 -80t-101 -33zM194 360q38 0 62.5 20.5t24.5 51.5q0 27 -22 45.5t-58 18.5q-39 0 -63 -20.5
t-25 -52.5q0 -27 22.5 -45t58.5 -18zM234 538q34 0 56 19.5t22 48.5q0 25 -19.5 42.5t-50.5 17.5q-34 0 -56.5 -19.5t-22.5 -48.5q0 -26 19.5 -43t51.5 -17z" />
    <glyph glyph-name="nine.num" 
d="M170 317q-59 0 -105 46l29 37q38 -36 79 -36q43 0 73 32q35 33 53 101q-32 -41 -89 -41q-42 0 -71.5 27t-29.5 76q0 59 38 104t96 45q54 0 85.5 -33t31.5 -96q0 -54 -21 -115.5t-59 -98.5q-50 -48 -110 -48zM224 499q33 0 58 23q27 27 27 70q0 34 -18 53t-48 19
q-37 0 -60 -29.5t-23 -69.5q0 -32 17 -49t47 -17z" />
    <glyph glyph-name="zero.den" 
d="M281 255q0 -56 -21.5 -119t-60.5 -101q-43 -43 -96 -43q-50 0 -79 34.5t-29 92.5q0 56 22 119t60 101q41 44 96 44q50 0 79 -35t29 -93zM48 121q0 -82 60 -82q27 0 52 25q32 31 50.5 88.5t18.5 101.5q0 39 -15.5 60t-44.5 21t-53 -24q-32 -31 -50 -88t-18 -102z" />
    <glyph glyph-name="one.den" horiz-adv-x="287" 
d="M52 0l79 321l-86 -33l-1 48l110 43h42l-93 -379h-51z" />
    <glyph glyph-name="one.den_alt" 
d="M-17 0l11 45h98l68 277l-101 -37l1 48l123 47h41l-81 -335h93l-11 -45h-242z" />
    <glyph glyph-name="two.den" 
d="M-36 0l11 41l186 153q60 51 60 89q0 25 -17 39t-46 14q-43 0 -92 -47l-30 35q59 59 126 59q50 0 80.5 -27t30.5 -69q0 -33 -18 -61t-64 -64l-143 -115h180l-12 -47h-252z" />
    <glyph glyph-name="three.den" 
d="M103 -8q-87 0 -128 64l36 31q40 -50 93 -50q37 0 61 22t24 53q0 63 -90 63h-15l-5 31l140 122h-165l12 47h232l-9 -39l-146 -124q45 -6 71.5 -30.5t26.5 -65.5q0 -53 -39.5 -88.5t-98.5 -35.5z" />
    <glyph glyph-name="four.den" 
d="M137 -1l19 83h-172l4 45l229 252h60l-63 -255h48l-10 -42h-48l-21 -83h-46zM40 123h128l45 192h-2z" />
    <glyph glyph-name="five.den" 
d="M103 -8q-38 0 -72 16.5t-54 45.5l36 32q38 -48 92 -48q39 0 65 25.5t26 61.5q0 30 -20 46t-52 16q-33 0 -63 -16l-33 23l57 181h202l-12 -49h-159l-34 -106q26 11 55 11q51 0 81.5 -27.5t30.5 -76.5q0 -56 -41 -95.5t-105 -39.5z" />
    <glyph glyph-name="six.den" 
d="M110 -8q-53 0 -84.5 33t-31.5 96q0 53 21.5 115t59.5 100q47 47 110 47q59 0 98 -41l-29 -38q-31 33 -72 33q-42 0 -73 -33q-36 -36 -55 -104q36 40 90 40q42 0 71 -26.5t29 -74.5q0 -59 -38 -103t-96 -44zM111 36q36 0 60 29t24 68q0 30 -17.5 47.5t-46.5 17.5
q-35 0 -59 -24q-27 -25 -27 -68q0 -33 18 -51.5t48 -18.5z" />
    <glyph glyph-name="seven.den" 
d="M6 -2l230 328h-183l12 49h240l-10 -40l-232 -337h-57z" />
    <glyph glyph-name="eight.den" 
d="M112 -8q-55 0 -91 28t-36 72q0 43 26.5 71.5t70.5 36.5q-47 28 -47 77q0 44 36.5 75t91.5 31q52 0 85 -27t33 -70q0 -37 -23 -63.5t-60 -35.5q54 -25 54 -82q0 -47 -39 -80t-101 -33zM115 35q38 0 62.5 20t24.5 52q0 27 -21.5 45.5t-57.5 18.5q-39 0 -63.5 -20.5
t-25.5 -52.5q0 -27 22.5 -45t58.5 -18zM155 213q35 0 56.5 19.5t21.5 48.5q0 25 -19.5 42.5t-50.5 17.5q-34 0 -56 -19.5t-22 -48.5q-1 -26 18.5 -43t51.5 -17z" />
    <glyph glyph-name="nine.den" 
d="M92 -9q-61 0 -105 46l29 38q36 -37 78 -37q44 0 74 32q35 36 53 101q-32 -41 -90 -41q-42 0 -71 27t-29 76q0 60 37.5 104.5t96.5 44.5q53 0 85 -33t32 -96q0 -53 -21.5 -114.5t-59.5 -99.5q-48 -48 -109 -48zM145 173q35 0 58 23q28 26 28 70q0 34 -18.5 53.5
t-48.5 19.5q-36 -1 -59.5 -30.5t-23.5 -69.5q0 -31 17.5 -48.5t46.5 -17.5z" />
    <glyph glyph-name="caron.alt" horiz-adv-x="500" 
d="M283 576l50 165h69v-3l-84 -162h-35z" />
    <glyph glyph-name="acute.cap" horiz-adv-x="500" 
d="M294 754l122 125l74 -34l-127 -91h-69z" />
    <glyph glyph-name="hungarumlaut.cap" horiz-adv-x="500" 
d="M243 754l122 125l72 -34l-128 -91h-66zM383 754l122 125l71 -34l-127 -91h-66z" />
    <glyph glyph-name="grave.cap" horiz-adv-x="500" 
d="M387 754l-90 91l75 34l69 -125h-54z" />
    <glyph glyph-name="circumflex.cap" horiz-adv-x="500" 
d="M236 756l129 115h70l72 -115h-64l-53 59l-83 -59h-71z" />
    <glyph glyph-name="caron.cap" horiz-adv-x="500" 
d="M535 871l-128 -115h-71l-72 115h64l54 -59l82 59h71z" />
    <glyph glyph-name="breve.cap" horiz-adv-x="500" 
d="M373 754q-57 0 -88 28.5t-24 78.5h54q6 -47 69 -47q61 0 89 47h60q-17 -50 -60 -78.5t-100 -28.5z" />
    <glyph glyph-name="tilde.cap" horiz-adv-x="500" 
d="M269 750l-46 15q22 48 45 70.5t54 22.5q22 0 66 -20q33 -19 50 -19q28 0 53 43l48 -15q-23 -48 -46 -70t-54 -22q-22 0 -66 20q-35 19 -50 19q-28 0 -54 -44z" />
    <glyph glyph-name="macron.cap" horiz-adv-x="500" 
d="M229 771l16 61h292l-15 -61h-293z" />
    <glyph glyph-name="dieresis.cap" horiz-adv-x="500" 
d="M246 757l22 87h86l-21 -87h-87zM411 757l22 87h86l-22 -87h-86z" />
    <glyph glyph-name="dotaccent.cap" horiz-adv-x="500" 
d="M328 757l21 87h89l-22 -87h-88z" />
    <glyph glyph-name="ring.cap" horiz-adv-x="500" 
d="M360 938q41 0 67 -23t26 -58q0 -44 -32.5 -74t-81.5 -30q-40 0 -66 24t-26 59q0 43 32.5 72.5t80.5 29.5zM342 790q30 0 49.5 18.5t19.5 44.5q0 22 -14.5 36t-39.5 14q-29 0 -48.5 -18.5t-19.5 -44.5q0 -22 15 -36t38 -14z" />
    </font>
</defs>
</svg>
